  0
SECTION
  2
HEADER
  9
$ACADVER
  1
AC1009
  9
$INSBASE
 10
0.0
 20
0.0
 30
0.0
  9
$EXTMIN
 10
-951.349639
 20
-406.04175
 30
0.0
  9
$EXTMAX
 10
1285.998208
 20
1406.055314
 30
0.0
  9
$LIMMIN
 10
0.0
 20
0.0
  9
$LIMMAX
 10
420.0
 20
297.0
  9
$ORTHOMODE
 70
     1
  9
$REGENMODE
 70
     1
  9
$FILLMODE
 70
     1
  9
$QTEXTMODE
 70
     0
  9
$MIRRTEXT
 70
     1
  9
$DRAGMODE
 70
     2
  9
$LTSCALE
 40
1.0
  9
$OSMODE
 70
     0
  9
$ATTMODE
 70
     2
  9
$TEXTSIZE
 40
25.0
  9
$TRACEWID
 40
1.0
  9
$TEXTSTYLE
  7
STANDARD
  9
$CLAYER
  8
0
  9
$CELTYPE
  6
BYLAYER
  9
$CECOLOR
 62
   256
  9
$DIMSCALE
 40
1.0
  9
$DIMASZ
 40
25.0
  9
$DIMEXO
 40
0.625
  9
$DIMDLI
 40
3.75
  9
$DIMRND
 40
0.0
  9
$DIMDLE
 40
0.0
  9
$DIMEXE
 40
1.25
  9
$DIMTP
 40
0.0
  9
$DIMTM
 40
0.0
  9
$DIMTXT
 40
25.0
  9
$DIMCEN
 40
2.5
  9
$DIMTSZ
 40
0.0
  9
$DIMTOL
 70
     0
  9
$DIMLIM
 70
     0
  9
$DIMTIH
 70
     0
  9
$DIMTOH
 70
     0
  9
$DIMSE1
 70
     0
  9
$DIMSE2
 70
     0
  9
$DIMTAD
 70
     1
  9
$DIMZIN
 70
     8
  9
$DIMBLK
  1

  9
$DIMASO
 70
     1
  9
$DIMSHO
 70
     1
  9
$DIMPOST
  1

  9
$DIMAPOST
  1

  9
$DIMALT
 70
     0
  9
$DIMALTD
 70
     3
  9
$DIMALTF
 40
0.03937
  9
$DIMLFAC
 40
1.0
  9
$DIMTOFL
 70
     1
  9
$DIMTVP
 40
0.0
  9
$DIMTIX
 70
     0
  9
$DIMSOXD
 70
     0
  9
$DIMSAH
 70
     0
  9
$DIMBLK1
  1

  9
$DIMBLK2
  1

  9
$DIMSTYLE
  2
ISO-25
  9
$DIMCLRD
 70
     0
  9
$DIMCLRE
 70
     0
  9
$DIMCLRT
 70
     0
  9
$DIMTFAC
 40
1.0
  9
$DIMGAP
 40
13.0
  9
$LUNITS
 70
     2
  9
$LUPREC
 70
     4
  9
$SKETCHINC
 40
1.0
  9
$FILLETRAD
 40
10.0
  9
$AUNITS
 70
     0
  9
$AUPREC
 70
     0
  9
$MENU
  1
.
  9
$ELEVATION
 40
0.0
  9
$PELEVATION
 40
0.0
  9
$THICKNESS
 40
0.0
  9
$LIMCHECK
 70
     0
  9
$BLIPMODE
 70
     0
  9
$CHAMFERA
 40
10.0
  9
$CHAMFERB
 40
10.0
  9
$SKPOLY
 70
     0
  9
$TDCREATE
 40
2452706.626866
  9
$TDUPDATE
 40
2453073.533582
  9
$TDINDWG
 40
0.314924
  9
$TDUSRTIMER
 40
0.314924
  9
$USRTIMER
 70
     1
  9
$ANGBASE
 50
0.0
  9
$ANGDIR
 70
     0
  9
$PDMODE
 70
     0
  9
$PDSIZE
 40
0.0
  9
$PLINEWID
 40
0.0
  9
$COORDS
 70
     1
  9
$SPLFRAME
 70
     0
  9
$SPLINETYPE
 70
     6
  9
$SPLINESEGS
 70
     8
  9
$ATTDIA
 70
     0
  9
$ATTREQ
 70
     1
  9
$HANDLING
 70
 22529
  9
$HANDSEED
  5
1540
  9
$SURFTAB1
 70
     6
  9
$SURFTAB2
 70
     6
  9
$SURFTYPE
 70
     6
  9
$SURFU
 70
     6
  9
$SURFV
 70
     6
  9
$UCSNAME
  2

  9
$UCSORG
 10
0.0
 20
0.0
 30
0.0
  9
$UCSXDIR
 10
1.0
 20
0.0
 30
0.0
  9
$UCSYDIR
 10
0.0
 20
1.0
 30
0.0
  9
$PUCSNAME
  2

  9
$PUCSORG
 10
0.0
 20
0.0
 30
0.0
  9
$PUCSXDIR
 10
1.0
 20
0.0
 30
0.0
  9
$PUCSYDIR
 10
0.0
 20
1.0
 30
0.0
  9
$USERI1
 70
     0
  9
$USERI2
 70
     0
  9
$USERI3
 70
     0
  9
$USERI4
 70
     0
  9
$USERI5
 70
     0
  9
$USERR1
 40
0.0
  9
$USERR2
 40
0.0
  9
$USERR3
 40
0.0
  9
$USERR4
 40
0.0
  9
$USERR5
 40
0.0
  9
$WORLDVIEW
 70
     1
  9
$SHADEDGE
 70
     3
  9
$SHADEDIF
 70
    70
  9
$TILEMODE
 70
     1
  9
$MAXACTVP
 70
    48
  9
$PLIMCHECK
 70
     0
  9
$PEXTMIN
 10
1.000000E+020
 20
1.000000E+020
 30
1.000000E+020
  9
$PEXTMAX
 10
-1.000000E+020
 20
-1.000000E+020
 30
-1.000000E+020
  9
$PLIMMIN
 10
0.0
 20
0.0
  9
$PLIMMAX
 10
420.0
 20
297.0
  9
$UNITMODE
 70
     0
  9
$VISRETAIN
 70
     1
  9
$PLINEGEN
 70
     0
  9
$PSLTSCALE
 70
     1
  0
ENDSEC
  0
SECTION
  2
TABLES
  0
TABLE
  2
VPORT
 70
     2
  0
VPORT
  2
*ACTIVE
 70
     0
 10
0.0
 20
0.0
 11
1.0
 21
1.0
 12
167.324285
 22
500.006782
 13
0.0
 23
0.0
 14
10.0
 24
10.0
 15
10.0
 25
10.0
 16
0.0
 26
0.0
 36
1.0
 17
0.0
 27
0.0
 37
0.0
 40
1832.965745
 41
1.825
 42
50.0
 43
0.0
 44
0.0
 50
0.0
 51
0.0
 71
     0
 72
   100
 73
     1
 74
     3
 75
     0
 76
     0
 77
     0
 78
     0
  0
ENDTAB
  0
TABLE
  2
LTYPE
 70
     3
  0
LTYPE
  2
CONTINUOUS
 70
     0
  3
Solid line
 72
    65
 73
     0
 40
0.0
  0
LTYPE
  2
CENTER
 70
     0
  3
____ _ ____ _ ____ _ ____ _ ____ _ ____ _ ____
 72
    65
 73
     4
 40
2.0
 49
1.25
 49
-0.25
 49
0.25
 49
-0.25
  0
LTYPE
  2
DASHED
 70
     0
  3
__ __ __ __ __ __ __ __ __ __ __ __ __ __ __
 72
    65
 73
     2
 40
0.75
 49
0.5
 49
-0.25
  0
ENDTAB
  0
TABLE
  2
LAYER
 70
     9
  0
LAYER
  2
0
 70
     0
 62
     7
  6
CONTINUOUS
  0
LAYER
  2
ORIGIN
 70
     0
 62
     6
  6
CONTINUOUS
  0
LAYER
  2
DETAIL
 70
     0
 62
     2
  6
CONTINUOUS
  0
LAYER
  2
DIMENSION
 70
     0
 62
     7
  6
CONTINUOUS
  0
LAYER
  2
PLANNING
 70
     0
 62
     1
  6
DASHED
  0
LAYER
  2
STELTXT
 70
     0
 62
     4
  6
CONTINUOUS
  0
LAYER
  2
STELATT
 70
     0
 62
     7
  6
CONTINUOUS
  0
LAYER
  2
CENTER
 70
     0
 62
     4
  6
CENTER
  0
LAYER
  2
DEFPOINTS
 70
     0
 62
     7
  6
CONTINUOUS
  0
ENDTAB
  0
TABLE
  2
STYLE
 70
     1
  0
STYLE
  2
STANDARD
 70
     0
 40
0.0
 41
1.0
 50
0.0
 71
     0
 42
25.0
  3
simplex.shx
  4

  0
ENDTAB
  0
TABLE
  2
VIEW
 70
     0
  0
ENDTAB
  0
TABLE
  2
UCS
 70
     0
  0
ENDTAB
  0
TABLE
  2
APPID
 70
     1
  0
APPID
  2
ACAD
 70
     0
  0
ENDTAB
  0
TABLE
  2
DIMSTYLE
 70
     2
  0
DIMSTYLE
  2
ISO-25
 70
     0
  3

  4

  5

  6

  7

 40
1.0
 41
25.0
 42
0.625
 43
3.75
 44
1.25
 45
0.0
 46
0.0
 47
0.0
 48
0.0
140
25.0
141
2.5
142
0.0
143
0.03937
144
1.0
145
0.0
146
1.0
147
13.0
 71
     0
 72
     0
 73
     0
 74
     0
 75
     0
 76
     0
 77
     1
 78
     8
170
     0
171
     3
172
     1
173
     0
174
     0
175
     0
176
     0
177
     0
178
     0
  0
DIMSTYLE
  2
STANDARD
 70
     0
  3

  4

  5

  6

  7

 40
1.0
 41
0.18
 42
0.0625
 43
0.38
 44
0.18
 45
0.0
 46
0.0
 47
0.0
 48
0.0
140
0.18
141
0.09
142
0.0
143
25.4
144
1.0
145
0.0
146
1.0
147
0.09
 71
     0
 72
     0
 73
     1
 74
     1
 75
     0
 76
     0
 77
     0
 78
     0
170
     0
171
     2
172
     0
173
     0
174
     0
175
     0
176
     0
177
     0
178
     0
  0
ENDTAB
  0
ENDSEC
  0
SECTION
  2
BLOCKS
  0
BLOCK
  8
0
  2
$MODEL_SPACE
 70
     2
 10
0.0
 20
0.0
 30
0.0
  3
$MODEL_SPACE
  1

  0
ENDBLK
  5
A
  8
0
  0
BLOCK
 67
     1
  8
0
  2
$PAPER_SPACE
 70
     0
 10
0.0
 20
0.0
 30
0.0
  3
$PAPER_SPACE
  1

  0
ENDBLK
  5
10
 67
     1
  8
0
  0
BLOCK
  8
0
  2
*D0
 70
     1
 10
0.0
 20
0.0
 30
0.0
  3
*D0
  1

  0
LINE
  5
1305
  8
DIMENSION
 62
     0
 10
-661.0
 20
39.375
 30
0.0
 11
-661.0
 21
-153.651008
 31
0.0
  0
LINE
  5
1306
  8
DIMENSION
 62
     0
 10
661.0
 20
39.375
 30
0.0
 11
661.0
 21
-153.651008
 31
0.0
  0
LINE
  5
1307
  8
DIMENSION
 62
     0
 10
-636.0
 20
-152.401008
 30
0.0
 11
636.0
 21
-152.401008
 31
0.0
  0
SOLID
  5
1308
  8
DIMENSION
 62
     0
 10
-636.0
 20
-148.234341
 30
0.0
 11
-636.0
 21
-156.567675
 31
0.0
 12
-661.0
 22
-152.401008
 32
0.0
 13
-661.0
 23
-152.401008
 33
0.0
  0
SOLID
  5
1309
  8
DIMENSION
 62
     0
 10
636.0
 20
-148.234341
 30
0.0
 11
636.0
 21
-156.567675
 31
0.0
 12
661.0
 22
-152.401008
 32
0.0
 13
661.0
 23
-152.401008
 33
0.0
  0
TEXT
  5
130A
  8
0
 62
     0
 10
-41.666667
 20
-139.401008
 30
0.0
 40
25.0
  1
1322
  0
POINT
  5
130B
  8
DEFPOINTS
 62
     0
 10
-661.0
 20
40.0
 30
0.0
  0
POINT
  5
130C
  8
DEFPOINTS
 62
     0
 10
661.0
 20
40.0
 30
0.0
  0
POINT
  5
130D
  8
DEFPOINTS
 62
     0
 10
661.0
 20
-152.401008
 30
0.0
  0
ENDBLK
  5
CC7
  8
0
  0
BLOCK
  8
0
  2
*D1
 70
     1
 10
0.0
 20
0.0
 30
0.0
  3
*D1
  1

  0
LINE
  5
1317
  8
DIMENSION
 62
     0
 10
-595.625
 20
0.0
 30
0.0
 11
-914.531404
 21
0.0
 31
0.0
  0
LINE
  5
1318
  8
DIMENSION
 62
     0
 10
-595.625
 20
1406.0
 30
0.0
 11
-914.531404
 21
1406.0
 31
0.0
  0
LINE
  5
1319
  8
DIMENSION
 62
     0
 10
-913.281404
 20
25.0
 30
0.0
 11
-913.281404
 21
1381.0
 31
0.0
  0
SOLID
  5
131A
  8
DIMENSION
 62
     0
 10
-917.448071
 20
25.0
 30
0.0
 11
-909.114737
 21
25.0
 31
0.0
 12
-913.281404
 22
0.0
 32
0.0
 13
-913.281404
 23
0.0
 33
0.0
  0
SOLID
  5
131B
  8
DIMENSION
 62
     0
 10
-917.448071
 20
1381.0
 30
0.0
 11
-909.114737
 21
1381.0
 31
0.0
 12
-913.281404
 22
1406.0
 32
0.0
 13
-913.281404
 23
1406.0
 33
0.0
  0
TEXT
  5
131C
  8
0
 62
     0
 10
-926.281404
 20
661.928571
 30
0.0
 40
25.0
  1
1406
 50
90.0
  0
POINT
  5
131D
  8
DEFPOINTS
 62
     0
 10
-595.0
 20
0.0
 30
0.0
  0
POINT
  5
131E
  8
DEFPOINTS
 62
     0
 10
-595.0
 20
1406.0
 30
0.0
  0
POINT
  5
131F
  8
DEFPOINTS
 62
     0
 10
-913.281404
 20
1406.0
 30
0.0
  0
ENDBLK
  5
CF6
  8
0
  0
BLOCK
  8
0
  2
*D2
 70
     1
 10
0.0
 20
0.0
 30
0.0
  3
*D2
  1

  0
LINE
  5
130E
  8
DIMENSION
 62
     0
 10
-595.625
 20
0.0
 30
0.0
 11
-789.78201
 21
0.0
 31
0.0
  0
LINE
  5
130F
  8
DIMENSION
 62
     0
 10
-492.625
 20
1094.0
 30
0.0
 11
-789.78201
 21
1094.0
 31
0.0
  0
LINE
  5
1310
  8
DIMENSION
 62
     0
 10
-788.53201
 20
25.0
 30
0.0
 11
-788.53201
 21
1069.0
 31
0.0
  0
SOLID
  5
1311
  8
DIMENSION
 62
     0
 10
-792.698677
 20
25.0
 30
0.0
 11
-784.365344
 21
25.0
 31
0.0
 12
-788.53201
 22
0.0
 32
0.0
 13
-788.53201
 23
0.0
 33
0.0
  0
SOLID
  5
1312
  8
DIMENSION
 62
     0
 10
-792.698677
 20
1069.0
 30
0.0
 11
-784.365344
 21
1069.0
 31
0.0
 12
-788.53201
 22
1094.0
 32
0.0
 13
-788.53201
 23
1094.0
 33
0.0
  0
TEXT
  5
1313
  8
0
 62
     0
 10
-801.53201
 20
504.738095
 30
0.0
 40
25.0
  1
1094
 50
90.0
  0
POINT
  5
1314
  8
DEFPOINTS
 62
     0
 10
-595.0
 20
0.0
 30
0.0
  0
POINT
  5
1315
  8
DEFPOINTS
 62
     0
 10
-492.0
 20
1094.0
 30
0.0
  0
POINT
  5
1316
  8
DEFPOINTS
 62
     0
 10
-788.53201
 20
1094.0
 30
0.0
  0
ENDBLK
  5
DC8
  8
0
  0
BLOCK
  8
0
  2
*D3
 70
     1
 10
0.0
 20
0.0
 30
0.0
  3
*D3
  1

  0
LINE
  5
12FC
  8
DIMENSION
 62
     0
 10
596.25
 20
0.0
 30
0.0
 11
733.016964
 21
0.0
 31
0.0
  0
LINE
  5
12FD
  8
DIMENSION
 62
     0
 10
627.796812
 20
410.0
 30
0.0
 11
733.016964
 21
410.0
 31
0.0
  0
LINE
  5
12FE
  8
DIMENSION
 62
     0
 10
731.766964
 20
25.0
 30
0.0
 11
731.766964
 21
385.0
 31
0.0
  0
SOLID
  5
12FF
  8
DIMENSION
 62
     0
 10
727.600297
 20
25.0
 30
0.0
 11
735.933631
 21
25.0
 31
0.0
 12
731.766964
 22
0.0
 32
0.0
 13
731.766964
 23
0.0
 33
0.0
  0
SOLID
  5
1300
  8
DIMENSION
 62
     0
 10
727.600297
 20
385.0
 30
0.0
 11
735.933631
 21
385.0
 31
0.0
 12
731.766964
 22
410.0
 32
0.0
 13
731.766964
 23
410.0
 33
0.0
  0
TEXT
  5
1301
  8
0
 62
     0
 10
718.766964
 20
175.238095
 30
0.0
 40
25.0
  1
410
 50
90.0
  0
POINT
  5
1302
  8
DEFPOINTS
 62
     0
 10
595.625
 20
0.0
 30
0.0
  0
POINT
  5
1303
  8
DEFPOINTS
 62
     0
 10
627.171812
 20
410.0
 30
0.0
  0
POINT
  5
1304
  8
DEFPOINTS
 62
     0
 10
731.766964
 20
410.0
 30
0.0
  0
ENDBLK
  5
E21
  8
0
  0
BLOCK
  8
0
  2
*D4
 70
     1
 10
0.0
 20
0.0
 30
0.0
  3
*D4
  1

  0
LINE
  5
12F3
  8
DIMENSION
 62
     0
 10
627.796812
 20
410.0
 30
0.0
 11
733.016964
 21
410.0
 31
0.0
  0
LINE
  5
12F4
  8
DIMENSION
 62
     0
 10
627.796812
 20
785.0
 30
0.0
 11
733.016964
 21
785.0
 31
0.0
  0
LINE
  5
12F5
  8
DIMENSION
 62
     0
 10
731.766964
 20
435.0
 30
0.0
 11
731.766964
 21
760.0
 31
0.0
  0
SOLID
  5
12F6
  8
DIMENSION
 62
     0
 10
727.600297
 20
435.0
 30
0.0
 11
735.933631
 21
435.0
 31
0.0
 12
731.766964
 22
410.0
 32
0.0
 13
731.766964
 23
410.0
 33
0.0
  0
SOLID
  5
12F7
  8
DIMENSION
 62
     0
 10
727.600297
 20
760.0
 30
0.0
 11
735.933631
 21
760.0
 31
0.0
 12
731.766964
 22
785.0
 32
0.0
 13
731.766964
 23
785.0
 33
0.0
  0
TEXT
  5
12F8
  8
0
 62
     0
 10
718.766964
 20
565.357143
 30
0.0
 40
25.0
  1
375
 50
90.0
  0
POINT
  5
12F9
  8
DEFPOINTS
 62
     0
 10
627.171812
 20
410.0
 30
0.0
  0
POINT
  5
12FA
  8
DEFPOINTS
 62
     0
 10
627.171812
 20
785.0
 30
0.0
  0
POINT
  5
12FB
  8
DEFPOINTS
 62
     0
 10
731.766964
 20
785.0
 30
0.0
  0
ENDBLK
  5
E39
  8
0
  0
BLOCK
  8
0
  2
*D5
 70
     1
 10
0.0
 20
0.0
 30
0.0
  3
*D5
  1

  0
LINE
  5
1320
  8
DIMENSION
 62
     0
 10
-595.625
 20
0.0
 30
0.0
 11
-724.50299
 21
0.0
 31
0.0
  0
LINE
  5
1321
  8
DIMENSION
 62
     0
 10
7.203188
 20
445.0
 30
0.0
 11
-724.50299
 21
445.0
 31
0.0
  0
LINE
  5
1322
  8
DIMENSION
 62
     0
 10
-723.25299
 20
25.0
 30
0.0
 11
-723.25299
 21
420.0
 31
0.0
  0
SOLID
  5
1323
  8
DIMENSION
 62
     0
 10
-727.419657
 20
25.0
 30
0.0
 11
-719.086323
 21
25.0
 31
0.0
 12
-723.25299
 22
0.0
 32
0.0
 13
-723.25299
 23
0.0
 33
0.0
  0
SOLID
  5
1324
  8
DIMENSION
 62
     0
 10
-727.419657
 20
420.0
 30
0.0
 11
-719.086323
 21
420.0
 31
0.0
 12
-723.25299
 22
445.0
 32
0.0
 13
-723.25299
 23
445.0
 33
0.0
  0
TEXT
  5
1325
  8
0
 62
     0
 10
-736.25299
 20
190.357143
 30
0.0
 40
25.0
  1
445
 50
90.0
  0
POINT
  5
1326
  8
DEFPOINTS
 62
     0
 10
-595.0
 20
0.0
 30
0.0
  0
POINT
  5
1327
  8
DEFPOINTS
 62
     0
 10
7.828188
 20
445.0
 30
0.0
  0
POINT
  5
1328
  8
DEFPOINTS
 62
     0
 10
-723.25299
 20
445.0
 30
0.0
  0
ENDBLK
  5
EC8
  8
0
  0
ENDSEC
  0
SECTION
  2
ENTITIES
  0
ATTDEF
  5
2F
  8
STELATT
 10
-93.333333
 20
-405.986484
 30
0.0
 40
40.0
  1
ES220H
 72
     4
 11
0.0
 21
-385.986484
 31
0.0
  3

  2
MODEL
 70
     2
  0
ATTDEF
  5
33
  8
STELATT
 10
-233.333333
 20
-275.986484
 30
0.0
 40
40.0
  1
IDEAL
 72
     4
 11
0.0
 21
-255.986484
 31
0.0
  3

  2
MANUFACTURER
 70
     2
  0
LINE
  5
49
  8
PLANNING
 10
1061.0
 20
1406.0
 30
0.0
 11
-861.0
 21
1406.0
 31
0.0
  0
LINE
  5
5D
  8
PLANNING
 10
-861.0
 20
0.0
 30
0.0
 11
1061.0
 21
0.0
 31
0.0
  0
LINE
  5
62
  8
PLANNING
 10
-861.0
 20
1406.0
 30
0.0
 11
-861.0
 21
0.0
 31
0.0
  0
ATTDEF
  5
6A
  8
STELATT
 10
-68.571429
 20
-340.986484
 30
0.0
 40
40.0
  1
CONCORD ES
 72
     4
 11
0.0
 21
-320.986484
 31
0.0
  3

  2
TYPE
 70
     2
  0
POLYLINE
  5
6F
  8
ORIGIN
 66
     1
 10
0.0
 20
0.0
 30
0.0
 70
     1
  0
VERTEX
  5
14EB
  8
ORIGIN
 10
37.5
 20
-37.5
 30
0.0
  0
VERTEX
  5
14EC
  8
ORIGIN
 10
-37.5
 20
37.5
 30
0.0
  0
VERTEX
  5
14ED
  8
ORIGIN
 10
-37.5
 20
-37.5
 30
0.0
  0
VERTEX
  5
14EE
  8
ORIGIN
 10
37.5
 20
37.5
 30
0.0
  0
SEQEND
  5
14EF
  8
ORIGIN
  0
LINE
  5
92
  8
PLANNING
 10
1061.0
 20
1406.0
 30
0.0
 11
1061.0
 21
0.0
 31
0.0
  0
LINE
  5
47C
  8
DETAIL
 10
595.0
 20
0.0
 30
0.0
 11
-595.0
 21
0.0
 31
0.0
  0
LINE
  5
482
  8
DETAIL
 10
-595.0
 20
1406.0
 30
0.0
 11
-595.0
 21
0.0
 31
0.0
  0
LINE
  5
483
  8
DETAIL
 10
-661.0
 20
40.0
 30
0.0
 11
-661.0
 21
1284.0
 31
0.0
  0
LINE
  5
4A3
  8
DETAIL
 10
661.0
 20
1284.0
 30
0.0
 11
661.0
 21
40.0
 31
0.0
  0
TEXT
  5
4A5
  8
STELTXT
 10
872.834675
 20
866.548308
 30
0.0
 40
25.0
  1
HEATING FLOW
  0
TEXT
  5
4A6
  8
STELTXT
 10
872.834675
 20
906.548308
 30
0.0
 40
25.0
  1
%%C2" THREADED
  0
LINE
  5
4AA
  8
CENTER
  6
CENTER
 10
7.828188
 20
445.0
 30
0.0
 11
68.171812
 21
445.0
 31
0.0
  0
LINE
  5
4AE
  8
CENTER
  6
CENTER
 10
38.0
 20
414.828188
 30
0.0
 11
38.0
 21
475.171812
 31
0.0
  0
CIRCLE
  5
4BC
  8
DETAIL
 10
121.769116
 20
1350.889384
 30
0.0
 40
15.0
  0
POLYLINE
  5
4BF
  8
DETAIL
 66
     1
 10
0.0
 20
0.0
 30
0.0
 70
     1
  0
VERTEX
  5
14F0
  8
DETAIL
 10
148.974457
 20
1341.699075
 30
0.0
  0
VERTEX
  5
14F1
  8
DETAIL
 10
148.974457
 20
1360.079693
 30
0.0
  0
VERTEX
  5
14F2
  8
DETAIL
 10
167.43298
 20
1360.079693
 30
0.0
  0
VERTEX
  5
14F3
  8
DETAIL
 10
167.43298
 20
1341.699075
 30
0.0
  0
SEQEND
  5
14F4
  8
DETAIL
  0
TEXT
  5
4C0
  8
STELTXT
 10
6450.954798
 20
2831.230363
 30
0.0
 40
25.0
  1
 
  0
TEXT
  5
4C1
  8
STELTXT
 10
6459.385829
 20
1992.812349
 30
0.0
 40
25.0
  1
 
  0
LINE
  5
4CF
  8
DETAIL
 10
595.0
 20
1406.0
 30
0.0
 11
595.0
 21
0.0
 31
0.0
  0
POLYLINE
  8
STELTXT
  5
1536
  66
     1
 10
0.000000
 20
0.000000
 30
0.000000
  70
     8
  0
VERTEX
  8
STELTXT
  5
1537
 10
639.042
 20
804.491
 30
0.000000
  70
    32
  0
VERTEX
  8
STELTXT
  5
1538
 10
831.430
 20
920.924
 30
0.000000
  70
    32
  0
VERTEX
  8
STELTXT
  5
1539
 10
860.720
 20
920.924
 30
0.000000
  70
    32
  0
SEQEND
  8
STELTXT
  5
153A
  0
LINE
  5
66C
  8
DETAIL
 10
661.0
 20
40.0
 30
0.0
 11
595.0
 21
40.0
 31
0.0
  0
LINE
  5
738
  8
DETAIL
 10
-595.0
 20
1266.0
 30
0.0
 11
595.0
 21
1266.0
 31
0.0
  0
POLYLINE
  5
73C
  8
DETAIL
 66
     1
 10
0.0
 20
0.0
 30
0.0
 70
     1
  0
VERTEX
  5
14F5
  8
DETAIL
 10
72.222902
 20
1341.699075
 30
0.0
  0
VERTEX
  5
14F6
  8
DETAIL
 10
72.222902
 20
1360.079693
 30
0.0
  0
VERTEX
  5
14F7
  8
DETAIL
 10
93.681425
 20
1360.079693
 30
0.0
  0
VERTEX
  5
14F8
  8
DETAIL
 10
93.681425
 20
1341.699075
 30
0.0
  0
SEQEND
  5
14F9
  8
DETAIL
  0
POLYLINE
  5
73D
  8
DETAIL
 66
     1
 10
0.0
 20
0.0
 30
0.0
 70
     1
  0
VERTEX
  5
14FA
  8
DETAIL
 10
34.111792
 20
1341.699075
 30
0.0
  0
VERTEX
  5
14FB
  8
DETAIL
 10
34.111792
 20
1360.079693
 30
0.0
  0
VERTEX
  5
14FC
  8
DETAIL
 10
55.570314
 20
1360.079693
 30
0.0
  0
VERTEX
  5
14FD
  8
DETAIL
 10
55.570314
 20
1341.699075
 30
0.0
  0
SEQEND
  5
14FE
  8
DETAIL
  0
POLYLINE
  5
73E
  8
DETAIL
 66
     1
 10
0.0
 20
0.0
 30
0.0
 70
     1
  0
VERTEX
  5
14FF
  8
DETAIL
 10
-3.999319
 20
1341.380406
 30
0.0
  0
VERTEX
  5
1500
  8
DETAIL
 10
-3.999319
 20
1359.761023
 30
0.0
  0
VERTEX
  5
1501
  8
DETAIL
 10
17.459203
 20
1359.761023
 30
0.0
  0
VERTEX
  5
1502
  8
DETAIL
 10
17.459203
 20
1341.380406
 30
0.0
  0
SEQEND
  5
1503
  8
DETAIL
  0
POLYLINE
  5
73F
  8
DETAIL
 66
     1
 10
0.0
 20
0.0
 30
0.0
 70
     1
  0
VERTEX
  5
1504
  8
DETAIL
 10
-345.637323
 20
1321.380406
 30
0.0
  0
VERTEX
  5
1505
  8
DETAIL
 10
-345.637323
 20
1389.761023
 30
0.0
  0
VERTEX
  5
1506
  8
DETAIL
 10
-174.1788
 20
1389.761023
 30
0.0
  0
VERTEX
  5
1507
  8
DETAIL
 10
-174.1788
 20
1321.380406
 30
0.0
  0
SEQEND
  5
1508
  8
DETAIL
  0
DIMENSION
  5
CBB
  8
DIMENSION
  2
*D0
 10
661.0
 20
-152.401008
 30
0.0
 11
0.0
 21
-126.901008
 31
0.0
 70
     0
 13
-661.0
 23
40.0
 33
0.0
 14
661.0
 24
40.0
 34
0.0
  0
LINE
  5
CE5
  8
DETAIL
 10
-595.0
 20
40.0
 30
0.0
 11
-661.0
 21
40.0
 31
0.0
  0
LINE
  5
CE6
  8
DETAIL
 10
-661.0
 20
1284.0
 30
0.0
 11
-595.0
 21
1406.0
 31
0.0
  0
LINE
  5
CE7
  8
DETAIL
 10
-595.0
 20
1406.0
 30
0.0
 11
595.0
 21
1406.0
 31
0.0
  0
LINE
  5
CE8
  8
DETAIL
 10
595.0
 20
1406.0
 30
0.0
 11
661.0
 21
1284.0
 31
0.0
  0
LINE
  5
CE9
  8
DETAIL
 10
299.0
 20
1406.0
 30
0.0
 11
299.0
 21
1266.0
 31
0.0
  0
DIMENSION
  5
CEA
  8
DIMENSION
  2
*D1
 10
-913.281404
 20
1406.0
 30
0.0
 11
-938.781404
 21
703.0
 31
0.0
 70
     0
 13
-595.0
 23
0.0
 33
0.0
 14
-595.0
 24
1406.0
 34
0.0
 50
90.0
  0
CIRCLE
  5
D0D
  8
DETAIL
 10
203.604068
 20
1350.889384
 30
0.0
 40
8.5
  0
POLYLINE
  5
D0E
  8
DETAIL
 66
     1
 10
0.0
 20
0.0
 30
0.0
 70
     1
  0
VERTEX
  5
1509
  8
DETAIL
 10
-80.221541
 20
1341.380406
 30
0.0
  0
VERTEX
  5
150A
  8
DETAIL
 10
-80.221541
 20
1359.761023
 30
0.0
  0
VERTEX
  5
150B
  8
DETAIL
 10
-58.763018
 20
1359.761023
 30
0.0
  0
VERTEX
  5
150C
  8
DETAIL
 10
-58.763018
 20
1341.380406
 30
0.0
  0
SEQEND
  5
150D
  8
DETAIL
  0
POLYLINE
  5
D0F
  8
DETAIL
 66
     1
 10
0.0
 20
0.0
 30
0.0
 70
     1
  0
VERTEX
  5
150E
  8
DETAIL
 10
-42.11043
 20
1341.699075
 30
0.0
  0
VERTEX
  5
150F
  8
DETAIL
 10
-42.11043
 20
1360.079693
 30
0.0
  0
VERTEX
  5
1510
  8
DETAIL
 10
-20.651907
 20
1360.079693
 30
0.0
  0
VERTEX
  5
1511
  8
DETAIL
 10
-20.651907
 20
1341.699075
 30
0.0
  0
SEQEND
  5
1512
  8
DETAIL
  0
POLYLINE
  5
D10
  8
DETAIL
 66
     1
 10
0.0
 20
0.0
 30
0.0
 70
     1
  0
VERTEX
  5
1513
  8
DETAIL
 10
-139.791174
 20
1341.380406
 30
0.0
  0
VERTEX
  5
1514
  8
DETAIL
 10
-139.791174
 20
1369.761023
 30
0.0
  0
VERTEX
  5
1515
  8
DETAIL
 10
-96.874129
 20
1369.761023
 30
0.0
  0
VERTEX
  5
1516
  8
DETAIL
 10
-96.874129
 20
1341.380406
 30
0.0
  0
SEQEND
  5
1517
  8
DETAIL
  0
LINE
  5
D11
  8
DETAIL
 10
-595.0
 20
1146.0
 30
0.0
 11
595.0
 21
1146.0
 31
0.0
  0
LINE
  5
D12
  8
DETAIL
 10
-595.0
 20
1166.0
 30
0.0
 11
595.0
 21
1166.0
 31
0.0
  0
LINE
  5
D14
  8
DETAIL
 10
-595.0
 20
533.382102
 30
0.0
 11
595.0
 21
533.382102
 31
0.0
  0
LINE
  5
D15
  8
DETAIL
 10
-595.0
 20
553.382102
 30
0.0
 11
595.0
 21
553.382102
 31
0.0
  0
LINE
  5
D53
  8
DETAIL
 10
-12.7
 20
40.0
 30
0.0
 11
-12.7
 21
102.027527
 31
0.0
  0
LINE
  5
D54
  8
DETAIL
 10
12.7
 20
40.0
 30
0.0
 11
12.7
 21
102.027527
 31
0.0
  0
LINE
  5
D55
  8
DETAIL
 10
25.4
 20
457.7
 30
0.0
 11
38.0
 21
457.7
 31
0.0
  0
LINE
  5
D57
  8
DETAIL
 10
25.4
 20
432.3
 30
0.0
 11
38.0
 21
432.3
 31
0.0
  0
ARC
  5
D5C
  8
DETAIL
 10
25.4
 20
419.6
 30
0.0
 40
12.7
 50
90.0
 51
180.0
  0
ARC
  5
D5D
  8
DETAIL
 10
25.4
 20
419.6
 30
0.0
 40
38.1
 50
90.0
 51
180.0
  0
ARC
  5
D5F
  8
DETAIL
 10
0.0
 20
40.0
 30
0.0
 40
12.7
 50
180.0
 51
0.0
  0
LINE
  5
D61
  8
DETAIL
 10
-137.5
 20
117.027527
 30
0.0
 11
62.5
 21
117.027527
 31
0.0
  0
LINE
  5
D62
  8
DETAIL
 10
62.5
 20
117.027527
 30
0.0
 11
62.5
 21
267.027527
 31
0.0
  0
LINE
  5
D63
  8
DETAIL
 10
62.5
 20
267.027527
 30
0.0
 11
-62.5
 21
267.027527
 31
0.0
  0
LINE
  5
D64
  8
DETAIL
 10
-62.5
 20
267.027527
 30
0.0
 11
-62.5
 21
247.027527
 31
0.0
  0
LINE
  5
D65
  8
DETAIL
 10
-62.5
 20
247.027527
 30
0.0
 11
-137.5
 21
247.027527
 31
0.0
  0
LINE
  5
D66
  8
DETAIL
 10
-137.5
 20
247.027527
 30
0.0
 11
-137.5
 21
117.027527
 31
0.0
  0
POLYLINE
  5
D67
  8
DETAIL
 66
     1
 10
0.0
 20
0.0
 30
0.0
 70
     1
  0
VERTEX
  5
1518
  8
DETAIL
 10
-137.5
 20
117.027527
 30
0.0
  0
VERTEX
  5
1519
  8
DETAIL
 10
-216.724161
 20
117.027527
 30
0.0
  0
VERTEX
  5
151A
  8
DETAIL
 10
-216.724161
 20
162.267055
 30
0.0
  0
VERTEX
  5
151B
  8
DETAIL
 10
-137.5
 20
162.267055
 30
0.0
  0
SEQEND
  5
151C
  8
DETAIL
  0
POLYLINE
  5
D68
  8
DETAIL
 66
     1
 10
0.0
 20
0.0
 30
0.0
 70
     1
  0
VERTEX
  5
151D
  8
DETAIL
 10
-137.5
 20
247.027527
 30
0.0
  0
VERTEX
  5
151E
  8
DETAIL
 10
-169.511569
 20
247.027527
 30
0.0
  0
VERTEX
  5
151F
  8
DETAIL
 10
-169.511569
 20
186.139428
 30
0.0
  0
VERTEX
  5
1520
  8
DETAIL
 10
-137.5
 20
186.139428
 30
0.0
  0
SEQEND
  5
1521
  8
DETAIL
  0
POLYLINE
  5
D69
  8
DETAIL
 66
     1
 10
0.0
 20
0.0
 30
0.0
 70
     1
  0
VERTEX
  5
1522
  8
DETAIL
 10
-122.65881
 20
247.027527
 30
0.0
  0
VERTEX
  5
1523
  8
DETAIL
 10
-85.176607
 20
247.027527
 30
0.0
  0
VERTEX
  5
1524
  8
DETAIL
 10
-85.176607
 20
282.241073
 30
0.0
  0
VERTEX
  5
1525
  8
DETAIL
 10
-122.65881
 20
282.241073
 30
0.0
  0
SEQEND
  5
1526
  8
DETAIL
  0
POLYLINE
  5
D6A
  8
DETAIL
 66
     1
 10
0.0
 20
0.0
 30
0.0
 70
     1
  0
VERTEX
  5
1527
  8
DETAIL
 10
-216.724161
 20
155.432874
 30
0.0
  0
VERTEX
  5
1528
  8
DETAIL
 10
-231.303561
 20
155.432874
 30
0.0
  0
VERTEX
  5
1529
  8
DETAIL
 10
-231.303561
 20
123.861708
 30
0.0
  0
VERTEX
  5
152A
  8
DETAIL
 10
-216.724161
 20
123.861708
 30
0.0
  0
SEQEND
  5
152B
  8
DETAIL
  0
POLYLINE
  5
D6B
  8
DETAIL
 66
     1
 10
0.0
 20
0.0
 30
0.0
 70
     1
  0
VERTEX
  5
152C
  8
DETAIL
 10
-257.112819
 20
132.977328
 30
0.0
  0
VERTEX
  5
152D
  8
DETAIL
 10
-231.303561
 20
132.977328
 30
0.0
  0
VERTEX
  5
152E
  8
DETAIL
 10
-231.303561
 20
146.317254
 30
0.0
  0
VERTEX
  5
152F
  8
DETAIL
 10
-257.112819
 20
146.317254
 30
0.0
  0
SEQEND
  5
1530
  8
DETAIL
  0
POLYLINE
  5
D6C
  8
DETAIL
 66
     1
 10
0.0
 20
0.0
 30
0.0
 70
     1
  0
VERTEX
  5
1531
  8
DETAIL
 10
-158.258245
 20
247.027527
 30
0.0
  0
VERTEX
  5
1532
  8
DETAIL
 10
-122.65881
 20
247.027527
 30
0.0
  0
VERTEX
  5
1533
  8
DETAIL
 10
-122.65881
 20
274.312621
 30
0.0
  0
VERTEX
  5
1534
  8
DETAIL
 10
-158.258245
 20
274.312621
 30
0.0
  0
SEQEND
  5
1535
  8
DETAIL
  0
LINE
  5
D6D
  8
DETAIL
 10
27.33434
 20
277.027527
 30
0.0
 11
-27.33434
 21
277.027527
 31
0.0
  0
LINE
  5
D6F
  8
DETAIL
 10
15.696077
 20
282.027527
 30
0.0
 11
-15.696077
 21
282.027527
 31
0.0
  0
LINE
  5
D71
  8
DETAIL
 10
19.791114
 20
286.978954
 30
0.0
 11
-19.791114
 21
286.978954
 31
0.0
  0
LINE
  5
D72
  8
DETAIL
 10
19.791114
 20
306.978954
 30
0.0
 11
-19.791114
 21
306.978954
 31
0.0
  0
LINE
  5
D76
  8
DETAIL
 10
-19.791114
 20
306.978954
 30
0.0
 11
-19.791114
 21
286.978954
 31
0.0
  0
LINE
  5
D77
  8
DETAIL
 10
19.791114
 20
306.978954
 30
0.0
 11
19.791114
 21
286.978954
 31
0.0
  0
LINE
  5
D78
  8
DETAIL
 10
12.7
 20
306.978954
 30
0.0
 11
12.7
 21
419.6
 31
0.0
  0
LINE
  5
D7A
  8
DETAIL
 10
-12.7
 20
306.978954
 30
0.0
 11
-12.7
 21
419.6
 31
0.0
  0
LINE
  5
D7B
  8
DETAIL
 10
15.696077
 20
282.027527
 30
0.0
 11
15.696077
 21
277.027527
 31
0.0
  0
LINE
  5
D7C
  8
DETAIL
 10
27.33434
 20
277.027527
 30
0.0
 11
27.33434
 21
267.027527
 31
0.0
  0
LINE
  5
D7D
  8
DETAIL
 10
12.7
 20
282.027527
 30
0.0
 11
12.7
 21
286.978954
 31
0.0
  0
LINE
  5
D7F
  8
DETAIL
 10
-12.7
 20
282.027527
 30
0.0
 11
-12.7
 21
286.978954
 31
0.0
  0
LINE
  5
D80
  8
DETAIL
 10
-15.696077
 20
282.027527
 30
0.0
 11
-15.696077
 21
277.027527
 31
0.0
  0
LINE
  5
D81
  8
DETAIL
 10
-27.33434
 20
277.027527
 30
0.0
 11
-27.33434
 21
267.027527
 31
0.0
  0
LINE
  5
D82
  8
DETAIL
 10
27.33434
 20
107.027527
 30
0.0
 11
-27.33434
 21
107.027527
 31
0.0
  0
LINE
  5
D83
  8
DETAIL
 10
27.33434
 20
107.027527
 30
0.0
 11
27.33434
 21
117.027527
 31
0.0
  0
LINE
  5
D84
  8
DETAIL
 10
15.696077
 20
102.027527
 30
0.0
 11
15.696077
 21
107.027527
 31
0.0
  0
LINE
  5
D85
  8
DETAIL
 10
15.696077
 20
102.027527
 30
0.0
 11
-15.696077
 21
102.027527
 31
0.0
  0
LINE
  5
D86
  8
DETAIL
 10
-27.33434
 20
107.027527
 30
0.0
 11
-27.33434
 21
117.027527
 31
0.0
  0
LINE
  5
D87
  8
DETAIL
 10
-15.696077
 20
102.027527
 30
0.0
 11
-15.696077
 21
107.027527
 31
0.0
  0
LINE
  5
DBB
  8
DETAIL
  6
DASHED
 10
492.0
 20
1094.0
 30
0.0
 11
-492.0
 21
1094.0
 31
0.0
  0
DIMENSION
  5
DBC
  8
DIMENSION
  2
*D2
 10
-788.53201
 20
1094.0
 30
0.0
 11
-814.03201
 21
547.0
 31
0.0
 70
     0
 13
-595.0
 23
0.0
 33
0.0
 14
-492.0
 24
1094.0
 34
0.0
 50
90.0
  0
LINE
  5
DD4
  8
DETAIL
  6
DASHED
 10
492.0
 20
734.0
 30
0.0
 11
-492.0
 21
734.0
 31
0.0
  0
LINE
  5
DD6
  8
DETAIL
  6
DASHED
 10
-492.0
 20
1094.0
 30
0.0
 11
-492.0
 21
734.0
 31
0.0
  0
LINE
  5
DD7
  8
DETAIL
  6
DASHED
 10
492.0
 20
1094.0
 30
0.0
 11
492.0
 21
734.0
 31
0.0
  0
LINE
  5
DE3
  8
CENTER
  6
CENTER
 10
566.828188
 20
785.0
 30
0.0
 11
627.171812
 21
785.0
 31
0.0
  0
LINE
  5
DE4
  8
CENTER
  6
CENTER
 10
597.0
 20
754.828188
 30
0.0
 11
597.0
 21
815.171812
 31
0.0
  0
DIMENSION
  5
E15
  8
DIMENSION
  2
*D3
 10
731.766964
 20
410.0
 30
0.0
 11
706.266964
 21
205.0
 31
0.0
 70
     0
 13
595.625
 23
0.0
 33
0.0
 14
627.171812
 24
410.0
 34
0.0
 50
90.0
  0
DIMENSION
  5
E2D
  8
DIMENSION
  2
*D4
 10
731.766964
 20
785.0
 30
0.0
 11
706.266964
 21
597.5
 31
0.0
 70
     0
 13
627.171812
 23
410.0
 33
0.0
 14
627.171812
 24
785.0
 34
0.0
 50
90.0
  0
LINE
  5
E7F
  8
CENTER
  6
CENTER
 10
566.828188
 20
410.0
 30
0.0
 11
627.171812
 21
410.0
 31
0.0
  0
LINE
  5
E80
  8
CENTER
  6
CENTER
 10
597.0
 20
379.828188
 30
0.0
 11
597.0
 21
440.171812
 31
0.0
  0
LINE
  5
E8B
  8
DETAIL
  6
DASHED
 10
150.0
 20
1134.0
 30
0.0
 11
-150.0
 21
1134.0
 31
0.0
  0
LINE
  5
E8D
  8
DETAIL
  6
DASHED
 10
-150.0
 20
1094.0
 30
0.0
 11
-150.0
 21
1134.0
 31
0.0
  0
LINE
  5
E8E
  8
DETAIL
  6
DASHED
 10
150.0
 20
1094.0
 30
0.0
 11
150.0
 21
1134.0
 31
0.0
  0
LINE
  5
EBA
  8
DETAIL
 10
595.0
 20
1266.0
 30
0.0
 11
661.0
 21
1284.0
 31
0.0
  0
LINE
  5
EBB
  8
DETAIL
 10
-595.0
 20
1266.0
 30
0.0
 11
-661.0
 21
1284.0
 31
0.0
  0
DIMENSION
  5
EBC
  8
DIMENSION
  2
*D5
 10
-723.25299
 20
445.0
 30
0.0
 11
-748.75299
 21
222.5
 31
0.0
 70
     0
 13
-595.0
 23
0.0
 33
0.0
 14
7.828188
 24
445.0
 34
0.0
 50
90.0
  0
POLYLINE
  8
STELTXT
  5
153B
  66
     1
 10
0.000000
 20
0.000000
 30
0.000000
  70
     8
  0
VERTEX
  8
STELTXT
  5
153C
 10
639.042
 20
440.365
 30
0.000000
  70
    32
  0
VERTEX
  8
STELTXT
  5
153D
 10
831.430
 20
556.798
 30
0.000000
  70
    32
  0
VERTEX
  8
STELTXT
  5
153E
 10
860.720
 20
556.798
 30
0.000000
  70
    32
  0
SEQEND
  8
STELTXT
  5
153F
  0
TEXT
  5
F54
  8
STELTXT
 10
872.834675
 20
502.422671
 30
0.0
 40
25.0
  1
HEATING RETURN
  0
TEXT
  5
F55
  8
STELTXT
 10
872.834675
 20
542.422671
 30
0.0
 40
25.0
  1
%%C2" THREADED
  0
TEXT
  5
101C
  8
STELTXT
 10
872.834675
 20
462.422671
 30
0.0
 40
25.0
  1
& DRAIN CONNECTION
  0
ENDSEC
  0
EOF
