  0
SECTION
  2
HEADER
  9
$ACADVER
  1
AC1009
  9
$INSBASE
 10
0.0
 20
0.0
 30
0.0
  9
$EXTMIN
 10
-861.05922
 20
-1000.087291
 30
0.0
  9
$EXTMAX
 10
1080.696109
 20
1862.087368
 30
0.0
  9
$LIMMIN
 10
0.0
 20
0.0
  9
$LIMMAX
 10
420.0
 20
297.0
  9
$ORTHOMODE
 70
     1
  9
$REGENMODE
 70
     1
  9
$FILLMODE
 70
     1
  9
$QTEXTMODE
 70
     0
  9
$MIRRTEXT
 70
     1
  9
$DRAGMODE
 70
     2
  9
$LTSCALE
 40
1.0
  9
$OSMODE
 70
     0
  9
$ATTMODE
 70
     2
  9
$TEXTSIZE
 40
25.0
  9
$TRACEWID
 40
1.0
  9
$TEXTSTYLE
  7
STANDARD
  9
$CLAYER
  8
0
  9
$CELTYPE
  6
BYLAYER
  9
$CECOLOR
 62
   256
  9
$DIMSCALE
 40
1.0
  9
$DIMASZ
 40
25.0
  9
$DIMEXO
 40
0.625
  9
$DIMDLI
 40
3.75
  9
$DIMRND
 40
0.0
  9
$DIMDLE
 40
0.0
  9
$DIMEXE
 40
1.25
  9
$DIMTP
 40
0.0
  9
$DIMTM
 40
0.0
  9
$DIMTXT
 40
25.0
  9
$DIMCEN
 40
2.5
  9
$DIMTSZ
 40
0.0
  9
$DIMTOL
 70
     0
  9
$DIMLIM
 70
     0
  9
$DIMTIH
 70
     0
  9
$DIMTOH
 70
     0
  9
$DIMSE1
 70
     0
  9
$DIMSE2
 70
     0
  9
$DIMTAD
 70
     1
  9
$DIMZIN
 70
     8
  9
$DIMBLK
  1

  9
$DIMASO
 70
     1
  9
$DIMSHO
 70
     1
  9
$DIMPOST
  1

  9
$DIMAPOST
  1

  9
$DIMALT
 70
     0
  9
$DIMALTD
 70
     3
  9
$DIMALTF
 40
0.03937
  9
$DIMLFAC
 40
1.0
  9
$DIMTOFL
 70
     1
  9
$DIMTVP
 40
0.0
  9
$DIMTIX
 70
     0
  9
$DIMSOXD
 70
     0
  9
$DIMSAH
 70
     0
  9
$DIMBLK1
  1

  9
$DIMBLK2
  1

  9
$DIMSTYLE
  2
ISO-25
  9
$DIMCLRD
 70
     0
  9
$DIMCLRE
 70
     0
  9
$DIMCLRT
 70
     0
  9
$DIMTFAC
 40
1.0
  9
$DIMGAP
 40
13.0
  9
$LUNITS
 70
     2
  9
$LUPREC
 70
     4
  9
$SKETCHINC
 40
1.0
  9
$FILLETRAD
 40
10.0
  9
$AUNITS
 70
     0
  9
$AUPREC
 70
     0
  9
$MENU
  1
.
  9
$ELEVATION
 40
0.0
  9
$PELEVATION
 40
0.0
  9
$THICKNESS
 40
0.0
  9
$LIMCHECK
 70
     0
  9
$BLIPMODE
 70
     0
  9
$CHAMFERA
 40
10.0
  9
$CHAMFERB
 40
10.0
  9
$SKPOLY
 70
     0
  9
$TDCREATE
 40
2452706.626866
  9
$TDUPDATE
 40
2453073.53359
  9
$TDINDWG
 40
0.342295
  9
$TDUSRTIMER
 40
0.342295
  9
$USRTIMER
 70
     1
  9
$ANGBASE
 50
0.0
  9
$ANGDIR
 70
     0
  9
$PDMODE
 70
     0
  9
$PDSIZE
 40
0.0
  9
$PLINEWID
 40
0.0
  9
$COORDS
 70
     1
  9
$SPLFRAME
 70
     0
  9
$SPLINETYPE
 70
     6
  9
$SPLINESEGS
 70
     8
  9
$ATTDIA
 70
     0
  9
$ATTREQ
 70
     1
  9
$HANDLING
 70
 22529
  9
$HANDSEED
  5
195A
  9
$SURFTAB1
 70
     6
  9
$SURFTAB2
 70
     6
  9
$SURFTYPE
 70
     6
  9
$SURFU
 70
     6
  9
$SURFV
 70
     6
  9
$UCSNAME
  2

  9
$UCSORG
 10
0.0
 20
0.0
 30
0.0
  9
$UCSXDIR
 10
1.0
 20
0.0
 30
0.0
  9
$UCSYDIR
 10
0.0
 20
1.0
 30
0.0
  9
$PUCSNAME
  2

  9
$PUCSORG
 10
0.0
 20
0.0
 30
0.0
  9
$PUCSXDIR
 10
1.0
 20
0.0
 30
0.0
  9
$PUCSYDIR
 10
0.0
 20
1.0
 30
0.0
  9
$USERI1
 70
     0
  9
$USERI2
 70
     0
  9
$USERI3
 70
     0
  9
$USERI4
 70
     0
  9
$USERI5
 70
     0
  9
$USERR1
 40
0.0
  9
$USERR2
 40
0.0
  9
$USERR3
 40
0.0
  9
$USERR4
 40
0.0
  9
$USERR5
 40
0.0
  9
$WORLDVIEW
 70
     1
  9
$SHADEDGE
 70
     3
  9
$SHADEDIF
 70
    70
  9
$TILEMODE
 70
     1
  9
$MAXACTVP
 70
    48
  9
$PLIMCHECK
 70
     0
  9
$PEXTMIN
 10
1.000000E+020
 20
1.000000E+020
 30
1.000000E+020
  9
$PEXTMAX
 10
-1.000000E+020
 20
-1.000000E+020
 30
-1.000000E+020
  9
$PLIMMIN
 10
0.0
 20
0.0
  9
$PLIMMAX
 10
420.0
 20
297.0
  9
$UNITMODE
 70
     0
  9
$VISRETAIN
 70
     1
  9
$PLINEGEN
 70
     0
  9
$PSLTSCALE
 70
     1
  0
ENDSEC
  0
SECTION
  2
TABLES
  0
TABLE
  2
VPORT
 70
     2
  0
VPORT
  2
*ACTIVE
 70
     0
 10
0.0
 20
0.0
 11
1.0
 21
1.0
 12
109.818445
 22
431.000038
 13
0.0
 23
0.0
 14
10.0
 24
10.0
 15
10.0
 25
10.0
 16
0.0
 26
0.0
 36
1.0
 17
0.0
 27
0.0
 37
0.0
 40
2895.136364
 41
1.825
 42
50.0
 43
0.0
 44
0.0
 50
0.0
 51
0.0
 71
     0
 72
   100
 73
     1
 74
     3
 75
     0
 76
     0
 77
     0
 78
     0
  0
ENDTAB
  0
TABLE
  2
LTYPE
 70
     3
  0
LTYPE
  2
CONTINUOUS
 70
     0
  3
Solid line
 72
    65
 73
     0
 40
0.0
  0
LTYPE
  2
CENTER
 70
     0
  3
____ _ ____ _ ____ _ ____ _ ____ _ ____ _ ____
 72
    65
 73
     4
 40
2.0
 49
1.25
 49
-0.25
 49
0.25
 49
-0.25
  0
LTYPE
  2
DASHED
 70
     0
  3
__ __ __ __ __ __ __ __ __ __ __ __ __ __ __
 72
    65
 73
     2
 40
0.75
 49
0.5
 49
-0.25
  0
ENDTAB
  0
TABLE
  2
LAYER
 70
     9
  0
LAYER
  2
0
 70
     0
 62
     7
  6
CONTINUOUS
  0
LAYER
  2
ORIGIN
 70
     0
 62
     6
  6
CONTINUOUS
  0
LAYER
  2
DETAIL
 70
     0
 62
     2
  6
CONTINUOUS
  0
LAYER
  2
DIMENSION
 70
     0
 62
     7
  6
CONTINUOUS
  0
LAYER
  2
PLANNING
 70
     0
 62
     1
  6
DASHED
  0
LAYER
  2
STELTXT
 70
     0
 62
     4
  6
CONTINUOUS
  0
LAYER
  2
STELATT
 70
     0
 62
     7
  6
CONTINUOUS
  0
LAYER
  2
CENTER
 70
     0
 62
     4
  6
CENTER
  0
LAYER
  2
DEFPOINTS
 70
     0
 62
     7
  6
CONTINUOUS
  0
ENDTAB
  0
TABLE
  2
STYLE
 70
     1
  0
STYLE
  2
STANDARD
 70
     0
 40
0.0
 41
1.0
 50
0.0
 71
     0
 42
25.0
  3
simplex.shx
  4

  0
ENDTAB
  0
TABLE
  2
VIEW
 70
     0
  0
ENDTAB
  0
TABLE
  2
UCS
 70
     0
  0
ENDTAB
  0
TABLE
  2
APPID
 70
     1
  0
APPID
  2
ACAD
 70
     0
  0
ENDTAB
  0
TABLE
  2
DIMSTYLE
 70
     2
  0
DIMSTYLE
  2
ISO-25
 70
     0
  3

  4

  5

  6

  7

 40
1.0
 41
25.0
 42
0.625
 43
3.75
 44
1.25
 45
0.0
 46
0.0
 47
0.0
 48
0.0
140
25.0
141
2.5
142
0.0
143
0.03937
144
1.0
145
0.0
146
1.0
147
13.0
 71
     0
 72
     0
 73
     0
 74
     0
 75
     0
 76
     0
 77
     1
 78
     8
170
     0
171
     3
172
     1
173
     0
174
     0
175
     0
176
     0
177
     0
178
     0
  0
DIMSTYLE
  2
STANDARD
 70
     0
  3

  4

  5

  6

  7

 40
1.0
 41
0.18
 42
0.0625
 43
0.38
 44
0.18
 45
0.0
 46
0.0
 47
0.0
 48
0.0
140
0.18
141
0.09
142
0.0
143
25.4
144
1.0
145
0.0
146
1.0
147
0.09
 71
     0
 72
     0
 73
     1
 74
     1
 75
     0
 76
     0
 77
     0
 78
     0
170
     0
171
     2
172
     0
173
     0
174
     0
175
     0
176
     0
177
     0
178
     0
  0
ENDTAB
  0
ENDSEC
  0
SECTION
  2
BLOCKS
  0
BLOCK
  8
0
  2
$MODEL_SPACE
 70
     2
 10
0.0
 20
0.0
 30
0.0
  3
$MODEL_SPACE
  1

  0
ENDBLK
  5
A
  8
0
  0
BLOCK
 67
     1
  8
0
  2
$PAPER_SPACE
 70
     0
 10
0.0
 20
0.0
 30
0.0
  3
$PAPER_SPACE
  1

  0
ENDBLK
  5
10
 67
     1
  8
0
  0
BLOCK
  8
0
  2
*D0
 70
     1
 10
0.0
 20
0.0
 30
0.0
  3
*D0
  1

  0
LINE
  5
170B
  8
DIMENSION
 62
     0
 10
-595.625
 20
0.0
 30
0.0
 11
-797.710687
 21
0.0
 31
0.0
  0
LINE
  5
170C
  8
DIMENSION
 62
     0
 10
-492.625
 20
1362.0
 30
0.0
 11
-797.710687
 21
1362.0
 31
0.0
  0
LINE
  5
170D
  8
DIMENSION
 62
     0
 10
-796.460687
 20
25.0
 30
0.0
 11
-796.460687
 21
1337.0
 31
0.0
  0
SOLID
  5
170E
  8
DIMENSION
 62
     0
 10
-800.627354
 20
25.0
 30
0.0
 11
-792.294021
 21
25.0
 31
0.0
 12
-796.460687
 22
0.0
 32
0.0
 13
-796.460687
 23
0.0
 33
0.0
  0
SOLID
  5
170F
  8
DIMENSION
 62
     0
 10
-800.627354
 20
1337.0
 30
0.0
 11
-792.294021
 21
1337.0
 31
0.0
 12
-796.460687
 22
1362.0
 32
0.0
 13
-796.460687
 23
1362.0
 33
0.0
  0
TEXT
  5
1710
  8
0
 62
     0
 10
-809.460687
 20
639.333333
 30
0.0
 40
25.0
  1
1362
 50
90.0
  0
POINT
  5
1711
  8
DEFPOINTS
 62
     0
 10
-595.0
 20
0.0
 30
0.0
  0
POINT
  5
1712
  8
DEFPOINTS
 62
     0
 10
-492.0
 20
1362.0
 30
0.0
  0
POINT
  5
1713
  8
DEFPOINTS
 62
     0
 10
-796.460687
 20
1362.0
 30
0.0
  0
ENDBLK
  5
FFA
  8
0
  0
BLOCK
  8
0
  2
*D1
 70
     1
 10
0.0
 20
0.0
 30
0.0
  3
*D1
  1

  0
LINE
  5
16F9
  8
DIMENSION
 62
     0
 10
-492.0
 20
1362.625
 30
0.0
 11
-492.0
 21
1518.481686
 31
0.0
  0
LINE
  5
16FA
  8
DIMENSION
 62
     0
 10
492.0
 20
1362.625
 30
0.0
 11
492.0
 21
1518.481686
 31
0.0
  0
LINE
  5
16FB
  8
DIMENSION
 62
     0
 10
-467.0
 20
1517.231686
 30
0.0
 11
467.0
 21
1517.231686
 31
0.0
  0
SOLID
  5
16FC
  8
DIMENSION
 62
     0
 10
-467.0
 20
1521.398353
 30
0.0
 11
-467.0
 21
1513.06502
 31
0.0
 12
-492.0
 22
1517.231686
 32
0.0
 13
-492.0
 23
1517.231686
 33
0.0
  0
SOLID
  5
16FD
  8
DIMENSION
 62
     0
 10
467.0
 20
1521.398353
 30
0.0
 11
467.0
 21
1513.06502
 31
0.0
 12
492.0
 22
1517.231686
 32
0.0
 13
492.0
 23
1517.231686
 33
0.0
  0
TEXT
  5
16FE
  8
0
 62
     0
 10
-32.738095
 20
1530.231686
 30
0.0
 40
25.0
  1
984
  0
POINT
  5
16FF
  8
DEFPOINTS
 62
     0
 10
-492.0
 20
1362.0
 30
0.0
  0
POINT
  5
1700
  8
DEFPOINTS
 62
     0
 10
492.0
 20
1362.0
 30
0.0
  0
POINT
  5
1701
  8
DEFPOINTS
 62
     0
 10
492.0
 20
1517.231686
 30
0.0
  0
ENDBLK
  5
1069
  8
0
  0
BLOCK
  8
0
  2
*D2
 70
     1
 10
0.0
 20
0.0
 30
0.0
  3
*D2
  1

  0
LINE
  5
1574
  8
DIMENSION
 62
     0
 10
-150.0
 20
1197.625
 30
0.0
 11
-150.0
 21
1450.354907
 31
0.0
  0
LINE
  5
1575
  8
DIMENSION
 62
     0
 10
150.0
 20
1197.625
 30
0.0
 11
150.0
 21
1450.354907
 31
0.0
  0
LINE
  5
1576
  8
DIMENSION
 62
     0
 10
-125.0
 20
1449.104907
 30
0.0
 11
125.0
 21
1449.104907
 31
0.0
  0
SOLID
  5
1577
  8
DIMENSION
 62
     0
 10
-125.0
 20
1453.271574
 30
0.0
 11
-125.0
 21
1444.93824
 31
0.0
 12
-150.0
 22
1449.104907
 32
0.0
 13
-150.0
 23
1449.104907
 33
0.0
  0
SOLID
  5
1578
  8
DIMENSION
 62
     0
 10
125.0
 20
1453.271574
 30
0.0
 11
125.0
 21
1444.93824
 31
0.0
 12
150.0
 22
1449.104907
 32
0.0
 13
150.0
 23
1449.104907
 33
0.0
  0
TEXT
  5
1579
  8
0
 62
     0
 10
-32.142857
 20
1462.104907
 30
0.0
 40
25.0
  1
300
  0
POINT
  5
157A
  8
DEFPOINTS
 62
     0
 10
-150.0
 20
1197.0
 30
0.0
  0
POINT
  5
157B
  8
DEFPOINTS
 62
     0
 10
150.0
 20
1197.0
 30
0.0
  0
POINT
  5
157C
  8
DEFPOINTS
 62
     0
 10
150.0
 20
1449.104907
 30
0.0
  0
ENDBLK
  5
1081
  8
0
  0
BLOCK
  8
0
  2
*D3
 70
     1
 10
0.0
 20
0.0
 30
0.0
  3
*D3
  1

  0
LINE
  5
1702
  8
DIMENSION
 62
     0
 10
-595.625
 20
0.0
 30
0.0
 11
-737.831275
 21
0.0
 31
0.0
  0
LINE
  5
1703
  8
DIMENSION
 62
     0
 10
-661.625
 20
1006.0
 30
0.0
 11
-737.831275
 21
1006.0
 31
0.0
  0
LINE
  5
1704
  8
DIMENSION
 62
     0
 10
-736.581275
 20
25.0
 30
0.0
 11
-736.581275
 21
981.0
 31
0.0
  0
SOLID
  5
1705
  8
DIMENSION
 62
     0
 10
-740.747942
 20
25.0
 30
0.0
 11
-732.414609
 21
25.0
 31
0.0
 12
-736.581275
 22
0.0
 32
0.0
 13
-736.581275
 23
0.0
 33
0.0
  0
SOLID
  5
1706
  8
DIMENSION
 62
     0
 10
-740.747942
 20
981.0
 30
0.0
 11
-732.414609
 21
981.0
 31
0.0
 12
-736.581275
 22
1006.0
 32
0.0
 13
-736.581275
 23
1006.0
 33
0.0
  0
TEXT
  5
1707
  8
0
 62
     0
 10
-749.581275
 20
461.928571
 30
0.0
 40
25.0
  1
1006
 50
90.0
  0
POINT
  5
1708
  8
DEFPOINTS
 62
     0
 10
-595.0
 20
0.0
 30
0.0
  0
POINT
  5
1709
  8
DEFPOINTS
 62
     0
 10
-661.0
 20
1006.0
 30
0.0
  0
POINT
  5
170A
  8
DEFPOINTS
 62
     0
 10
-736.581275
 20
1006.0
 30
0.0
  0
ENDBLK
  5
10B1
  8
0
  0
BLOCK
  8
0
  2
*D4
 70
     1
 10
0.0
 20
0.0
 30
0.0
  3
*D4
  1

  0
LINE
  5
16E5
  8
DIMENSION
 62
     0
 10
661.0
 20
1006.625
 30
0.0
 11
661.0
 21
1581.738496
 31
0.0
  0
LINE
  5
16E6
  8
DIMENSION
 62
     0
 10
597.0
 20
1136.625
 30
0.0
 11
597.0
 21
1581.738496
 31
0.0
  0
LINE
  5
16E7
  8
DIMENSION
 62
     0
 10
686.0
 20
1580.488496
 30
0.0
 11
711.0
 21
1580.488496
 31
0.0
  0
LINE
  5
16E8
  8
DIMENSION
 62
     0
 10
572.0
 20
1580.488496
 30
0.0
 11
479.333333
 21
1580.488496
 31
0.0
  0
LINE
  5
16E9
  8
DIMENSION
 62
     0
 10
661.0
 20
1580.488496
 30
0.0
 11
597.0
 21
1580.488496
 31
0.0
  0
SOLID
  5
16EA
  8
DIMENSION
 62
     0
 10
686.0
 20
1584.655162
 30
0.0
 11
686.0
 21
1576.321829
 31
0.0
 12
661.0
 22
1580.488496
 32
0.0
 13
661.0
 23
1580.488496
 33
0.0
  0
SOLID
  5
16EB
  8
DIMENSION
 62
     0
 10
572.0
 20
1584.655162
 30
0.0
 11
572.0
 21
1576.321829
 31
0.0
 12
597.0
 22
1580.488496
 32
0.0
 13
597.0
 23
1580.488496
 33
0.0
  0
TEXT
  5
16EC
  8
0
 62
     0
 10
492.333333
 20
1593.488496
 30
0.0
 40
25.0
  1
64
  0
POINT
  5
16ED
  8
DEFPOINTS
 62
     0
 10
661.0
 20
1006.0
 30
0.0
  0
POINT
  5
16EE
  8
DEFPOINTS
 62
     0
 10
597.0
 20
1136.0
 30
0.0
  0
POINT
  5
16EF
  8
DEFPOINTS
 62
     0
 10
597.0
 20
1580.488496
 30
0.0
  0
ENDBLK
  5
12B7
  8
0
  0
BLOCK
  8
0
  2
*D5
 70
     1
 10
0.0
 20
0.0
 30
0.0
  3
*D5
  1

  0
LINE
  5
16F0
  8
DIMENSION
 62
     0
 10
-661.0
 20
139.375
 30
0.0
 11
-661.0
 21
-260.714532
 31
0.0
  0
LINE
  5
16F1
  8
DIMENSION
 62
     0
 10
661.0
 20
139.375
 30
0.0
 11
661.0
 21
-260.714532
 31
0.0
  0
LINE
  5
16F2
  8
DIMENSION
 62
     0
 10
-636.0
 20
-259.464532
 30
0.0
 11
636.0
 21
-259.464532
 31
0.0
  0
SOLID
  5
16F3
  8
DIMENSION
 62
     0
 10
-636.0
 20
-255.297865
 30
0.0
 11
-636.0
 21
-263.631198
 31
0.0
 12
-661.0
 22
-259.464532
 32
0.0
 13
-661.0
 23
-259.464532
 33
0.0
  0
SOLID
  5
16F4
  8
DIMENSION
 62
     0
 10
636.0
 20
-255.297865
 30
0.0
 11
636.0
 21
-263.631198
 31
0.0
 12
661.0
 22
-259.464532
 32
0.0
 13
661.0
 23
-259.464532
 33
0.0
  0
TEXT
  5
16F5
  8
0
 62
     0
 10
-41.666667
 20
-246.464532
 30
0.0
 40
25.0
  1
1322
  0
POINT
  5
16F6
  8
DEFPOINTS
 62
     0
 10
-661.0
 20
140.0
 30
0.0
  0
POINT
  5
16F7
  8
DEFPOINTS
 62
     0
 10
661.0
 20
140.0
 30
0.0
  0
POINT
  5
16F8
  8
DEFPOINTS
 62
     0
 10
661.0
 20
-259.464532
 30
0.0
  0
ENDBLK
  5
1307
  8
0
  0
BLOCK
  8
0
  2
*D6
 70
     1
 10
0.0
 20
0.0
 30
0.0
  3
*D6
  1

  0
LINE
  5
1714
  8
DIMENSION
 62
     0
 10
-257.737819
 20
-130.0
 30
0.0
 11
-737.831275
 21
-130.0
 31
0.0
  0
LINE
  5
1715
  8
DIMENSION
 62
     0
 10
-595.625
 20
0.0
 30
0.0
 11
-737.831275
 21
0.0
 31
0.0
  0
LINE
  5
1716
  8
DIMENSION
 62
     0
 10
-736.581275
 20
-105.0
 30
0.0
 11
-736.581275
 21
-25.0
 31
0.0
  0
SOLID
  5
1717
  8
DIMENSION
 62
     0
 10
-740.747942
 20
-105.0
 30
0.0
 11
-732.414609
 21
-105.0
 31
0.0
 12
-736.581275
 22
-130.0
 32
0.0
 13
-736.581275
 23
-130.0
 33
0.0
  0
SOLID
  5
1718
  8
DIMENSION
 62
     0
 10
-740.747942
 20
-25.0
 30
0.0
 11
-732.414609
 21
-25.0
 31
0.0
 12
-736.581275
 22
0.0
 32
0.0
 13
-736.581275
 23
0.0
 33
0.0
  0
TEXT
  5
1719
  8
0
 62
     0
 10
-749.581275
 20
-94.761905
 30
0.0
 40
25.0
  1
130
 50
90.0
  0
POINT
  5
171A
  8
DEFPOINTS
 62
     0
 10
-257.112819
 20
-130.0
 30
0.0
  0
POINT
  5
171B
  8
DEFPOINTS
 62
     0
 10
-595.0
 20
0.0
 30
0.0
  0
POINT
  5
171C
  8
DEFPOINTS
 62
     0
 10
-736.581275
 20
0.0
 30
0.0
  0
ENDBLK
  5
1342
  8
0
  0
ENDSEC
  0
SECTION
  2
ENTITIES
  0
ATTDEF
  5
2F
  8
STELATT
 10
-93.333333
 20
-831.325354
 30
0.0
 40
40.0
  1
ES220H
 72
     4
 11
0.0
 21
-811.325354
 31
0.0
  3

  2
MODEL
 70
     2
  0
ATTDEF
  5
33
  8
STELATT
 10
-233.333333
 20
-701.325354
 30
0.0
 40
40.0
  1
IDEAL
 72
     4
 11
0.0
 21
-681.325354
 31
0.0
  3

  2
MANUFACTURER
 70
     2
  0
LINE
  5
49
  8
PLANNING
 10
1061.0
 20
1862.0
 30
0.0
 11
-861.0
 21
1862.0
 31
0.0
  0
LINE
  5
5D
  8
PLANNING
 10
-861.0
 20
-1000.0
 30
0.0
 11
1061.0
 21
-1000.0
 31
0.0
  0
LINE
  5
62
  8
PLANNING
 10
-861.0
 20
1862.0
 30
0.0
 11
-861.0
 21
-1000.0
 31
0.0
  0
ATTDEF
  5
6A
  8
STELATT
 10
-68.571429
 20
-766.325354
 30
0.0
 40
40.0
  1
CONCORD ES
 72
     4
 11
0.0
 21
-746.325354
 31
0.0
  3

  2
TYPE
 70
     2
  0
POLYLINE
  5
6F
  8
ORIGIN
 66
     1
 10
0.0
 20
0.0
 30
0.0
 70
     1
  0
VERTEX
  5
1902
  8
ORIGIN
 10
37.5
 20
-37.5
 30
0.0
  0
VERTEX
  5
1903
  8
ORIGIN
 10
-37.5
 20
37.5
 30
0.0
  0
VERTEX
  5
1904
  8
ORIGIN
 10
-37.5
 20
-37.5
 30
0.0
  0
VERTEX
  5
1905
  8
ORIGIN
 10
37.5
 20
37.5
 30
0.0
  0
SEQEND
  5
1906
  8
ORIGIN
  0
LINE
  5
92
  8
PLANNING
 10
1061.0
 20
1862.0
 30
0.0
 11
1061.0
 21
-1000.0
 31
0.0
  0
TEXT
  5
4A5
  8
STELTXT
 10
763.97017
 20
1208.496632
 30
0.0
 40
25.0
  1
HEATING FLOW
  0
TEXT
  5
4A6
  8
STELTXT
 10
763.97017
 20
1248.496632
 30
0.0
 40
25.0
  1
%%C2" THREADED
  0
TEXT
  5
4C0
  8
STELTXT
 10
6450.954798
 20
2826.230363
 30
0.0
 40
25.0
  1
 
  0
TEXT
  5
4C1
  8
STELTXT
 10
6459.385829
 20
1987.812349
 30
0.0
 40
25.0
  1
 
  0
POLYLINE
  8
STELTXT
  5
1950
  66
     1
 10
0.000000
 20
0.000000
 30
0.000000
  70
     8
  0
VERTEX
  8
STELTXT
  5
1951
 10
620.579
 20
1122.75
 30
0.000000
  70
    32
  0
VERTEX
  8
STELTXT
  5
1952
 10
722.566
 20
1262.87
 30
0.000000
  70
    32
  0
VERTEX
  8
STELTXT
  5
1953
 10
751.855
 20
1262.87
 30
0.000000
  70
    32
  0
SEQEND
  8
STELTXT
  5
1954
  0
LINE
  5
DE4
  8
CENTER
  6
CENTER
 10
597.0
 20
1006.0
 30
0.0
 11
597.0
 21
1136.0
 31
0.0
  0
POLYLINE
  8
STELTXT
  5
1955
  66
     1
 10
0.000000
 20
0.000000
 30
0.000000
  70
     8
  0
VERTEX
  8
STELTXT
  5
1956
 10
620.579
 20
1113.22
 30
0.000000
  70
    32
  0
VERTEX
  8
STELTXT
  5
1957
 10
722.566
 20
1161.35
 30
0.000000
  70
    32
  0
VERTEX
  8
STELTXT
  5
1958
 10
751.855
 20
1161.35
 30
0.000000
  70
    32
  0
SEQEND
  8
STELTXT
  5
1959
  0
TEXT
  5
F54
  8
STELTXT
 10
763.97017
 20
1106.970681
 30
0.0
 40
25.0
  1
HEATING RETURN
  0
TEXT
  5
F55
  8
STELTXT
 10
763.97017
 20
1146.970681
 30
0.0
 40
25.0
  1
%%C2" THREADED
  0
LINE
  5
FA7
  8
DETAIL
 10
-661.0
 20
140.0
 30
0.0
 11
-661.0
 21
1006.0
 31
0.0
  0
LINE
  5
FA8
  8
DETAIL
 10
38.0
 20
-142.7
 30
0.0
 11
38.0
 21
-117.3
 31
0.0
  0
LINE
  5
FE5
  8
DETAIL
 10
-595.0
 20
0.0
 30
0.0
 11
595.0
 21
0.0
 31
0.0
  0
LINE
  5
FE6
  8
DETAIL
 10
-661.0
 20
1006.0
 30
0.0
 11
661.0
 21
1006.0
 31
0.0
  0
LINE
  5
FE7
  8
DETAIL
 10
-492.0
 20
1362.0
 30
0.0
 11
492.0
 21
1362.0
 31
0.0
  0
LINE
  5
FE8
  8
DETAIL
 10
-492.0
 20
1362.0
 30
0.0
 11
-492.0
 21
1006.0
 31
0.0
  0
LINE
  5
FE9
  8
DETAIL
 10
492.0
 20
1362.0
 30
0.0
 11
492.0
 21
1006.0
 31
0.0
  0
CIRCLE
  5
FEC
  8
DETAIL
 10
0.0
 20
1197.0
 30
0.0
 40
150.0
  0
DIMENSION
  5
FEE
  8
DIMENSION
  2
*D0
 10
-796.460687
 20
1362.0
 30
0.0
 11
-821.960687
 21
681.0
 31
0.0
 70
     0
 13
-595.0
 23
0.0
 33
0.0
 14
-492.0
 24
1362.0
 34
0.0
 50
90.0
  0
DIMENSION
  5
105D
  8
DIMENSION
  2
*D1
 10
492.0
 20
1517.231686
 30
0.0
 11
0.0
 21
1542.731686
 31
0.0
 70
     0
 13
-492.0
 23
1362.0
 33
0.0
 14
492.0
 24
1362.0
 34
0.0
  0
DIMENSION
  5
1075
  8
DIMENSION
  2
*D2
 10
150.0
 20
1449.104907
 30
0.0
 11
0.0
 21
1474.604907
 31
0.0
 70
     0
 13
-150.0
 23
1197.0
 33
0.0
 14
150.0
 24
1197.0
 34
0.0
  0
DIMENSION
  5
10A5
  8
DIMENSION
  2
*D3
 10
-736.581275
 20
1006.0
 30
0.0
 11
-762.081275
 21
503.0
 31
0.0
 70
     0
 13
-595.0
 23
0.0
 33
0.0
 14
-661.0
 24
1006.0
 34
0.0
 50
90.0
  0
LINE
  5
10C7
  8
DETAIL
 10
571.6
 20
1136.0
 30
0.0
 11
622.4
 21
1136.0
 31
0.0
  0
LINE
  5
10D1
  8
DETAIL
 10
571.6
 20
1006.0
 30
0.0
 11
571.6
 21
1136.0
 31
0.0
  0
LINE
  5
10D2
  8
DETAIL
 10
622.4
 20
1006.0
 30
0.0
 11
622.4
 21
1136.0
 31
0.0
  0
LINE
  5
10D3
  8
CENTER
  6
CENTER
 10
-150.0
 20
1197.0
 30
0.0
 11
150.0
 21
1197.0
 31
0.0
  0
LINE
  5
10D4
  8
CENTER
  6
CENTER
 10
0.0
 20
1047.0
 30
0.0
 11
0.0
 21
1347.0
 31
0.0
  0
CIRCLE
  5
11E1
  8
DETAIL
 10
121.769116
 20
84.889384
 30
0.0
 40
15.0
  0
POLYLINE
  5
11E2
  8
DETAIL
 66
     1
 10
0.0
 20
0.0
 30
0.0
 70
     1
  0
VERTEX
  5
1907
  8
DETAIL
 10
148.974457
 20
75.699075
 30
0.0
  0
VERTEX
  5
1908
  8
DETAIL
 10
148.974457
 20
94.079693
 30
0.0
  0
VERTEX
  5
1909
  8
DETAIL
 10
167.43298
 20
94.079693
 30
0.0
  0
VERTEX
  5
190A
  8
DETAIL
 10
167.43298
 20
75.699075
 30
0.0
  0
SEQEND
  5
190B
  8
DETAIL
  0
TEXT
  5
11E3
  8
STELTXT
 10
3723.089799
 20
3203.510594
 30
0.0
 40
25.0
  1
 
  0
TEXT
  5
11E4
  8
STELTXT
 10
3731.52083
 20
2365.09258
 30
0.0
 40
25.0
  1
 
  0
POLYLINE
  5
11E9
  8
DETAIL
 66
     1
 10
0.0
 20
0.0
 30
0.0
 70
     1
  0
VERTEX
  5
190C
  8
DETAIL
 10
72.222902
 20
75.699075
 30
0.0
  0
VERTEX
  5
190D
  8
DETAIL
 10
72.222902
 20
94.079693
 30
0.0
  0
VERTEX
  5
190E
  8
DETAIL
 10
93.681425
 20
94.079693
 30
0.0
  0
VERTEX
  5
190F
  8
DETAIL
 10
93.681425
 20
75.699075
 30
0.0
  0
SEQEND
  5
1910
  8
DETAIL
  0
POLYLINE
  5
11EA
  8
DETAIL
 66
     1
 10
0.0
 20
0.0
 30
0.0
 70
     1
  0
VERTEX
  5
1911
  8
DETAIL
 10
34.111792
 20
75.699075
 30
0.0
  0
VERTEX
  5
1912
  8
DETAIL
 10
34.111792
 20
94.079693
 30
0.0
  0
VERTEX
  5
1913
  8
DETAIL
 10
55.570314
 20
94.079693
 30
0.0
  0
VERTEX
  5
1914
  8
DETAIL
 10
55.570314
 20
75.699075
 30
0.0
  0
SEQEND
  5
1915
  8
DETAIL
  0
POLYLINE
  5
11EB
  8
DETAIL
 66
     1
 10
0.0
 20
0.0
 30
0.0
 70
     1
  0
VERTEX
  5
1916
  8
DETAIL
 10
-3.999319
 20
75.380406
 30
0.0
  0
VERTEX
  5
1917
  8
DETAIL
 10
-3.999319
 20
93.761023
 30
0.0
  0
VERTEX
  5
1918
  8
DETAIL
 10
17.459203
 20
93.761023
 30
0.0
  0
VERTEX
  5
1919
  8
DETAIL
 10
17.459203
 20
75.380406
 30
0.0
  0
SEQEND
  5
191A
  8
DETAIL
  0
POLYLINE
  5
11EC
  8
DETAIL
 66
     1
 10
0.0
 20
0.0
 30
0.0
 70
     1
  0
VERTEX
  5
191B
  8
DETAIL
 10
-345.637323
 20
55.380406
 30
0.0
  0
VERTEX
  5
191C
  8
DETAIL
 10
-345.637323
 20
123.761023
 30
0.0
  0
VERTEX
  5
191D
  8
DETAIL
 10
-174.1788
 20
123.761023
 30
0.0
  0
VERTEX
  5
191E
  8
DETAIL
 10
-174.1788
 20
55.380406
 30
0.0
  0
SEQEND
  5
191F
  8
DETAIL
  0
LINE
  5
11F4
  8
DETAIL
 10
299.0
 20
140.0
 30
0.0
 11
299.0
 21
0.0
 31
0.0
  0
CIRCLE
  5
11F8
  8
DETAIL
 10
203.604068
 20
84.889384
 30
0.0
 40
8.5
  0
POLYLINE
  5
11F9
  8
DETAIL
 66
     1
 10
0.0
 20
0.0
 30
0.0
 70
     1
  0
VERTEX
  5
1920
  8
DETAIL
 10
-80.221541
 20
75.380406
 30
0.0
  0
VERTEX
  5
1921
  8
DETAIL
 10
-80.221541
 20
93.761023
 30
0.0
  0
VERTEX
  5
1922
  8
DETAIL
 10
-58.763018
 20
93.761023
 30
0.0
  0
VERTEX
  5
1923
  8
DETAIL
 10
-58.763018
 20
75.380406
 30
0.0
  0
SEQEND
  5
1924
  8
DETAIL
  0
POLYLINE
  5
11FA
  8
DETAIL
 66
     1
 10
0.0
 20
0.0
 30
0.0
 70
     1
  0
VERTEX
  5
1925
  8
DETAIL
 10
-42.11043
 20
75.699075
 30
0.0
  0
VERTEX
  5
1926
  8
DETAIL
 10
-42.11043
 20
94.079693
 30
0.0
  0
VERTEX
  5
1927
  8
DETAIL
 10
-20.651907
 20
94.079693
 30
0.0
  0
VERTEX
  5
1928
  8
DETAIL
 10
-20.651907
 20
75.699075
 30
0.0
  0
SEQEND
  5
1929
  8
DETAIL
  0
POLYLINE
  5
11FB
  8
DETAIL
 66
     1
 10
0.0
 20
0.0
 30
0.0
 70
     1
  0
VERTEX
  5
192A
  8
DETAIL
 10
-139.791174
 20
75.380406
 30
0.0
  0
VERTEX
  5
192B
  8
DETAIL
 10
-139.791174
 20
103.761023
 30
0.0
  0
VERTEX
  5
192C
  8
DETAIL
 10
-96.874129
 20
103.761023
 30
0.0
  0
VERTEX
  5
192D
  8
DETAIL
 10
-96.874129
 20
75.380406
 30
0.0
  0
SEQEND
  5
192E
  8
DETAIL
  0
LINE
  5
1207
  8
DETAIL
 10
-137.5
 20
-160.44405
 30
0.0
 11
62.5
 21
-160.44405
 31
0.0
  0
LINE
  5
1208
  8
DETAIL
 10
62.5
 20
-160.44405
 30
0.0
 11
62.5
 21
-99.55595
 31
0.0
  0
LINE
  5
120B
  8
DETAIL
 10
62.5
 20
-99.55595
 30
0.0
 11
-137.5
 21
-99.55595
 31
0.0
  0
LINE
  5
120C
  8
DETAIL
 10
-137.5
 20
-99.55595
 30
0.0
 11
-137.5
 21
-160.44405
 31
0.0
  0
POLYLINE
  5
120D
  8
DETAIL
 66
     1
 10
0.0
 20
0.0
 30
0.0
  0
VERTEX
  5
192F
  8
DETAIL
 10
-137.5
 20
-107.380236
 30
0.0
  0
VERTEX
  5
1930
  8
DETAIL
 10
-137.5
 20
-152.619764
 30
0.0
  0
SEQEND
  5
1931
  8
DETAIL
  0
POLYLINE
  5
120E
  8
DETAIL
 66
     1
 10
0.0
 20
0.0
 30
0.0
 70
     1
  0
VERTEX
  5
1932
  8
DETAIL
 10
-137.5
 20
-99.55595
 30
0.0
  0
VERTEX
  5
1933
  8
DETAIL
 10
-169.511569
 20
-99.55595
 30
0.0
  0
VERTEX
  5
1934
  8
DETAIL
 10
-169.511569
 20
-160.44405
 30
0.0
  0
VERTEX
  5
1935
  8
DETAIL
 10
-137.5
 20
-160.44405
 30
0.0
  0
SEQEND
  5
1936
  8
DETAIL
  0
POLYLINE
  5
120F
  8
DETAIL
 66
     1
 10
0.0
 20
0.0
 30
0.0
 70
     1
  0
VERTEX
  5
1937
  8
DETAIL
 10
-122.65881
 20
-146.254366
 30
0.0
  0
VERTEX
  5
1938
  8
DETAIL
 10
-85.176607
 20
-146.254366
 30
0.0
  0
VERTEX
  5
1939
  8
DETAIL
 10
-85.176607
 20
-111.04082
 30
0.0
  0
VERTEX
  5
193A
  8
DETAIL
 10
-122.65881
 20
-111.04082
 30
0.0
  0
SEQEND
  5
193B
  8
DETAIL
  0
POLYLINE
  5
1210
  8
DETAIL
 66
     1
 10
0.0
 20
0.0
 30
0.0
 70
     1
  0
VERTEX
  5
193C
  8
DETAIL
 10
-216.724161
 20
-114.214417
 30
0.0
  0
VERTEX
  5
193D
  8
DETAIL
 10
-231.303561
 20
-114.214417
 30
0.0
  0
VERTEX
  5
193E
  8
DETAIL
 10
-231.303561
 20
-145.785583
 30
0.0
  0
VERTEX
  5
193F
  8
DETAIL
 10
-216.724161
 20
-145.785583
 30
0.0
  0
SEQEND
  5
1940
  8
DETAIL
  0
POLYLINE
  5
1211
  8
DETAIL
 66
     1
 10
0.0
 20
0.0
 30
0.0
 70
     1
  0
VERTEX
  5
1941
  8
DETAIL
 10
-257.112819
 20
-136.669963
 30
0.0
  0
VERTEX
  5
1942
  8
DETAIL
 10
-231.303561
 20
-136.669963
 30
0.0
  0
VERTEX
  5
1943
  8
DETAIL
 10
-231.303561
 20
-123.330037
 30
0.0
  0
VERTEX
  5
1944
  8
DETAIL
 10
-257.112819
 20
-123.330037
 30
0.0
  0
SEQEND
  5
1945
  8
DETAIL
  0
LINE
  5
1292
  8
DETAIL
 10
595.0
 20
1006.0
 30
0.0
 11
595.0
 21
0.0
 31
0.0
  0
LINE
  5
1293
  8
DETAIL
 10
-595.0
 20
1006.0
 30
0.0
 11
-595.0
 21
0.0
 31
0.0
  0
LINE
  5
1294
  8
DETAIL
 10
-661.0
 20
140.0
 30
0.0
 11
661.0
 21
140.0
 31
0.0
  0
LINE
  5
1295
  8
DETAIL
 10
-661.0
 20
140.0
 30
0.0
 11
-595.0
 21
0.0
 31
0.0
  0
LINE
  5
1296
  8
DETAIL
 10
595.0
 20
0.0
 30
0.0
 11
661.0
 21
140.0
 31
0.0
  0
DIMENSION
  5
12A9
  8
DIMENSION
  2
*D4
 10
597.0
 20
1580.488496
 30
0.0
 11
513.166667
 21
1605.988496
 31
0.0
 70
     0
 13
661.0
 23
1006.0
 33
0.0
 14
597.0
 24
1136.0
 34
0.0
  0
DIMENSION
  5
12FB
  8
DIMENSION
  2
*D5
 10
661.0
 20
-259.464532
 30
0.0
 11
0.0
 21
-233.964532
 31
0.0
 70
     0
 13
-661.0
 23
140.0
 33
0.0
 14
661.0
 24
140.0
 34
0.0
  0
POLYLINE
  5
132E
  8
DETAIL
 66
     1
 10
0.0
 20
0.0
 30
0.0
  0
VERTEX
  5
1946
  8
DETAIL
 10
-169.511569
 20
-152.619764
 30
0.0
  0
VERTEX
  5
1947
  8
DETAIL
 10
-216.724161
 20
-152.619764
 30
0.0
  0
VERTEX
  5
1948
  8
DETAIL
 10
-216.724161
 20
-107.380236
 30
0.0
  0
VERTEX
  5
1949
  8
DETAIL
 10
-169.511569
 20
-107.380236
 30
0.0
  0
SEQEND
  5
194A
  8
DETAIL
  0
ARC
  5
1331
  8
DETAIL
 10
0.0
 20
-130.0
 30
0.0
 40
27.33434
 50
27.68544
 51
332.31456
  0
ARC
  5
1332
  8
DETAIL
 10
0.0
 20
-130.0
 30
0.0
 40
19.791114
 50
39.918861
 51
320.081139
  0
ARC
  5
1334
  8
DETAIL
 10
0.0
 20
-130.0
 30
0.0
 40
12.7
 50
90.0
 51
270.0
  0
DIMENSION
  5
1336
  8
DIMENSION
  2
*D6
 10
-736.581275
 20
0.0
 30
0.0
 11
-762.081275
 21
-65.0
 31
0.0
 70
     0
 13
-257.112819
 23
-130.0
 33
0.0
 14
-595.0
 24
0.0
 34
0.0
 50
90.0
  0
POLYLINE
  5
134E
  8
DETAIL
 66
     1
 10
0.0
 20
0.0
 30
0.0
 70
     1
  0
VERTEX
  5
194B
  8
DETAIL
 10
49.379099
 20
-99.55595
 30
0.0
  0
VERTEX
  5
194C
  8
DETAIL
 10
-63.113597
 20
-99.55595
 30
0.0
  0
VERTEX
  5
194D
  8
DETAIL
 10
-63.113597
 20
-54.533335
 30
0.0
  0
VERTEX
  5
194E
  8
DETAIL
 10
49.379099
 20
-54.533335
 30
0.0
  0
SEQEND
  5
194F
  8
DETAIL
  0
LINE
  5
134F
  8
DETAIL
 10
-12.7
 20
-54.533335
 30
0.0
 11
-12.7
 21
0.0
 31
0.0
  0
LINE
  5
1350
  8
DETAIL
 10
12.7
 20
-54.533335
 30
0.0
 11
12.7
 21
0.0
 31
0.0
  0
LINE
  5
1351
  8
DETAIL
 10
0.0
 20
-117.3
 30
0.0
 11
38.0
 21
-117.3
 31
0.0
  0
LINE
  5
1352
  8
DETAIL
 10
0.0
 20
-142.7
 30
0.0
 11
38.0
 21
-142.7
 31
0.0
  0
LINE
  5
1353
  8
DETAIL
 10
661.0
 20
1006.0
 30
0.0
 11
661.0
 21
139.375
 31
0.0
  0
LINE
  5
17B3
  8
0
 10
-492.625
 20
1362.625
 30
0.0
 11
-694.183423
 21
1362.625
 31
0.0
  0
LINE
  5
17B4
  8
0
 10
-150.625
 20
1197.0
 30
0.0
 11
-694.183423
 21
1197.0
 31
0.0
  0
LINE
  5
17B5
  8
0
 10
-692.933423
 20
1337.625
 30
0.0
 11
-692.933423
 21
1222.0
 31
0.0
  0
SOLID
  5
17B6
  8
0
 10
-697.10009
 20
1337.625
 30
0.0
 11
-688.766757
 21
1337.625
 31
0.0
 12
-692.933423
 22
1362.625
 32
0.0
 13
-692.933423
 23
1362.625
 33
0.0
  0
SOLID
  5
17B7
  8
0
 10
-697.10009
 20
1222.0
 30
0.0
 11
-688.766757
 21
1222.0
 31
0.0
 12
-692.933423
 22
1197.0
 32
0.0
 13
-692.933423
 23
1197.0
 33
0.0
  0
TEXT
  5
17B9
  8
0
 10
-708.314376
 20
1250.050595
 30
0.0
 40
25.0
  1
165
 50
90.0
  0
ENDSEC
  0
EOF
