  0
SECTION
  2
HEADER
  9
$ACADVER
  1
AC1009
  9
$INSBASE
 10
0.0
 20
0.0
 30
0.0
  9
$EXTMIN
 10
-1125.075324
 20
-1000.088816
 30
0.0
  9
$EXTMAX
 10
1344.712227
 20
1912.088894
 30
0.0
  9
$LIMMIN
 10
0.0
 20
0.0
  9
$LIMMAX
 10
420.0
 20
297.0
  9
$ORTHOMODE
 70
     1
  9
$REGENMODE
 70
     1
  9
$FILLMODE
 70
     1
  9
$QTEXTMODE
 70
     0
  9
$MIRRTEXT
 70
     1
  9
$DRAGMODE
 70
     2
  9
$LTSCALE
 40
1.0
  9
$OSMODE
 70
     0
  9
$ATTMODE
 70
     2
  9
$TEXTSIZE
 40
25.0
  9
$TRACEWID
 40
1.0
  9
$TEXTSTYLE
  7
STANDARD
  9
$CLAYER
  8
0
  9
$CELTYPE
  6
BYLAYER
  9
$CECOLOR
 62
   256
  9
$DIMSCALE
 40
1.0
  9
$DIMASZ
 40
25.0
  9
$DIMEXO
 40
0.625
  9
$DIMDLI
 40
3.75
  9
$DIMRND
 40
0.0
  9
$DIMDLE
 40
0.0
  9
$DIMEXE
 40
1.25
  9
$DIMTP
 40
0.0
  9
$DIMTM
 40
0.0
  9
$DIMTXT
 40
25.0
  9
$DIMCEN
 40
2.5
  9
$DIMTSZ
 40
0.0
  9
$DIMTOL
 70
     0
  9
$DIMLIM
 70
     0
  9
$DIMTIH
 70
     0
  9
$DIMTOH
 70
     0
  9
$DIMSE1
 70
     0
  9
$DIMSE2
 70
     0
  9
$DIMTAD
 70
     1
  9
$DIMZIN
 70
     8
  9
$DIMBLK
  1

  9
$DIMASO
 70
     1
  9
$DIMSHO
 70
     1
  9
$DIMPOST
  1

  9
$DIMAPOST
  1

  9
$DIMALT
 70
     0
  9
$DIMALTD
 70
     3
  9
$DIMALTF
 40
0.03937
  9
$DIMLFAC
 40
1.0
  9
$DIMTOFL
 70
     1
  9
$DIMTVP
 40
0.0
  9
$DIMTIX
 70
     0
  9
$DIMSOXD
 70
     0
  9
$DIMSAH
 70
     0
  9
$DIMBLK1
  1

  9
$DIMBLK2
  1

  9
$DIMSTYLE
  2
ISO-25
  9
$DIMCLRD
 70
     0
  9
$DIMCLRE
 70
     0
  9
$DIMCLRT
 70
     0
  9
$DIMTFAC
 40
1.0
  9
$DIMGAP
 40
13.0
  9
$LUNITS
 70
     2
  9
$LUPREC
 70
     4
  9
$SKETCHINC
 40
1.0
  9
$FILLETRAD
 40
10.0
  9
$AUNITS
 70
     0
  9
$AUPREC
 70
     0
  9
$MENU
  1
.
  9
$ELEVATION
 40
0.0
  9
$PELEVATION
 40
0.0
  9
$THICKNESS
 40
0.0
  9
$LIMCHECK
 70
     0
  9
$BLIPMODE
 70
     0
  9
$CHAMFERA
 40
10.0
  9
$CHAMFERB
 40
10.0
  9
$SKPOLY
 70
     0
  9
$TDCREATE
 40
2452706.626866
  9
$TDUPDATE
 40
2453073.533643
  9
$TDINDWG
 40
0.348541
  9
$TDUSRTIMER
 40
0.348541
  9
$USRTIMER
 70
     1
  9
$ANGBASE
 50
0.0
  9
$ANGDIR
 70
     0
  9
$PDMODE
 70
     0
  9
$PDSIZE
 40
0.0
  9
$PLINEWID
 40
0.0
  9
$COORDS
 70
     1
  9
$SPLFRAME
 70
     0
  9
$SPLINETYPE
 70
     6
  9
$SPLINESEGS
 70
     8
  9
$ATTDIA
 70
     0
  9
$ATTREQ
 70
     1
  9
$HANDLING
 70
 22529
  9
$HANDSEED
  5
1CC4
  9
$SURFTAB1
 70
     6
  9
$SURFTAB2
 70
     6
  9
$SURFTYPE
 70
     6
  9
$SURFU
 70
     6
  9
$SURFV
 70
     6
  9
$UCSNAME
  2

  9
$UCSORG
 10
0.0
 20
0.0
 30
0.0
  9
$UCSXDIR
 10
1.0
 20
0.0
 30
0.0
  9
$UCSYDIR
 10
0.0
 20
1.0
 30
0.0
  9
$PUCSNAME
  2

  9
$PUCSORG
 10
0.0
 20
0.0
 30
0.0
  9
$PUCSXDIR
 10
1.0
 20
0.0
 30
0.0
  9
$PUCSYDIR
 10
0.0
 20
1.0
 30
0.0
  9
$USERI1
 70
     0
  9
$USERI2
 70
     0
  9
$USERI3
 70
     0
  9
$USERI4
 70
     0
  9
$USERI5
 70
     0
  9
$USERR1
 40
0.0
  9
$USERR2
 40
0.0
  9
$USERR3
 40
0.0
  9
$USERR4
 40
0.0
  9
$USERR5
 40
0.0
  9
$WORLDVIEW
 70
     1
  9
$SHADEDGE
 70
     3
  9
$SHADEDIF
 70
    70
  9
$TILEMODE
 70
     1
  9
$MAXACTVP
 70
    48
  9
$PLIMCHECK
 70
     0
  9
$PEXTMIN
 10
1.000000E+020
 20
1.000000E+020
 30
1.000000E+020
  9
$PEXTMAX
 10
-1.000000E+020
 20
-1.000000E+020
 30
-1.000000E+020
  9
$PLIMMIN
 10
0.0
 20
0.0
  9
$PLIMMAX
 10
420.0
 20
297.0
  9
$UNITMODE
 70
     0
  9
$VISRETAIN
 70
     1
  9
$PLINEGEN
 70
     0
  9
$PSLTSCALE
 70
     1
  0
ENDSEC
  0
SECTION
  2
TABLES
  0
TABLE
  2
VPORT
 70
     2
  0
VPORT
  2
*ACTIVE
 70
     0
 10
0.0
 20
0.0
 11
1.0
 21
1.0
 12
109.818452
 22
456.000039
 13
0.0
 23
0.0
 14
10.0
 24
10.0
 15
10.0
 25
10.0
 16
0.0
 26
0.0
 36
1.0
 17
0.0
 27
0.0
 37
0.0
 40
2945.715266
 41
1.825
 42
50.0
 43
0.0
 44
0.0
 50
0.0
 51
0.0
 71
     0
 72
   100
 73
     1
 74
     3
 75
     0
 76
     0
 77
     0
 78
     0
  0
ENDTAB
  0
TABLE
  2
LTYPE
 70
     3
  0
LTYPE
  2
CONTINUOUS
 70
     0
  3
Solid line
 72
    65
 73
     0
 40
0.0
  0
LTYPE
  2
CENTER
 70
     0
  3
____ _ ____ _ ____ _ ____ _ ____ _ ____ _ ____
 72
    65
 73
     4
 40
2.0
 49
1.25
 49
-0.25
 49
0.25
 49
-0.25
  0
LTYPE
  2
DASHED
 70
     0
  3
__ __ __ __ __ __ __ __ __ __ __ __ __ __ __
 72
    65
 73
     2
 40
0.75
 49
0.5
 49
-0.25
  0
ENDTAB
  0
TABLE
  2
LAYER
 70
     9
  0
LAYER
  2
0
 70
     0
 62
     7
  6
CONTINUOUS
  0
LAYER
  2
ORIGIN
 70
     0
 62
     6
  6
CONTINUOUS
  0
LAYER
  2
DETAIL
 70
     0
 62
     2
  6
CONTINUOUS
  0
LAYER
  2
DIMENSION
 70
     0
 62
     7
  6
CONTINUOUS
  0
LAYER
  2
PLANNING
 70
     0
 62
     1
  6
DASHED
  0
LAYER
  2
STELTXT
 70
     0
 62
     4
  6
CONTINUOUS
  0
LAYER
  2
STELATT
 70
     0
 62
     7
  6
CONTINUOUS
  0
LAYER
  2
CENTER
 70
     0
 62
     4
  6
CENTER
  0
LAYER
  2
DEFPOINTS
 70
     0
 62
     7
  6
CONTINUOUS
  0
ENDTAB
  0
TABLE
  2
STYLE
 70
     1
  0
STYLE
  2
STANDARD
 70
     0
 40
0.0
 41
1.0
 50
0.0
 71
     0
 42
25.0
  3
simplex.shx
  4

  0
ENDTAB
  0
TABLE
  2
VIEW
 70
     0
  0
ENDTAB
  0
TABLE
  2
UCS
 70
     0
  0
ENDTAB
  0
TABLE
  2
APPID
 70
     1
  0
APPID
  2
ACAD
 70
     0
  0
ENDTAB
  0
TABLE
  2
DIMSTYLE
 70
     2
  0
DIMSTYLE
  2
ISO-25
 70
     0
  3

  4

  5

  6

  7

 40
1.0
 41
25.0
 42
0.625
 43
3.75
 44
1.25
 45
0.0
 46
0.0
 47
0.0
 48
0.0
140
25.0
141
2.5
142
0.0
143
0.03937
144
1.0
145
0.0
146
1.0
147
13.0
 71
     0
 72
     0
 73
     0
 74
     0
 75
     0
 76
     0
 77
     1
 78
     8
170
     0
171
     3
172
     1
173
     0
174
     0
175
     0
176
     0
177
     0
178
     0
  0
DIMSTYLE
  2
STANDARD
 70
     0
  3

  4

  5

  6

  7

 40
1.0
 41
0.18
 42
0.0625
 43
0.38
 44
0.18
 45
0.0
 46
0.0
 47
0.0
 48
0.0
140
0.18
141
0.09
142
0.0
143
25.4
144
1.0
145
0.0
146
1.0
147
0.09
 71
     0
 72
     0
 73
     1
 74
     1
 75
     0
 76
     0
 77
     0
 78
     0
170
     0
171
     2
172
     0
173
     0
174
     0
175
     0
176
     0
177
     0
178
     0
  0
ENDTAB
  0
ENDSEC
  0
SECTION
  2
BLOCKS
  0
BLOCK
  8
0
  2
$MODEL_SPACE
 70
     2
 10
0.0
 20
0.0
 30
0.0
  3
$MODEL_SPACE
  1

  0
ENDBLK
  5
A
  8
0
  0
BLOCK
 67
     1
  8
0
  2
$PAPER_SPACE
 70
     0
 10
0.0
 20
0.0
 30
0.0
  3
$PAPER_SPACE
  1

  0
ENDBLK
  5
10
 67
     1
  8
0
  0
BLOCK
  8
0
  2
*D0
 70
     1
 10
0.0
 20
0.0
 30
0.0
  3
*D0
  1

  0
LINE
  5
1A29
  8
DIMENSION
 62
     0
 10
-859.625
 20
0.0
 30
0.0
 11
-1061.710687
 21
0.0
 31
0.0
  0
LINE
  5
1A2A
  8
DIMENSION
 62
     0
 10
-756.625
 20
1412.0
 30
0.0
 11
-1061.710687
 21
1412.0
 31
0.0
  0
LINE
  5
1A2B
  8
DIMENSION
 62
     0
 10
-1060.460687
 20
25.0
 30
0.0
 11
-1060.460687
 21
1387.0
 31
0.0
  0
SOLID
  5
1A2C
  8
DIMENSION
 62
     0
 10
-1064.627354
 20
25.0
 30
0.0
 11
-1056.294021
 21
25.0
 31
0.0
 12
-1060.460687
 22
0.0
 32
0.0
 13
-1060.460687
 23
0.0
 33
0.0
  0
SOLID
  5
1A2D
  8
DIMENSION
 62
     0
 10
-1064.627354
 20
1387.0
 30
0.0
 11
-1056.294021
 21
1387.0
 31
0.0
 12
-1060.460687
 22
1412.0
 32
0.0
 13
-1060.460687
 23
1412.0
 33
0.0
  0
TEXT
  5
1A2E
  8
0
 62
     0
 10
-1073.460687
 20
666.714286
 30
0.0
 40
25.0
  1
1412
 50
90.0
  0
POINT
  5
1A2F
  8
DEFPOINTS
 62
     0
 10
-859.0
 20
0.0
 30
0.0
  0
POINT
  5
1A30
  8
DEFPOINTS
 62
     0
 10
-756.0
 20
1412.0
 30
0.0
  0
POINT
  5
1A31
  8
DEFPOINTS
 62
     0
 10
-1060.460687
 20
1412.0
 30
0.0
  0
ENDBLK
  5
FFA
  8
0
  0
BLOCK
  8
0
  2
*D1
 70
     1
 10
0.0
 20
0.0
 30
0.0
  3
*D1
  1

  0
LINE
  5
1A17
  8
DIMENSION
 62
     0
 10
-756.0
 20
1412.625
 30
0.0
 11
-756.0
 21
1568.481686
 31
0.0
  0
LINE
  5
1A18
  8
DIMENSION
 62
     0
 10
756.0
 20
1412.625
 30
0.0
 11
756.0
 21
1568.481686
 31
0.0
  0
LINE
  5
1A19
  8
DIMENSION
 62
     0
 10
-731.0
 20
1567.231686
 30
0.0
 11
731.0
 21
1567.231686
 31
0.0
  0
SOLID
  5
1A1A
  8
DIMENSION
 62
     0
 10
-731.0
 20
1571.398353
 30
0.0
 11
-731.0
 21
1563.06502
 31
0.0
 12
-756.0
 22
1567.231686
 32
0.0
 13
-756.0
 23
1567.231686
 33
0.0
  0
SOLID
  5
1A1B
  8
DIMENSION
 62
     0
 10
731.0
 20
1571.398353
 30
0.0
 11
731.0
 21
1563.06502
 31
0.0
 12
756.0
 22
1567.231686
 32
0.0
 13
756.0
 23
1567.231686
 33
0.0
  0
TEXT
  5
1A1C
  8
0
 62
     0
 10
-39.285714
 20
1580.231686
 30
0.0
 40
25.0
  1
1512
  0
POINT
  5
1A1D
  8
DEFPOINTS
 62
     0
 10
-756.0
 20
1412.0
 30
0.0
  0
POINT
  5
1A1E
  8
DEFPOINTS
 62
     0
 10
756.0
 20
1412.0
 30
0.0
  0
POINT
  5
1A1F
  8
DEFPOINTS
 62
     0
 10
756.0
 20
1567.231686
 30
0.0
  0
ENDBLK
  5
1069
  8
0
  0
BLOCK
  8
0
  2
*D2
 70
     1
 10
0.0
 20
0.0
 30
0.0
  3
*D2
  1

  0
LINE
  5
1859
  8
DIMENSION
 62
     0
 10
-175.0
 20
1222.625
 30
0.0
 11
-175.0
 21
1475.354907
 31
0.0
  0
LINE
  5
185A
  8
DIMENSION
 62
     0
 10
175.0
 20
1222.625
 30
0.0
 11
175.0
 21
1475.354907
 31
0.0
  0
LINE
  5
185B
  8
DIMENSION
 62
     0
 10
-150.0
 20
1474.104907
 30
0.0
 11
150.0
 21
1474.104907
 31
0.0
  0
SOLID
  5
185C
  8
DIMENSION
 62
     0
 10
-150.0
 20
1478.271574
 30
0.0
 11
-150.0
 21
1469.93824
 31
0.0
 12
-175.0
 22
1474.104907
 32
0.0
 13
-175.0
 23
1474.104907
 33
0.0
  0
SOLID
  5
185D
  8
DIMENSION
 62
     0
 10
150.0
 20
1478.271574
 30
0.0
 11
150.0
 21
1469.93824
 31
0.0
 12
175.0
 22
1474.104907
 32
0.0
 13
175.0
 23
1474.104907
 33
0.0
  0
TEXT
  5
185E
  8
0
 62
     0
 10
-32.142857
 20
1487.104907
 30
0.0
 40
25.0
  1
350
  0
POINT
  5
185F
  8
DEFPOINTS
 62
     0
 10
-175.0
 20
1222.0
 30
0.0
  0
POINT
  5
1860
  8
DEFPOINTS
 62
     0
 10
175.0
 20
1222.0
 30
0.0
  0
POINT
  5
1861
  8
DEFPOINTS
 62
     0
 10
175.0
 20
1474.104907
 30
0.0
  0
ENDBLK
  5
1081
  8
0
  0
BLOCK
  8
0
  2
*D3
 70
     1
 10
0.0
 20
0.0
 30
0.0
  3
*D3
  1

  0
LINE
  5
1A20
  8
DIMENSION
 62
     0
 10
-859.625
 20
0.0
 30
0.0
 11
-1001.831275
 21
0.0
 31
0.0
  0
LINE
  5
1A21
  8
DIMENSION
 62
     0
 10
-925.625
 20
1006.0
 30
0.0
 11
-1001.831275
 21
1006.0
 31
0.0
  0
LINE
  5
1A22
  8
DIMENSION
 62
     0
 10
-1000.581275
 20
25.0
 30
0.0
 11
-1000.581275
 21
981.0
 31
0.0
  0
SOLID
  5
1A23
  8
DIMENSION
 62
     0
 10
-1004.747942
 20
25.0
 30
0.0
 11
-996.414609
 21
25.0
 31
0.0
 12
-1000.581275
 22
0.0
 32
0.0
 13
-1000.581275
 23
0.0
 33
0.0
  0
SOLID
  5
1A24
  8
DIMENSION
 62
     0
 10
-1004.747942
 20
981.0
 30
0.0
 11
-996.414609
 21
981.0
 31
0.0
 12
-1000.581275
 22
1006.0
 32
0.0
 13
-1000.581275
 23
1006.0
 33
0.0
  0
TEXT
  5
1A25
  8
0
 62
     0
 10
-1013.581275
 20
461.928571
 30
0.0
 40
25.0
  1
1006
 50
90.0
  0
POINT
  5
1A26
  8
DEFPOINTS
 62
     0
 10
-859.0
 20
0.0
 30
0.0
  0
POINT
  5
1A27
  8
DEFPOINTS
 62
     0
 10
-925.0
 20
1006.0
 30
0.0
  0
POINT
  5
1A28
  8
DEFPOINTS
 62
     0
 10
-1000.581275
 20
1006.0
 30
0.0
  0
ENDBLK
  5
10B1
  8
0
  0
BLOCK
  8
0
  2
*D4
 70
     1
 10
0.0
 20
0.0
 30
0.0
  3
*D4
  1

  0
LINE
  5
1A03
  8
DIMENSION
 62
     0
 10
925.0
 20
1006.625
 30
0.0
 11
925.0
 21
1631.738496
 31
0.0
  0
LINE
  5
1A04
  8
DIMENSION
 62
     0
 10
861.0
 20
1136.625
 30
0.0
 11
861.0
 21
1631.738496
 31
0.0
  0
LINE
  5
1A05
  8
DIMENSION
 62
     0
 10
950.0
 20
1630.488496
 30
0.0
 11
975.0
 21
1630.488496
 31
0.0
  0
LINE
  5
1A06
  8
DIMENSION
 62
     0
 10
836.0
 20
1630.488496
 30
0.0
 11
743.333333
 21
1630.488496
 31
0.0
  0
LINE
  5
1A07
  8
DIMENSION
 62
     0
 10
925.0
 20
1630.488496
 30
0.0
 11
861.0
 21
1630.488496
 31
0.0
  0
SOLID
  5
1A08
  8
DIMENSION
 62
     0
 10
950.0
 20
1634.655162
 30
0.0
 11
950.0
 21
1626.321829
 31
0.0
 12
925.0
 22
1630.488496
 32
0.0
 13
925.0
 23
1630.488496
 33
0.0
  0
SOLID
  5
1A09
  8
DIMENSION
 62
     0
 10
836.0
 20
1634.655162
 30
0.0
 11
836.0
 21
1626.321829
 31
0.0
 12
861.0
 22
1630.488496
 32
0.0
 13
861.0
 23
1630.488496
 33
0.0
  0
TEXT
  5
1A0A
  8
0
 62
     0
 10
756.333333
 20
1643.488496
 30
0.0
 40
25.0
  1
64
  0
POINT
  5
1A0B
  8
DEFPOINTS
 62
     0
 10
925.0
 20
1006.0
 30
0.0
  0
POINT
  5
1A0C
  8
DEFPOINTS
 62
     0
 10
861.0
 20
1136.0
 30
0.0
  0
POINT
  5
1A0D
  8
DEFPOINTS
 62
     0
 10
861.0
 20
1630.488496
 30
0.0
  0
ENDBLK
  5
12B7
  8
0
  0
BLOCK
  8
0
  2
*D5
 70
     1
 10
0.0
 20
0.0
 30
0.0
  3
*D5
  1

  0
LINE
  5
1A0E
  8
DIMENSION
 62
     0
 10
-925.0
 20
139.375
 30
0.0
 11
-925.0
 21
-260.714532
 31
0.0
  0
LINE
  5
1A0F
  8
DIMENSION
 62
     0
 10
925.0
 20
139.375
 30
0.0
 11
925.0
 21
-260.714532
 31
0.0
  0
LINE
  5
1A10
  8
DIMENSION
 62
     0
 10
-900.0
 20
-259.464532
 30
0.0
 11
900.0
 21
-259.464532
 31
0.0
  0
SOLID
  5
1A11
  8
DIMENSION
 62
     0
 10
-900.0
 20
-255.297865
 30
0.0
 11
-900.0
 21
-263.631198
 31
0.0
 12
-925.0
 22
-259.464532
 32
0.0
 13
-925.0
 23
-259.464532
 33
0.0
  0
SOLID
  5
1A12
  8
DIMENSION
 62
     0
 10
900.0
 20
-255.297865
 30
0.0
 11
900.0
 21
-263.631198
 31
0.0
 12
925.0
 22
-259.464532
 32
0.0
 13
925.0
 23
-259.464532
 33
0.0
  0
TEXT
  5
1A13
  8
0
 62
     0
 10
-41.666667
 20
-246.464532
 30
0.0
 40
25.0
  1
1850
  0
POINT
  5
1A14
  8
DEFPOINTS
 62
     0
 10
-925.0
 20
140.0
 30
0.0
  0
POINT
  5
1A15
  8
DEFPOINTS
 62
     0
 10
925.0
 20
140.0
 30
0.0
  0
POINT
  5
1A16
  8
DEFPOINTS
 62
     0
 10
925.0
 20
-259.464532
 30
0.0
  0
ENDBLK
  5
1307
  8
0
  0
BLOCK
  8
0
  2
*D6
 70
     1
 10
0.0
 20
0.0
 30
0.0
  3
*D6
  1

  0
LINE
  5
1A32
  8
DIMENSION
 62
     0
 10
-257.737819
 20
-130.0
 30
0.0
 11
-1001.831275
 21
-130.0
 31
0.0
  0
LINE
  5
1A33
  8
DIMENSION
 62
     0
 10
-859.625
 20
0.0
 30
0.0
 11
-1001.831275
 21
0.0
 31
0.0
  0
LINE
  5
1A34
  8
DIMENSION
 62
     0
 10
-1000.581275
 20
-105.0
 30
0.0
 11
-1000.581275
 21
-25.0
 31
0.0
  0
SOLID
  5
1A35
  8
DIMENSION
 62
     0
 10
-1004.747942
 20
-105.0
 30
0.0
 11
-996.414609
 21
-105.0
 31
0.0
 12
-1000.581275
 22
-130.0
 32
0.0
 13
-1000.581275
 23
-130.0
 33
0.0
  0
SOLID
  5
1A36
  8
DIMENSION
 62
     0
 10
-1004.747942
 20
-25.0
 30
0.0
 11
-996.414609
 21
-25.0
 31
0.0
 12
-1000.581275
 22
0.0
 32
0.0
 13
-1000.581275
 23
0.0
 33
0.0
  0
TEXT
  5
1A37
  8
0
 62
     0
 10
-1013.581275
 20
-94.761905
 30
0.0
 40
25.0
  1
130
 50
90.0
  0
POINT
  5
1A38
  8
DEFPOINTS
 62
     0
 10
-257.112819
 20
-130.0
 30
0.0
  0
POINT
  5
1A39
  8
DEFPOINTS
 62
     0
 10
-859.0
 20
0.0
 30
0.0
  0
POINT
  5
1A3A
  8
DEFPOINTS
 62
     0
 10
-1000.581275
 20
0.0
 30
0.0
  0
ENDBLK
  5
1342
  8
0
  0
BLOCK
  8
0
  2
*D7
 70
     1
 10
0.0
 20
0.0
 30
0.0
  3
*D7
  1

  0
LINE
  5
1A3B
  8
DIMENSION
 62
     0
 10
-175.625
 20
1222.0
 30
0.0
 11
-997.022424
 21
1222.0
 31
0.0
  0
LINE
  5
1A3C
  8
DIMENSION
 62
     0
 10
-756.625
 20
1412.0
 30
0.0
 11
-997.022424
 21
1412.0
 31
0.0
  0
LINE
  5
1A3D
  8
DIMENSION
 62
     0
 10
-995.772424
 20
1247.0
 30
0.0
 11
-995.772424
 21
1387.0
 31
0.0
  0
SOLID
  5
1A3E
  8
DIMENSION
 62
     0
 10
-999.939091
 20
1247.0
 30
0.0
 11
-991.605758
 21
1247.0
 31
0.0
 12
-995.772424
 22
1222.0
 32
0.0
 13
-995.772424
 23
1222.0
 33
0.0
  0
SOLID
  5
1A3F
  8
DIMENSION
 62
     0
 10
-999.939091
 20
1387.0
 30
0.0
 11
-991.605758
 21
1387.0
 31
0.0
 12
-995.772424
 22
1412.0
 32
0.0
 13
-995.772424
 23
1412.0
 33
0.0
  0
TEXT
  5
1A40
  8
0
 62
     0
 10
-1008.772424
 20
1287.238095
 30
0.0
 40
25.0
  1
190
 50
90.0
  0
POINT
  5
1A41
  8
DEFPOINTS
 62
     0
 10
-175.0
 20
1222.0
 30
0.0
  0
POINT
  5
1A42
  8
DEFPOINTS
 62
     0
 10
-756.0
 20
1412.0
 30
0.0
  0
POINT
  5
1A43
  8
DEFPOINTS
 62
     0
 10
-995.772424
 20
1412.0
 30
0.0
  0
ENDBLK
  5
1844
  8
0
  0
ENDSEC
  0
SECTION
  2
ENTITIES
  0
ATTDEF
  5
2F
  8
STELATT
 10
-93.333333
 20
-831.325354
 30
0.0
 40
40.0
  1
ES340H
 72
     4
 11
0.0
 21
-811.325354
 31
0.0
  3

  2
MODEL
 70
     2
  0
ATTDEF
  5
33
  8
STELATT
 10
-233.333333
 20
-701.325354
 30
0.0
 40
40.0
  1
IDEAL
 72
     4
 11
0.0
 21
-681.325354
 31
0.0
  3

  2
MANUFACTURER
 70
     2
  0
LINE
  5
49
  8
PLANNING
 10
1325.0
 20
1912.0
 30
0.0
 11
-1125.0
 21
1912.0
 31
0.0
  0
LINE
  5
5D
  8
PLANNING
 10
-1125.0
 20
-1000.0
 30
0.0
 11
1325.0
 21
-1000.0
 31
0.0
  0
LINE
  5
62
  8
PLANNING
 10
-1125.0
 20
1912.0
 30
0.0
 11
-1125.0
 21
-1000.0
 31
0.0
  0
ATTDEF
  5
6A
  8
STELATT
 10
-68.571429
 20
-766.325354
 30
0.0
 40
40.0
  1
CONCORD ES
 72
     4
 11
0.0
 21
-746.325354
 31
0.0
  3

  2
TYPE
 70
     2
  0
POLYLINE
  5
6F
  8
ORIGIN
 66
     1
 10
0.0
 20
0.0
 30
0.0
 70
     1
  0
VERTEX
  5
1C6C
  8
ORIGIN
 10
37.5
 20
-37.5
 30
0.0
  0
VERTEX
  5
1C6D
  8
ORIGIN
 10
-37.5
 20
37.5
 30
0.0
  0
VERTEX
  5
1C6E
  8
ORIGIN
 10
-37.5
 20
-37.5
 30
0.0
  0
VERTEX
  5
1C6F
  8
ORIGIN
 10
37.5
 20
37.5
 30
0.0
  0
SEQEND
  5
1C70
  8
ORIGIN
  0
LINE
  5
92
  8
PLANNING
 10
1325.0
 20
1912.0
 30
0.0
 11
1325.0
 21
-1000.0
 31
0.0
  0
TEXT
  5
4A5
  8
STELTXT
 10
1027.97017
 20
1208.496632
 30
0.0
 40
25.0
  1
HEATING FLOW
  0
TEXT
  5
4A6
  8
STELTXT
 10
1027.97017
 20
1248.496632
 30
0.0
 40
25.0
  1
%%C2" THREADED
  0
TEXT
  5
4C0
  8
STELTXT
 10
6450.954798
 20
2826.230363
 30
0.0
 40
25.0
  1
 
  0
TEXT
  5
4C1
  8
STELTXT
 10
6459.385829
 20
1987.812349
 30
0.0
 40
25.0
  1
 
  0
POLYLINE
  8
STELTXT
  5
1CBA
  66
     1
 10
0.000000
 20
0.000000
 30
0.000000
  70
     8
  0
VERTEX
  8
STELTXT
  5
1CBB
 10
884.579
 20
1122.75
 30
0.000000
  70
    32
  0
VERTEX
  8
STELTXT
  5
1CBC
 10
986.566
 20
1262.87
 30
0.000000
  70
    32
  0
VERTEX
  8
STELTXT
  5
1CBD
 10
1015.86
 20
1262.87
 30
0.000000
  70
    32
  0
SEQEND
  8
STELTXT
  5
1CBE
  0
LINE
  5
DE4
  8
CENTER
  6
CENTER
 10
861.0
 20
1006.0
 30
0.0
 11
861.0
 21
1136.0
 31
0.0
  0
POLYLINE
  8
STELTXT
  5
1CBF
  66
     1
 10
0.000000
 20
0.000000
 30
0.000000
  70
     8
  0
VERTEX
  8
STELTXT
  5
1CC0
 10
884.579
 20
1113.22
 30
0.000000
  70
    32
  0
VERTEX
  8
STELTXT
  5
1CC1
 10
986.566
 20
1161.35
 30
0.000000
  70
    32
  0
VERTEX
  8
STELTXT
  5
1CC2
 10
1015.86
 20
1161.35
 30
0.000000
  70
    32
  0
SEQEND
  8
STELTXT
  5
1CC3
  0
TEXT
  5
F54
  8
STELTXT
 10
1027.97017
 20
1106.970681
 30
0.0
 40
25.0
  1
HEATING RETURN
  0
TEXT
  5
F55
  8
STELTXT
 10
1027.97017
 20
1146.970681
 30
0.0
 40
25.0
  1
%%C2" THREADED
  0
LINE
  5
FA7
  8
DETAIL
 10
-925.0
 20
140.0
 30
0.0
 11
-925.0
 21
1006.0
 31
0.0
  0
LINE
  5
FA8
  8
DETAIL
 10
45.0
 20
-142.7
 30
0.0
 11
45.0
 21
-117.3
 31
0.0
  0
LINE
  5
FE5
  8
DETAIL
 10
-859.0
 20
0.0
 30
0.0
 11
859.0
 21
0.0
 31
0.0
  0
LINE
  5
FE6
  8
DETAIL
 10
-925.0
 20
1006.0
 30
0.0
 11
925.0
 21
1006.0
 31
0.0
  0
LINE
  5
FE7
  8
DETAIL
 10
-756.0
 20
1412.0
 30
0.0
 11
756.0
 21
1412.0
 31
0.0
  0
LINE
  5
FE8
  8
DETAIL
 10
-756.0
 20
1412.0
 30
0.0
 11
-756.0
 21
1006.0
 31
0.0
  0
LINE
  5
FE9
  8
DETAIL
 10
756.0
 20
1412.0
 30
0.0
 11
756.0
 21
1006.0
 31
0.0
  0
CIRCLE
  5
FEC
  8
DETAIL
 10
0.0
 20
1222.0
 30
0.0
 40
175.0
  0
DIMENSION
  5
FEE
  8
DIMENSION
  2
*D0
 10
-1060.460687
 20
1412.0
 30
0.0
 11
-1085.960687
 21
706.0
 31
0.0
 70
     0
 13
-859.0
 23
0.0
 33
0.0
 14
-756.0
 24
1412.0
 34
0.0
 50
90.0
  0
DIMENSION
  5
105D
  8
DIMENSION
  2
*D1
 10
756.0
 20
1567.231686
 30
0.0
 11
0.0
 21
1592.731686
 31
0.0
 70
     0
 13
-756.0
 23
1412.0
 33
0.0
 14
756.0
 24
1412.0
 34
0.0
  0
DIMENSION
  5
1075
  8
DIMENSION
  2
*D2
 10
175.0
 20
1474.104907
 30
0.0
 11
0.0
 21
1499.604907
 31
0.0
 70
     0
 13
-175.0
 23
1222.0
 33
0.0
 14
175.0
 24
1222.0
 34
0.0
  0
DIMENSION
  5
10A5
  8
DIMENSION
  2
*D3
 10
-1000.581275
 20
1006.0
 30
0.0
 11
-1026.081275
 21
503.0
 31
0.0
 70
     0
 13
-859.0
 23
0.0
 33
0.0
 14
-925.0
 24
1006.0
 34
0.0
 50
90.0
  0
LINE
  5
10C7
  8
DETAIL
 10
835.6
 20
1136.0
 30
0.0
 11
886.4
 21
1136.0
 31
0.0
  0
LINE
  5
10D1
  8
DETAIL
 10
835.6
 20
1006.0
 30
0.0
 11
835.6
 21
1136.0
 31
0.0
  0
LINE
  5
10D2
  8
DETAIL
 10
886.4
 20
1006.0
 30
0.0
 11
886.4
 21
1136.0
 31
0.0
  0
LINE
  5
10D3
  8
CENTER
  6
CENTER
 10
-175.0
 20
1222.0
 30
0.0
 11
175.0
 21
1222.0
 31
0.0
  0
LINE
  5
10D4
  8
CENTER
  6
CENTER
 10
0.0
 20
1047.0
 30
0.0
 11
0.0
 21
1397.0
 31
0.0
  0
CIRCLE
  5
11E1
  8
DETAIL
 10
121.769116
 20
84.889384
 30
0.0
 40
15.0
  0
POLYLINE
  5
11E2
  8
DETAIL
 66
     1
 10
0.0
 20
0.0
 30
0.0
 70
     1
  0
VERTEX
  5
1C71
  8
DETAIL
 10
148.974457
 20
75.699075
 30
0.0
  0
VERTEX
  5
1C72
  8
DETAIL
 10
148.974457
 20
94.079693
 30
0.0
  0
VERTEX
  5
1C73
  8
DETAIL
 10
167.43298
 20
94.079693
 30
0.0
  0
VERTEX
  5
1C74
  8
DETAIL
 10
167.43298
 20
75.699075
 30
0.0
  0
SEQEND
  5
1C75
  8
DETAIL
  0
TEXT
  5
11E3
  8
STELTXT
 10
3723.089799
 20
3203.510594
 30
0.0
 40
25.0
  1
 
  0
TEXT
  5
11E4
  8
STELTXT
 10
3731.52083
 20
2365.09258
 30
0.0
 40
25.0
  1
 
  0
POLYLINE
  5
11E9
  8
DETAIL
 66
     1
 10
0.0
 20
0.0
 30
0.0
 70
     1
  0
VERTEX
  5
1C76
  8
DETAIL
 10
72.222902
 20
75.699075
 30
0.0
  0
VERTEX
  5
1C77
  8
DETAIL
 10
72.222902
 20
94.079693
 30
0.0
  0
VERTEX
  5
1C78
  8
DETAIL
 10
93.681425
 20
94.079693
 30
0.0
  0
VERTEX
  5
1C79
  8
DETAIL
 10
93.681425
 20
75.699075
 30
0.0
  0
SEQEND
  5
1C7A
  8
DETAIL
  0
POLYLINE
  5
11EA
  8
DETAIL
 66
     1
 10
0.0
 20
0.0
 30
0.0
 70
     1
  0
VERTEX
  5
1C7B
  8
DETAIL
 10
34.111792
 20
75.699075
 30
0.0
  0
VERTEX
  5
1C7C
  8
DETAIL
 10
34.111792
 20
94.079693
 30
0.0
  0
VERTEX
  5
1C7D
  8
DETAIL
 10
55.570314
 20
94.079693
 30
0.0
  0
VERTEX
  5
1C7E
  8
DETAIL
 10
55.570314
 20
75.699075
 30
0.0
  0
SEQEND
  5
1C7F
  8
DETAIL
  0
POLYLINE
  5
11EB
  8
DETAIL
 66
     1
 10
0.0
 20
0.0
 30
0.0
 70
     1
  0
VERTEX
  5
1C80
  8
DETAIL
 10
-3.999319
 20
75.380406
 30
0.0
  0
VERTEX
  5
1C81
  8
DETAIL
 10
-3.999319
 20
93.761023
 30
0.0
  0
VERTEX
  5
1C82
  8
DETAIL
 10
17.459203
 20
93.761023
 30
0.0
  0
VERTEX
  5
1C83
  8
DETAIL
 10
17.459203
 20
75.380406
 30
0.0
  0
SEQEND
  5
1C84
  8
DETAIL
  0
POLYLINE
  5
11EC
  8
DETAIL
 66
     1
 10
0.0
 20
0.0
 30
0.0
 70
     1
  0
VERTEX
  5
1C85
  8
DETAIL
 10
-345.637323
 20
55.380406
 30
0.0
  0
VERTEX
  5
1C86
  8
DETAIL
 10
-345.637323
 20
123.761023
 30
0.0
  0
VERTEX
  5
1C87
  8
DETAIL
 10
-174.1788
 20
123.761023
 30
0.0
  0
VERTEX
  5
1C88
  8
DETAIL
 10
-174.1788
 20
55.380406
 30
0.0
  0
SEQEND
  5
1C89
  8
DETAIL
  0
LINE
  5
11F4
  8
DETAIL
 10
299.0
 20
140.0
 30
0.0
 11
299.0
 21
0.0
 31
0.0
  0
CIRCLE
  5
11F8
  8
DETAIL
 10
203.604068
 20
84.889384
 30
0.0
 40
8.5
  0
POLYLINE
  5
11F9
  8
DETAIL
 66
     1
 10
0.0
 20
0.0
 30
0.0
 70
     1
  0
VERTEX
  5
1C8A
  8
DETAIL
 10
-80.221541
 20
75.380406
 30
0.0
  0
VERTEX
  5
1C8B
  8
DETAIL
 10
-80.221541
 20
93.761023
 30
0.0
  0
VERTEX
  5
1C8C
  8
DETAIL
 10
-58.763018
 20
93.761023
 30
0.0
  0
VERTEX
  5
1C8D
  8
DETAIL
 10
-58.763018
 20
75.380406
 30
0.0
  0
SEQEND
  5
1C8E
  8
DETAIL
  0
POLYLINE
  5
11FA
  8
DETAIL
 66
     1
 10
0.0
 20
0.0
 30
0.0
 70
     1
  0
VERTEX
  5
1C8F
  8
DETAIL
 10
-42.11043
 20
75.699075
 30
0.0
  0
VERTEX
  5
1C90
  8
DETAIL
 10
-42.11043
 20
94.079693
 30
0.0
  0
VERTEX
  5
1C91
  8
DETAIL
 10
-20.651907
 20
94.079693
 30
0.0
  0
VERTEX
  5
1C92
  8
DETAIL
 10
-20.651907
 20
75.699075
 30
0.0
  0
SEQEND
  5
1C93
  8
DETAIL
  0
POLYLINE
  5
11FB
  8
DETAIL
 66
     1
 10
0.0
 20
0.0
 30
0.0
 70
     1
  0
VERTEX
  5
1C94
  8
DETAIL
 10
-139.791174
 20
75.380406
 30
0.0
  0
VERTEX
  5
1C95
  8
DETAIL
 10
-139.791174
 20
103.761023
 30
0.0
  0
VERTEX
  5
1C96
  8
DETAIL
 10
-96.874129
 20
103.761023
 30
0.0
  0
VERTEX
  5
1C97
  8
DETAIL
 10
-96.874129
 20
75.380406
 30
0.0
  0
SEQEND
  5
1C98
  8
DETAIL
  0
LINE
  5
1207
  8
DETAIL
 10
-137.5
 20
-160.44405
 30
0.0
 11
62.5
 21
-160.44405
 31
0.0
  0
LINE
  5
1208
  8
DETAIL
 10
62.5
 20
-160.44405
 30
0.0
 11
62.5
 21
-99.55595
 31
0.0
  0
LINE
  5
120B
  8
DETAIL
 10
62.5
 20
-99.55595
 30
0.0
 11
-137.5
 21
-99.55595
 31
0.0
  0
LINE
  5
120C
  8
DETAIL
 10
-137.5
 20
-99.55595
 30
0.0
 11
-137.5
 21
-160.44405
 31
0.0
  0
POLYLINE
  5
120D
  8
DETAIL
 66
     1
 10
0.0
 20
0.0
 30
0.0
  0
VERTEX
  5
1C99
  8
DETAIL
 10
-137.5
 20
-107.380236
 30
0.0
  0
VERTEX
  5
1C9A
  8
DETAIL
 10
-137.5
 20
-152.619764
 30
0.0
  0
SEQEND
  5
1C9B
  8
DETAIL
  0
POLYLINE
  5
120E
  8
DETAIL
 66
     1
 10
0.0
 20
0.0
 30
0.0
 70
     1
  0
VERTEX
  5
1C9C
  8
DETAIL
 10
-137.5
 20
-99.55595
 30
0.0
  0
VERTEX
  5
1C9D
  8
DETAIL
 10
-169.511569
 20
-99.55595
 30
0.0
  0
VERTEX
  5
1C9E
  8
DETAIL
 10
-169.511569
 20
-160.44405
 30
0.0
  0
VERTEX
  5
1C9F
  8
DETAIL
 10
-137.5
 20
-160.44405
 30
0.0
  0
SEQEND
  5
1CA0
  8
DETAIL
  0
POLYLINE
  5
120F
  8
DETAIL
 66
     1
 10
0.0
 20
0.0
 30
0.0
 70
     1
  0
VERTEX
  5
1CA1
  8
DETAIL
 10
-122.65881
 20
-146.254366
 30
0.0
  0
VERTEX
  5
1CA2
  8
DETAIL
 10
-85.176607
 20
-146.254366
 30
0.0
  0
VERTEX
  5
1CA3
  8
DETAIL
 10
-85.176607
 20
-111.04082
 30
0.0
  0
VERTEX
  5
1CA4
  8
DETAIL
 10
-122.65881
 20
-111.04082
 30
0.0
  0
SEQEND
  5
1CA5
  8
DETAIL
  0
POLYLINE
  5
1210
  8
DETAIL
 66
     1
 10
0.0
 20
0.0
 30
0.0
 70
     1
  0
VERTEX
  5
1CA6
  8
DETAIL
 10
-216.724161
 20
-114.214417
 30
0.0
  0
VERTEX
  5
1CA7
  8
DETAIL
 10
-231.303561
 20
-114.214417
 30
0.0
  0
VERTEX
  5
1CA8
  8
DETAIL
 10
-231.303561
 20
-145.785583
 30
0.0
  0
VERTEX
  5
1CA9
  8
DETAIL
 10
-216.724161
 20
-145.785583
 30
0.0
  0
SEQEND
  5
1CAA
  8
DETAIL
  0
POLYLINE
  5
1211
  8
DETAIL
 66
     1
 10
0.0
 20
0.0
 30
0.0
 70
     1
  0
VERTEX
  5
1CAB
  8
DETAIL
 10
-257.112819
 20
-136.669963
 30
0.0
  0
VERTEX
  5
1CAC
  8
DETAIL
 10
-231.303561
 20
-136.669963
 30
0.0
  0
VERTEX
  5
1CAD
  8
DETAIL
 10
-231.303561
 20
-123.330037
 30
0.0
  0
VERTEX
  5
1CAE
  8
DETAIL
 10
-257.112819
 20
-123.330037
 30
0.0
  0
SEQEND
  5
1CAF
  8
DETAIL
  0
LINE
  5
1292
  8
DETAIL
 10
859.0
 20
1006.0
 30
0.0
 11
859.0
 21
0.0
 31
0.0
  0
LINE
  5
1293
  8
DETAIL
 10
-859.0
 20
1006.0
 30
0.0
 11
-859.0
 21
0.0
 31
0.0
  0
LINE
  5
1294
  8
DETAIL
 10
-925.0
 20
140.0
 30
0.0
 11
925.0
 21
140.0
 31
0.0
  0
LINE
  5
1295
  8
DETAIL
 10
-925.0
 20
140.0
 30
0.0
 11
-859.0
 21
0.0
 31
0.0
  0
LINE
  5
1296
  8
DETAIL
 10
859.0
 20
0.0
 30
0.0
 11
925.0
 21
140.0
 31
0.0
  0
DIMENSION
  5
12A9
  8
DIMENSION
  2
*D4
 10
861.0
 20
1630.488496
 30
0.0
 11
777.166667
 21
1655.988496
 31
0.0
 70
     0
 13
925.0
 23
1006.0
 33
0.0
 14
861.0
 24
1136.0
 34
0.0
  0
DIMENSION
  5
12FB
  8
DIMENSION
  2
*D5
 10
925.0
 20
-259.464532
 30
0.0
 11
0.0
 21
-233.964532
 31
0.0
 70
     0
 13
-925.0
 23
140.0
 33
0.0
 14
925.0
 24
140.0
 34
0.0
  0
POLYLINE
  5
132E
  8
DETAIL
 66
     1
 10
0.0
 20
0.0
 30
0.0
  0
VERTEX
  5
1CB0
  8
DETAIL
 10
-169.511569
 20
-152.619764
 30
0.0
  0
VERTEX
  5
1CB1
  8
DETAIL
 10
-216.724161
 20
-152.619764
 30
0.0
  0
VERTEX
  5
1CB2
  8
DETAIL
 10
-216.724161
 20
-107.380236
 30
0.0
  0
VERTEX
  5
1CB3
  8
DETAIL
 10
-169.511569
 20
-107.380236
 30
0.0
  0
SEQEND
  5
1CB4
  8
DETAIL
  0
ARC
  5
1331
  8
DETAIL
 10
0.0
 20
-130.0
 30
0.0
 40
27.33434
 50
27.68544
 51
332.31456
  0
ARC
  5
1332
  8
DETAIL
 10
0.0
 20
-130.0
 30
0.0
 40
19.791114
 50
39.918861
 51
320.081139
  0
ARC
  5
1334
  8
DETAIL
 10
0.0
 20
-130.0
 30
0.0
 40
12.7
 50
90.0
 51
270.0
  0
DIMENSION
  5
1336
  8
DIMENSION
  2
*D6
 10
-1000.581275
 20
0.0
 30
0.0
 11
-1026.081275
 21
-65.0
 31
0.0
 70
     0
 13
-257.112819
 23
-130.0
 33
0.0
 14
-859.0
 24
0.0
 34
0.0
 50
90.0
  0
POLYLINE
  5
134E
  8
DETAIL
 66
     1
 10
0.0
 20
0.0
 30
0.0
 70
     1
  0
VERTEX
  5
1CB5
  8
DETAIL
 10
49.379099
 20
-99.55595
 30
0.0
  0
VERTEX
  5
1CB6
  8
DETAIL
 10
-63.113597
 20
-99.55595
 30
0.0
  0
VERTEX
  5
1CB7
  8
DETAIL
 10
-63.113597
 20
-54.533335
 30
0.0
  0
VERTEX
  5
1CB8
  8
DETAIL
 10
49.379099
 20
-54.533335
 30
0.0
  0
SEQEND
  5
1CB9
  8
DETAIL
  0
LINE
  5
134F
  8
DETAIL
 10
-12.7
 20
-54.533335
 30
0.0
 11
-12.7
 21
0.0
 31
0.0
  0
LINE
  5
1350
  8
DETAIL
 10
12.7
 20
-54.533335
 30
0.0
 11
12.7
 21
0.0
 31
0.0
  0
LINE
  5
1351
  8
DETAIL
 10
0.0
 20
-117.3
 30
0.0
 11
45.0
 21
-117.3
 31
0.0
  0
LINE
  5
1352
  8
DETAIL
 10
0.0
 20
-142.7
 30
0.0
 11
45.0
 21
-142.7
 31
0.0
  0
LINE
  5
1353
  8
DETAIL
 10
925.0
 20
1006.0
 30
0.0
 11
925.0
 21
139.375
 31
0.0
  0
DIMENSION
  5
1838
  8
DIMENSION
  2
*D7
 10
-995.772424
 20
1412.0
 30
0.0
 11
-1021.272424
 21
1317.0
 31
0.0
 70
     0
 13
-175.0
 23
1222.0
 33
0.0
 14
-756.0
 24
1412.0
 34
0.0
 50
90.0
  0
ENDSEC
  0
EOF
