  0
SECTION
  2
HEADER
  9
$ACADVER
  1
AC1009
  9
$INSBASE
 10
0.0
 20
0.0
 30
0.0
  9
$EXTMIN
 10
-785.071733
 20
-401.084618
 30
0.0
  9
$EXTMAX
 10
795.879081
 20
1014.847892
 30
0.0
  9
$LIMMIN
 10
0.0
 20
0.0
  9
$LIMMAX
 10
420.0
 20
297.0
  9
$ORTHOMODE
 70
     1
  9
$REGENMODE
 70
     1
  9
$FILLMODE
 70
     1
  9
$QTEXTMODE
 70
     0
  9
$MIRRTEXT
 70
     1
  9
$DRAGMODE
 70
     2
  9
$LTSCALE
 40
1.0
  9
$OSMODE
 70
     0
  9
$ATTMODE
 70
     2
  9
$TEXTSIZE
 40
25.0
  9
$TRACEWID
 40
1.0
  9
$TEXTSTYLE
  7
STANDARD
  9
$CLAYER
  8
0
  9
$CELTYPE
  6
BYLAYER
  9
$CECOLOR
 62
   256
  9
$DIMSCALE
 40
1.0
  9
$DIMASZ
 40
25.0
  9
$DIMEXO
 40
0.625
  9
$DIMDLI
 40
3.75
  9
$DIMRND
 40
0.0
  9
$DIMDLE
 40
0.0
  9
$DIMEXE
 40
1.25
  9
$DIMTP
 40
0.0
  9
$DIMTM
 40
0.0
  9
$DIMTXT
 40
25.0
  9
$DIMCEN
 40
2.5
  9
$DIMTSZ
 40
0.0
  9
$DIMTOL
 70
     0
  9
$DIMLIM
 70
     0
  9
$DIMTIH
 70
     0
  9
$DIMTOH
 70
     0
  9
$DIMSE1
 70
     0
  9
$DIMSE2
 70
     0
  9
$DIMTAD
 70
     1
  9
$DIMZIN
 70
     8
  9
$DIMBLK
  1

  9
$DIMASO
 70
     1
  9
$DIMSHO
 70
     1
  9
$DIMPOST
  1

  9
$DIMAPOST
  1

  9
$DIMALT
 70
     0
  9
$DIMALTD
 70
     3
  9
$DIMALTF
 40
0.03937
  9
$DIMLFAC
 40
1.0
  9
$DIMTOFL
 70
     1
  9
$DIMTVP
 40
0.0
  9
$DIMTIX
 70
     0
  9
$DIMSOXD
 70
     0
  9
$DIMSAH
 70
     0
  9
$DIMBLK1
  1

  9
$DIMBLK2
  1

  9
$DIMSTYLE
  2
ISO-25
  9
$DIMCLRD
 70
     0
  9
$DIMCLRE
 70
     0
  9
$DIMCLRT
 70
     0
  9
$DIMTFAC
 40
1.0
  9
$DIMGAP
 40
13.0
  9
$LUNITS
 70
     2
  9
$LUPREC
 70
     4
  9
$SKETCHINC
 40
1.0
  9
$FILLETRAD
 40
10.0
  9
$AUNITS
 70
     0
  9
$AUPREC
 70
     0
  9
$MENU
  1
.
  9
$ELEVATION
 40
0.0
  9
$PELEVATION
 40
0.0
  9
$THICKNESS
 40
0.0
  9
$LIMCHECK
 70
     0
  9
$BLIPMODE
 70
     0
  9
$CHAMFERA
 40
10.0
  9
$CHAMFERB
 40
10.0
  9
$SKPOLY
 70
     0
  9
$TDCREATE
 40
2452706.626866
  9
$TDUPDATE
 40
2453073.532676
  9
$TDINDWG
 40
0.255421
  9
$TDUSRTIMER
 40
0.255421
  9
$USRTIMER
 70
     1
  9
$ANGBASE
 50
0.0
  9
$ANGDIR
 70
     0
  9
$PDMODE
 70
     0
  9
$PDSIZE
 40
0.0
  9
$PLINEWID
 40
0.0
  9
$COORDS
 70
     1
  9
$SPLFRAME
 70
     0
  9
$SPLINETYPE
 70
     6
  9
$SPLINESEGS
 70
     8
  9
$ATTDIA
 70
     0
  9
$ATTREQ
 70
     1
  9
$HANDLING
 70
 22529
  9
$HANDSEED
  5
E2D
  9
$SURFTAB1
 70
     6
  9
$SURFTAB2
 70
     6
  9
$SURFTYPE
 70
     6
  9
$SURFU
 70
     6
  9
$SURFV
 70
     6
  9
$UCSNAME
  2

  9
$UCSORG
 10
0.0
 20
0.0
 30
0.0
  9
$UCSXDIR
 10
1.0
 20
0.0
 30
0.0
  9
$UCSYDIR
 10
0.0
 20
1.0
 30
0.0
  9
$PUCSNAME
  2

  9
$PUCSORG
 10
0.0
 20
0.0
 30
0.0
  9
$PUCSXDIR
 10
1.0
 20
0.0
 30
0.0
  9
$PUCSYDIR
 10
0.0
 20
1.0
 30
0.0
  9
$USERI1
 70
     0
  9
$USERI2
 70
     0
  9
$USERI3
 70
     0
  9
$USERI4
 70
     0
  9
$USERI5
 70
     0
  9
$USERR1
 40
0.0
  9
$USERR2
 40
0.0
  9
$USERR3
 40
0.0
  9
$USERR4
 40
0.0
  9
$USERR5
 40
0.0
  9
$WORLDVIEW
 70
     1
  9
$SHADEDGE
 70
     3
  9
$SHADEDIF
 70
    70
  9
$TILEMODE
 70
     1
  9
$MAXACTVP
 70
    48
  9
$PLIMCHECK
 70
     0
  9
$PEXTMIN
 10
1.000000E+020
 20
1.000000E+020
 30
1.000000E+020
  9
$PEXTMAX
 10
-1.000000E+020
 20
-1.000000E+020
 30
-1.000000E+020
  9
$PLIMMIN
 10
0.0
 20
0.0
  9
$PLIMMAX
 10
420.0
 20
297.0
  9
$UNITMODE
 70
     0
  9
$VISRETAIN
 70
     1
  9
$PLINEGEN
 70
     0
  9
$PSLTSCALE
 70
     1
  0
ENDSEC
  0
SECTION
  2
TABLES
  0
TABLE
  2
VPORT
 70
     2
  0
VPORT
  2
*ACTIVE
 70
     0
 10
0.0
 20
0.0
 11
1.0
 21
1.0
 12
5.403674
 22
306.881637
 13
0.0
 23
0.0
 14
10.0
 24
10.0
 15
10.0
 25
10.0
 16
0.0
 26
0.0
 36
1.0
 17
0.0
 27
0.0
 37
0.0
 40
1432.238835
 41
1.825
 42
50.0
 43
0.0
 44
0.0
 50
0.0
 51
0.0
 71
     0
 72
   100
 73
     1
 74
     3
 75
     0
 76
     0
 77
     0
 78
     0
  0
ENDTAB
  0
TABLE
  2
LTYPE
 70
     3
  0
LTYPE
  2
CONTINUOUS
 70
     0
  3
Solid line
 72
    65
 73
     0
 40
0.0
  0
LTYPE
  2
CENTER
 70
     0
  3
____ _ ____ _ ____ _ ____ _ ____ _ ____ _ ____
 72
    65
 73
     4
 40
2.0
 49
1.25
 49
-0.25
 49
0.25
 49
-0.25
  0
LTYPE
  2
DASHED
 70
     0
  3
__ __ __ __ __ __ __ __ __ __ __ __ __ __ __
 72
    65
 73
     2
 40
0.75
 49
0.5
 49
-0.25
  0
ENDTAB
  0
TABLE
  2
LAYER
 70
     9
  0
LAYER
  2
0
 70
     0
 62
     7
  6
CONTINUOUS
  0
LAYER
  2
ORIGIN
 70
     0
 62
     6
  6
CONTINUOUS
  0
LAYER
  2
DETAIL
 70
     0
 62
     2
  6
CONTINUOUS
  0
LAYER
  2
DIMENSION
 70
     0
 62
     7
  6
CONTINUOUS
  0
LAYER
  2
PLANNING
 70
     0
 62
     1
  6
DASHED
  0
LAYER
  2
STELTXT
 70
     0
 62
     4
  6
CONTINUOUS
  0
LAYER
  2
STELATT
 70
     0
 62
     7
  6
CONTINUOUS
  0
LAYER
  2
CENTER
 70
     0
 62
     4
  6
CENTER
  0
LAYER
  2
DEFPOINTS
 70
     0
 62
     7
  6
CONTINUOUS
  0
ENDTAB
  0
TABLE
  2
STYLE
 70
     1
  0
STYLE
  2
STANDARD
 70
     0
 40
0.0
 41
1.0
 50
0.0
 71
     0
 42
25.0
  3
simplex.shx
  4

  0
ENDTAB
  0
TABLE
  2
VIEW
 70
     0
  0
ENDTAB
  0
TABLE
  2
UCS
 70
     0
  0
ENDTAB
  0
TABLE
  2
APPID
 70
     1
  0
APPID
  2
ACAD
 70
     0
  0
ENDTAB
  0
TABLE
  2
DIMSTYLE
 70
     2
  0
DIMSTYLE
  2
ISO-25
 70
     0
  3

  4

  5

  6

  7

 40
1.0
 41
25.0
 42
0.625
 43
3.75
 44
1.25
 45
0.0
 46
0.0
 47
0.0
 48
0.0
140
25.0
141
2.5
142
0.0
143
0.03937
144
1.0
145
0.0
146
1.0
147
13.0
 71
     0
 72
     0
 73
     0
 74
     0
 75
     0
 76
     0
 77
     1
 78
     8
170
     0
171
     3
172
     1
173
     0
174
     0
175
     0
176
     0
177
     0
178
     0
  0
DIMSTYLE
  2
STANDARD
 70
     0
  3

  4

  5

  6

  7

 40
1.0
 41
0.18
 42
0.0625
 43
0.38
 44
0.18
 45
0.0
 46
0.0
 47
0.0
 48
0.0
140
0.18
141
0.09
142
0.0
143
25.4
144
1.0
145
0.0
146
1.0
147
0.09
 71
     0
 72
     0
 73
     1
 74
     1
 75
     0
 76
     0
 77
     0
 78
     0
170
     0
171
     2
172
     0
173
     0
174
     0
175
     0
176
     0
177
     0
178
     0
  0
ENDTAB
  0
ENDSEC
  0
SECTION
  2
BLOCKS
  0
BLOCK
  8
0
  2
$MODEL_SPACE
 70
     2
 10
0.0
 20
0.0
 30
0.0
  3
$MODEL_SPACE
  1

  0
ENDBLK
  5
A
  8
0
  0
BLOCK
 67
     1
  8
0
  2
$PAPER_SPACE
 70
     0
 10
0.0
 20
0.0
 30
0.0
  3
$PAPER_SPACE
  1

  0
ENDBLK
  5
10
 67
     1
  8
0
  0
BLOCK
  8
0
  2
*D0
 70
     1
 10
0.0
 20
0.0
 30
0.0
  3
*D0
  1

  0
LINE
  5
BB0
  8
DIMENSION
 62
     0
 10
-163.125
 20
0.0
 30
0.0
 11
-618.392411
 21
0.0
 31
0.0
  0
LINE
  5
BB1
  8
DIMENSION
 62
     0
 10
-0.625
 20
835.0
 30
0.0
 11
-618.392411
 21
835.0
 31
0.0
  0
LINE
  5
BB2
  8
DIMENSION
 62
     0
 10
-617.142411
 20
25.0
 30
0.0
 11
-617.142411
 21
810.0
 31
0.0
  0
SOLID
  5
BB3
  8
DIMENSION
 62
     0
 10
-621.309077
 20
25.0
 30
0.0
 11
-612.975744
 21
25.0
 31
0.0
 12
-617.142411
 22
0.0
 32
0.0
 13
-617.142411
 23
0.0
 33
0.0
  0
SOLID
  5
BB4
  8
DIMENSION
 62
     0
 10
-621.309077
 20
810.0
 30
0.0
 11
-612.975744
 21
810.0
 31
0.0
 12
-617.142411
 22
835.0
 32
0.0
 13
-617.142411
 23
835.0
 33
0.0
  0
TEXT
  5
BB5
  8
0
 62
     0
 10
-630.142411
 20
385.357143
 30
0.0
 40
25.0
  1
835
 50
90.0
  0
POINT
  5
BB6
  8
DEFPOINTS
 62
     0
 10
-162.5
 20
0.0
 30
0.0
  0
POINT
  5
BB7
  8
DEFPOINTS
 62
     0
 10
0.0
 20
835.0
 30
0.0
  0
POINT
  5
BB8
  8
DEFPOINTS
 62
     0
 10
-617.142411
 20
835.0
 30
0.0
  0
ENDBLK
  5
5B2
  8
0
  0
BLOCK
  8
0
  2
*D1
 70
     1
 10
0.0
 20
0.0
 30
0.0
  3
*D1
  1

  0
LINE
  5
BB9
  8
DIMENSION
 62
     0
 10
-127.125
 20
0.0
 30
0.0
 11
-458.253334
 21
0.0
 31
0.0
  0
LINE
  5
BBA
  8
DIMENSION
 62
     0
 10
-75.5918
 20
300.0
 30
0.0
 11
-458.253334
 21
300.0
 31
0.0
  0
LINE
  5
BBB
  8
DIMENSION
 62
     0
 10
-457.003334
 20
25.0
 30
0.0
 11
-457.003334
 21
275.0
 31
0.0
  0
SOLID
  5
BBC
  8
DIMENSION
 62
     0
 10
-461.17
 20
25.0
 30
0.0
 11
-452.836667
 21
25.0
 31
0.0
 12
-457.003334
 22
0.0
 32
0.0
 13
-457.003334
 23
0.0
 33
0.0
  0
SOLID
  5
BBD
  8
DIMENSION
 62
     0
 10
-461.17
 20
275.0
 30
0.0
 11
-452.836667
 21
275.0
 31
0.0
 12
-457.003334
 22
300.0
 32
0.0
 13
-457.003334
 23
300.0
 33
0.0
  0
TEXT
  5
BBE
  8
0
 62
     0
 10
-470.003334
 20
117.857143
 30
0.0
 40
25.0
  1
300
 50
90.0
  0
POINT
  5
BBF
  8
DEFPOINTS
 62
     0
 10
-126.5
 20
0.0
 30
0.0
  0
POINT
  5
BC0
  8
DEFPOINTS
 62
     0
 10
-74.9668
 20
300.0
 30
0.0
  0
POINT
  5
BC1
  8
DEFPOINTS
 62
     0
 10
-457.003334
 20
300.0
 30
0.0
  0
ENDBLK
  5
686
  8
0
  0
BLOCK
  8
0
  2
*D2
 70
     1
 10
0.0
 20
0.0
 30
0.0
  3
*D2
  1

  0
LINE
  5
BA7
  8
DIMENSION
 62
     0
 10
-164.375
 20
0.0
 30
0.0
 11
-564.530631
 21
0.0
 31
0.0
  0
LINE
  5
BA8
  8
DIMENSION
 62
     0
 10
-100.796812
 20
562.000126
 30
0.0
 11
-564.530631
 21
562.000126
 31
0.0
  0
LINE
  5
BA9
  8
DIMENSION
 62
     0
 10
-563.280631
 20
25.0
 30
0.0
 11
-563.280631
 21
537.000126
 31
0.0
  0
SOLID
  5
BAA
  8
DIMENSION
 62
     0
 10
-567.447298
 20
25.0
 30
0.0
 11
-559.113964
 21
25.0
 31
0.0
 12
-563.280631
 22
0.0
 32
0.0
 13
-563.280631
 23
0.0
 33
0.0
  0
SOLID
  5
BAB
  8
DIMENSION
 62
     0
 10
-567.447298
 20
537.000126
 30
0.0
 11
-559.113964
 21
537.000126
 31
0.0
 12
-563.280631
 22
562.000126
 32
0.0
 13
-563.280631
 23
562.000126
 33
0.0
  0
TEXT
  5
BAC
  8
0
 62
     0
 10
-576.280631
 20
248.857206
 30
0.0
 40
25.0
  1
562
 50
90.0
  0
POINT
  5
BAD
  8
DEFPOINTS
 62
     0
 10
-163.75
 20
0.0
 30
0.0
  0
POINT
  5
BAE
  8
DEFPOINTS
 62
     0
 10
-100.171812
 20
562.000126
 30
0.0
  0
POINT
  5
BAF
  8
DEFPOINTS
 62
     0
 10
-563.280631
 20
562.000126
 30
0.0
  0
ENDBLK
  5
876
  8
0
  0
BLOCK
  8
0
  2
*D3
 70
     1
 10
0.0
 20
0.0
 30
0.0
  3
*D3
  1

  0
LINE
  5
B9E
  8
DIMENSION
 62
     0
 10
-163.125
 20
0.0
 30
0.0
 11
-512.913093
 21
0.0
 31
0.0
  0
LINE
  5
B9F
  8
DIMENSION
 62
     0
 10
-88.005691
 20
392.0
 30
0.0
 11
-512.913093
 21
392.0
 31
0.0
  0
LINE
  5
BA0
  8
DIMENSION
 62
     0
 10
-511.663093
 20
25.0
 30
0.0
 11
-511.663093
 21
367.0
 31
0.0
  0
SOLID
  5
BA1
  8
DIMENSION
 62
     0
 10
-515.82976
 20
25.0
 30
0.0
 11
-507.496426
 21
25.0
 31
0.0
 12
-511.663093
 22
0.0
 32
0.0
 13
-511.663093
 23
0.0
 33
0.0
  0
SOLID
  5
BA2
  8
DIMENSION
 62
     0
 10
-515.82976
 20
367.0
 30
0.0
 11
-507.496426
 21
367.0
 31
0.0
 12
-511.663093
 22
392.0
 32
0.0
 13
-511.663093
 23
392.0
 33
0.0
  0
TEXT
  5
BA3
  8
0
 62
     0
 10
-524.663093
 20
163.857143
 30
0.0
 40
25.0
  1
392
 50
90.0
  0
POINT
  5
BA4
  8
DEFPOINTS
 62
     0
 10
-162.5
 20
0.0
 30
0.0
  0
POINT
  5
BA5
  8
DEFPOINTS
 62
     0
 10
-87.380691
 20
392.0
 30
0.0
  0
POINT
  5
BA6
  8
DEFPOINTS
 62
     0
 10
-511.663093
 20
392.0
 30
0.0
  0
ENDBLK
  5
88E
  8
0
  0
BLOCK
  8
0
  2
*D4
 70
     1
 10
0.0
 20
0.0
 30
0.0
  3
*D4
  1

  0
LINE
  5
B95
  8
DIMENSION
 62
     0
 10
-165.0
 20
0.0
 30
0.0
 11
-400.9369
 21
0.0
 31
0.0
  0
LINE
  5
B96
  8
DIMENSION
 62
     0
 10
96.203188
 20
137.000126
 30
0.0
 11
-400.9369
 21
137.000126
 31
0.0
  0
LINE
  5
B97
  8
DIMENSION
 62
     0
 10
-399.6869
 20
25.0
 30
0.0
 11
-399.6869
 21
112.000126
 31
0.0
  0
SOLID
  5
B98
  8
DIMENSION
 62
     0
 10
-403.853567
 20
25.0
 30
0.0
 11
-395.520233
 21
25.0
 31
0.0
 12
-399.6869
 22
0.0
 32
0.0
 13
-399.6869
 23
0.0
 33
0.0
  0
SOLID
  5
B99
  8
DIMENSION
 62
     0
 10
-403.853567
 20
112.000126
 30
0.0
 11
-395.520233
 21
112.000126
 31
0.0
 12
-399.6869
 22
137.000126
 32
0.0
 13
-399.6869
 23
137.000126
 33
0.0
  0
TEXT
  5
B9A
  8
0
 62
     0
 10
-412.6869
 20
38.738158
 30
0.0
 40
25.0
  1
137
 50
90.0
  0
POINT
  5
B9B
  8
DEFPOINTS
 62
     0
 10
-164.375
 20
0.0
 30
0.0
  0
POINT
  5
B9C
  8
DEFPOINTS
 62
     0
 10
96.828188
 20
137.000126
 30
0.0
  0
POINT
  5
B9D
  8
DEFPOINTS
 62
     0
 10
-399.6869
 20
137.000126
 30
0.0
  0
ENDBLK
  5
908
  8
0
  0
BLOCK
  8
0
  2
*D5
 70
     1
 10
0.0
 20
0.0
 30
0.0
  3
*D5
  1

  0
LINE
  5
B8C
  8
DIMENSION
 62
     0
 10
-165.0
 20
0.0
 30
0.0
 11
-342.297626
 21
0.0
 31
0.0
  0
LINE
  5
B8D
  8
DIMENSION
 62
     0
 10
-30.796812
 20
120.000126
 30
0.0
 11
-342.297626
 21
120.000126
 31
0.0
  0
LINE
  5
B8E
  8
DIMENSION
 62
     0
 10
-341.047626
 20
25.0
 30
0.0
 11
-341.047626
 21
95.000126
 31
0.0
  0
SOLID
  5
B8F
  8
DIMENSION
 62
     0
 10
-345.214292
 20
25.0
 30
0.0
 11
-336.880959
 21
25.0
 31
0.0
 12
-341.047626
 22
0.0
 32
0.0
 13
-341.047626
 23
0.0
 33
0.0
  0
SOLID
  5
B90
  8
DIMENSION
 62
     0
 10
-345.214292
 20
95.000126
 30
0.0
 11
-336.880959
 21
95.000126
 31
0.0
 12
-341.047626
 22
120.000126
 32
0.0
 13
-341.047626
 23
120.000126
 33
0.0
  0
TEXT
  5
B91
  8
0
 62
     0
 10
-354.047626
 20
30.238158
 30
0.0
 40
25.0
  1
120
 50
90.0
  0
POINT
  5
B92
  8
DEFPOINTS
 62
     0
 10
-164.375
 20
0.0
 30
0.0
  0
POINT
  5
B93
  8
DEFPOINTS
 62
     0
 10
-30.171812
 20
120.000126
 30
0.0
  0
POINT
  5
B94
  8
DEFPOINTS
 62
     0
 10
-341.047626
 20
120.000126
 30
0.0
  0
ENDBLK
  5
920
  8
0
  0
BLOCK
  8
0
  2
*D6
 70
     1
 10
0.0
 20
0.0
 30
0.0
  3
*D6
  1

  0
LINE
  5
BCB
  8
DIMENSION
 62
     0
 10
163.125
 20
0.0
 30
0.0
 11
356.768974
 21
0.0
 31
0.0
  0
LINE
  5
BCC
  8
DIMENSION
 62
     0
 10
163.125
 20
35.0
 30
0.0
 11
356.768974
 21
35.0
 31
0.0
  0
LINE
  5
BCD
  8
DIMENSION
 62
     0
 10
355.518974
 20
-25.0
 30
0.0
 11
355.518974
 21
-50.0
 31
0.0
  0
LINE
  5
BCE
  8
DIMENSION
 62
     0
 10
355.518974
 20
60.0
 30
0.0
 11
355.518974
 21
151.47619
 31
0.0
  0
LINE
  5
BCF
  8
DIMENSION
 62
     0
 10
355.518974
 20
0.0
 30
0.0
 11
355.518974
 21
35.0
 31
0.0
  0
SOLID
  5
BD0
  8
DIMENSION
 62
     0
 10
351.352308
 20
-25.0
 30
0.0
 11
359.685641
 21
-25.0
 31
0.0
 12
355.518974
 22
0.0
 32
0.0
 13
355.518974
 23
0.0
 33
0.0
  0
SOLID
  5
BD1
  8
DIMENSION
 62
     0
 10
351.352308
 20
60.0
 30
0.0
 11
359.685641
 21
60.0
 31
0.0
 12
355.518974
 22
35.0
 32
0.0
 13
355.518974
 23
35.0
 33
0.0
  0
TEXT
  5
BD2
  8
0
 62
     0
 10
342.518974
 20
98.0
 30
0.0
 40
25.0
  1
35
 50
90.0
  0
POINT
  5
BD3
  8
DEFPOINTS
 62
     0
 10
162.5
 20
0.0
 30
0.0
  0
POINT
  5
BD4
  8
DEFPOINTS
 62
     0
 10
162.5
 20
35.0
 30
0.0
  0
POINT
  5
BD5
  8
DEFPOINTS
 62
     0
 10
355.518974
 20
35.0
 30
0.0
  0
ENDBLK
  5
93A
  8
0
  0
BLOCK
  8
0
  2
*D7
 70
     1
 10
0.0
 20
0.0
 30
0.0
  3
*D7
  1

  0
LINE
  5
BFA
  8
DIMENSION
 62
     0
 10
-285.0
 20
693.625
 30
0.0
 11
-285.0
 21
978.050618
 31
0.0
  0
LINE
  5
BFB
  8
DIMENSION
 62
     0
 10
285.0
 20
693.625
 30
0.0
 11
285.0
 21
978.050618
 31
0.0
  0
LINE
  5
BFC
  8
DIMENSION
 62
     0
 10
-260.0
 20
976.800618
 30
0.0
 11
260.0
 21
976.800618
 31
0.0
  0
SOLID
  5
BFD
  8
DIMENSION
 62
     0
 10
-260.0
 20
980.967285
 30
0.0
 11
-260.0
 21
972.633951
 31
0.0
 12
-285.0
 22
976.800618
 32
0.0
 13
-285.0
 23
976.800618
 33
0.0
  0
SOLID
  5
BFE
  8
DIMENSION
 62
     0
 10
260.0
 20
980.967285
 30
0.0
 11
260.0
 21
972.633951
 31
0.0
 12
285.0
 22
976.800618
 32
0.0
 13
285.0
 23
976.800618
 33
0.0
  0
TEXT
  5
BFF
  8
0
 62
     0
 10
-32.142857
 20
989.800618
 30
0.0
 40
25.0
  1
570
  0
POINT
  5
C00
  8
DEFPOINTS
 62
     0
 10
-285.0
 20
693.0
 30
0.0
  0
POINT
  5
C01
  8
DEFPOINTS
 62
     0
 10
285.0
 20
693.0
 30
0.0
  0
POINT
  5
C02
  8
DEFPOINTS
 62
     0
 10
285.0
 20
976.800618
 30
0.0
  0
ENDBLK
  5
954
  8
0
  0
BLOCK
  8
0
  2
*D8
 70
     1
 10
0.0
 20
0.0
 30
0.0
  3
*D8
  1

  0
LINE
  5
BDF
  8
DIMENSION
 62
     0
 10
-144.5
 20
-0.625
 30
0.0
 11
-144.5
 21
-166.360226
 31
0.0
  0
LINE
  5
BE0
  8
DIMENSION
 62
     0
 10
144.5
 20
-0.625
 30
0.0
 11
144.5
 21
-166.360226
 31
0.0
  0
LINE
  5
BE1
  8
DIMENSION
 62
     0
 10
-119.5
 20
-165.110226
 30
0.0
 11
119.5
 21
-165.110226
 31
0.0
  0
SOLID
  5
BE2
  8
DIMENSION
 62
     0
 10
-119.5
 20
-160.94356
 30
0.0
 11
-119.5
 21
-169.276893
 31
0.0
 12
-144.5
 22
-165.110226
 32
0.0
 13
-144.5
 23
-165.110226
 33
0.0
  0
SOLID
  5
BE3
  8
DIMENSION
 62
     0
 10
119.5
 20
-160.94356
 30
0.0
 11
119.5
 21
-169.276893
 31
0.0
 12
144.5
 22
-165.110226
 32
0.0
 13
144.5
 23
-165.110226
 33
0.0
  0
TEXT
  5
BE4
  8
0
 62
     0
 10
-31.547619
 20
-152.110226
 30
0.0
 40
25.0
  1
289
  0
POINT
  5
BE5
  8
DEFPOINTS
 62
     0
 10
-144.5
 20
0.0
 30
0.0
  0
POINT
  5
BE6
  8
DEFPOINTS
 62
     0
 10
144.5
 20
0.0
 30
0.0
  0
POINT
  5
BE7
  8
DEFPOINTS
 62
     0
 10
144.5
 20
-165.110226
 30
0.0
  0
ENDBLK
  5
96C
  8
0
  0
BLOCK
  8
0
  2
*D9
 70
     1
 10
0.0
 20
0.0
 30
0.0
  3
*D9
  1

  0
LINE
  5
BE8
  8
DIMENSION
 62
     0
 10
-70.0
 20
592.796938
 30
0.0
 11
-70.0
 21
919.947093
 31
0.0
  0
LINE
  5
BE9
  8
DIMENSION
 62
     0
 10
285.0
 20
694.25
 30
0.0
 11
285.0
 21
919.947093
 31
0.0
  0
LINE
  5
BEA
  8
DIMENSION
 62
     0
 10
-45.0
 20
918.697093
 30
0.0
 11
260.0
 21
918.697093
 31
0.0
  0
SOLID
  5
BEB
  8
DIMENSION
 62
     0
 10
-45.0
 20
922.86376
 30
0.0
 11
-45.0
 21
914.530426
 31
0.0
 12
-70.0
 22
918.697093
 32
0.0
 13
-70.0
 23
918.697093
 33
0.0
  0
SOLID
  5
BEC
  8
DIMENSION
 62
     0
 10
260.0
 20
922.86376
 30
0.0
 11
260.0
 21
914.530426
 31
0.0
 12
285.0
 22
918.697093
 32
0.0
 13
285.0
 23
918.697093
 33
0.0
  0
TEXT
  5
BED
  8
0
 62
     0
 10
75.357143
 20
931.697093
 30
0.0
 40
25.0
  1
355
  0
POINT
  5
BEE
  8
DEFPOINTS
 62
     0
 10
-70.0
 20
592.171938
 30
0.0
  0
POINT
  5
BEF
  8
DEFPOINTS
 62
     0
 10
285.0
 20
693.625
 30
0.0
  0
POINT
  5
BF0
  8
DEFPOINTS
 62
     0
 10
285.0
 20
918.697093
 30
0.0
  0
ENDBLK
  5
99C
  8
0
  0
BLOCK
  8
0
  2
*D10
 70
     1
 10
0.0
 20
0.0
 30
0.0
  3
*D10
  1

  0
LINE
  5
BC2
  8
DIMENSION
 62
     0
 10
285.0
 20
166.375
 30
0.0
 11
285.0
 21
-63.71192
 31
0.0
  0
LINE
  5
BC3
  8
DIMENSION
 62
     0
 10
127.0
 20
106.203314
 30
0.0
 11
127.0
 21
-63.71192
 31
0.0
  0
LINE
  5
BC4
  8
DIMENSION
 62
     0
 10
260.0
 20
-62.46192
 30
0.0
 11
152.0
 21
-62.46192
 31
0.0
  0
SOLID
  5
BC5
  8
DIMENSION
 62
     0
 10
260.0
 20
-58.295253
 30
0.0
 11
260.0
 21
-66.628587
 31
0.0
 12
285.0
 22
-62.46192
 32
0.0
 13
285.0
 23
-62.46192
 33
0.0
  0
SOLID
  5
BC6
  8
DIMENSION
 62
     0
 10
152.0
 20
-58.295253
 30
0.0
 11
152.0
 21
-66.628587
 31
0.0
 12
127.0
 22
-62.46192
 32
0.0
 13
127.0
 23
-62.46192
 33
0.0
  0
TEXT
  5
BC7
  8
0
 62
     0
 10
176.238095
 20
-49.46192
 30
0.0
 40
25.0
  1
158
  0
POINT
  5
BC8
  8
DEFPOINTS
 62
     0
 10
285.0
 20
167.0
 30
0.0
  0
POINT
  5
BC9
  8
DEFPOINTS
 62
     0
 10
127.0
 20
106.828314
 30
0.0
  0
POINT
  5
BCA
  8
DEFPOINTS
 62
     0
 10
127.0
 20
-62.46192
 30
0.0
  0
ENDBLK
  5
9B4
  8
0
  0
BLOCK
  8
0
  2
*D11
 70
     1
 10
0.0
 20
0.0
 30
0.0
  3
*D11
  1

  0
LINE
  5
BD6
  8
DIMENSION
 62
     0
 10
285.0
 20
166.375
 30
0.0
 11
285.0
 21
-114.179002
 31
0.0
  0
LINE
  5
BD7
  8
DIMENSION
 62
     0
 10
0.0
 20
89.203314
 30
0.0
 11
0.0
 21
-114.179002
 31
0.0
  0
LINE
  5
BD8
  8
DIMENSION
 62
     0
 10
260.0
 20
-112.929002
 30
0.0
 11
25.0
 21
-112.929002
 31
0.0
  0
SOLID
  5
BD9
  8
DIMENSION
 62
     0
 10
260.0
 20
-108.762335
 30
0.0
 11
260.0
 21
-117.095669
 31
0.0
 12
285.0
 22
-112.929002
 32
0.0
 13
285.0
 23
-112.929002
 33
0.0
  0
SOLID
  5
BDA
  8
DIMENSION
 62
     0
 10
25.0
 20
-108.762335
 30
0.0
 11
25.0
 21
-117.095669
 31
0.0
 12
0.0
 22
-112.929002
 32
0.0
 13
0.0
 23
-112.929002
 33
0.0
  0
TEXT
  5
BDB
  8
0
 62
     0
 10
172.830154
 20
-99.929002
 30
0.0
 40
25.0
  1
285
  0
POINT
  5
BDC
  8
DEFPOINTS
 62
     0
 10
285.0
 20
167.0
 30
0.0
  0
POINT
  5
BDD
  8
DEFPOINTS
 62
     0
 10
0.0
 20
89.828314
 30
0.0
  0
POINT
  5
BDE
  8
DEFPOINTS
 62
     0
 10
0.0
 20
-112.929002
 30
0.0
  0
ENDBLK
  5
9CC
  8
0
  0
ENDSEC
  0
SECTION
  2
ENTITIES
  0
ATTDEF
  5
2F
  8
STELATT
 10
-93.333333
 20
-400.986484
 30
0.0
 40
40.0
  1
GT4
 72
     4
 11
0.0
 21
-380.986484
 31
0.0
  3

  2
MODEL
 70
     2
  0
ATTDEF
  5
33
  8
STELATT
 10
-233.333333
 20
-270.986484
 30
0.0
 40
40.0
  1
IDEAL
 72
     4
 11
0.0
 21
-250.986484
 31
0.0
  3

  2
MANUFACTURER
 70
     2
  0
LINE
  5
49
  8
PLANNING
 10
785.0
 20
835.0
 30
0.0
 11
-785.0
 21
835.0
 31
0.0
  0
LINE
  5
5D
  8
PLANNING
 10
-785.0
 20
0.0
 30
0.0
 11
785.0
 21
0.0
 31
0.0
  0
LINE
  5
62
  8
PLANNING
 10
-785.0
 20
835.0
 30
0.0
 11
-785.0
 21
0.0
 31
0.0
  0
ATTDEF
  5
6A
  8
STELATT
 10
-68.571429
 20
-335.986484
 30
0.0
 40
40.0
  1
BUCCANEER
 72
     4
 11
0.0
 21
-315.986484
 31
0.0
  3

  2
TYPE
 70
     2
  0
POLYLINE
  5
6F
  8
ORIGIN
 66
     1
 10
0.0
 20
0.0
 30
0.0
 70
     1
  0
VERTEX
  5
DF6
  8
ORIGIN
 10
37.5
 20
-37.5
 30
0.0
  0
VERTEX
  5
DF7
  8
ORIGIN
 10
-37.5
 20
37.5
 30
0.0
  0
VERTEX
  5
DF8
  8
ORIGIN
 10
-37.5
 20
-37.5
 30
0.0
  0
VERTEX
  5
DF9
  8
ORIGIN
 10
37.5
 20
37.5
 30
0.0
  0
SEQEND
  5
DFA
  8
ORIGIN
  0
LINE
  5
92
  8
PLANNING
 10
785.0
 20
835.0
 30
0.0
 11
785.0
 21
0.0
 31
0.0
  0
CIRCLE
  5
46F
  8
ORIGIN
 10
0.0
 20
300.0
 30
0.0
 40
50.0
  0
LINE
  5
472
  8
DETAIL
 10
-57.5
 20
188.0
 30
0.0
 11
57.5
 21
188.0
 31
0.0
  0
CIRCLE
  5
473
  8
DETAIL
 10
15.614909
 20
412.661425
 30
0.0
 40
8.0
  0
CIRCLE
  5
474
  8
DETAIL
  6
DASHED
 10
0.0
 20
300.0
 30
0.0
 40
65.0
  0
LINE
  5
477
  8
CENTER
  6
CENTER
 10
74.9668
 20
300.0
 30
0.0
 11
-74.9668
 21
300.0
 31
0.0
  0
LINE
  5
478
  8
DETAIL
 10
-165.0
 20
433.0
 30
0.0
 11
165.0
 21
433.0
 31
0.0
  0
LINE
  5
47C
  8
DETAIL
 10
207.0
 20
35.0
 30
0.0
 11
-207.0
 21
35.0
 31
0.0
  0
CIRCLE
  5
47F
  8
DETAIL
  6
DASHED
 10
0.0
 20
392.0
 30
0.0
 40
62.5
  0
LINE
  5
481
  8
DETAIL
 10
-207.0
 20
45.0
 30
0.0
 11
-207.0
 21
35.0
 31
0.0
  0
LINE
  5
482
  8
DETAIL
 10
-219.0
 20
815.0
 30
0.0
 11
-219.0
 21
45.0
 31
0.0
  0
LINE
  5
483
  8
DETAIL
 10
-285.0
 20
157.0
 30
0.0
 11
-285.0
 21
693.0
 31
0.0
  0
LINE
  5
486
  8
DETAIL
 10
-105.0
 20
431.0
 30
0.0
 11
-105.0
 21
235.5
 31
0.0
  0
LINE
  5
487
  8
CENTER
  6
CENTER
 10
0.0
 20
89.203314
 30
0.0
 11
0.0
 21
479.380691
 31
0.0
  0
LINE
  5
488
  8
DETAIL
 10
-165.0
 20
433.0
 30
0.0
 11
-165.0
 21
45.0
 31
0.0
  0
LINE
  5
489
  8
DETAIL
 10
-162.5
 20
0.0
 30
0.0
 11
-126.5
 21
0.0
 31
0.0
  0
LINE
  5
48A
  8
DETAIL
 10
-162.5
 20
35.0
 30
0.0
 11
-162.5
 21
0.0
 31
0.0
  0
LINE
  5
48B
  8
DETAIL
 10
-126.5
 20
0.0
 30
0.0
 11
-126.5
 21
35.0
 31
0.0
  0
LINE
  5
48C
  8
DETAIL
 10
-105.0
 20
235.5
 30
0.0
 11
-57.5
 21
188.0
 31
0.0
  0
LINE
  5
48E
  8
DETAIL
 10
-105.0
 20
431.0
 30
0.0
 11
-50.0
 21
431.0
 31
0.0
  0
CIRCLE
  5
492
  8
DETAIL
 10
-15.614909
 20
412.661425
 30
0.0
 40
8.0
  0
TEXT
  5
494
  8
STELTXT
 10
-756.351012
 20
947.059603
 30
0.0
 40
25.0
  1
%%C1 " THREADED
  0
TEXT
  5
495
  8
STELTXT
 10
-756.351012
 20
907.059603
 30
0.0
 40
25.0
  1
HEATING FLOW
  0
TEXT
  5
496
  8
STELTXT
 10
-719.02937
 20
955.99848
 30
0.0
 40
15.0
  1
1
  0
TEXT
  5
497
  8
STELTXT
 10
-713.942762
 20
951.59065
 30
0.0
 40
15.0
  1
/
  0
TEXT
  5
498
  8
STELTXT
 10
-702.755972
 20
947.18433
 30
0.0
 40
15.0
  1
4
  0
LINE
  5
499
  8
STELTXT
 10
-88.442668
 20
673.16823
 30
0.0
 11
-398.867898
 21
958.806336
 31
0.0
  0
LINE
  5
49B
  8
CENTER
  6
CENTER
 10
-87.380691
 20
392.0
 30
0.0
 11
87.380691
 21
392.0
 31
0.0
  0
LINE
  5
49C
  8
CENTER
  6
CENTER
 10
-100.171812
 20
562.000126
 30
0.0
 11
-39.828188
 21
562.000126
 31
0.0
  0
LINE
  5
49D
  8
CENTER
  6
CENTER
 10
-70.0
 20
531.828314
 30
0.0
 11
-70.0
 21
592.171938
 31
0.0
  0
SOLID
  5
49E
  8
STELTXT
 10
-85.520975
 20
676.138889
 30
0.0
 11
-91.364362
 21
670.19757
 31
0.0
 12
-70.618712
 22
655.638068
 32
0.0
 13
-70.618712
 23
655.638068
 33
0.0
  0
TEXT
  5
49F
  8
STELTXT
 10
368.579343
 20
487.025178
 30
0.0
 40
25.0
  1
BURNER PLATE
  0
LINE
  5
4A3
  8
DETAIL
 10
285.0
 20
693.0
 30
0.0
 11
285.0
 21
157.0
 31
0.0
  0
TEXT
  5
4A4
  8
STELTXT
 10
369.272059
 20
344.373534
 30
0.0
 40
25.0
  1
14mm DRAIN COCK
  0
TEXT
  5
4A5
  8
STELTXT
 10
366.775537
 20
203.984636
 30
0.0
 40
25.0
  1
HEATING RETURN
  0
TEXT
  5
4A6
  8
STELTXT
 10
366.775537
 20
243.984636
 30
0.0
 40
25.0
  1
%%C1 " THREADED
  0
LINE
  5
4A8
  8
DETAIL
 10
105.0
 20
431.0
 30
0.0
 11
105.0
 21
234.0
 31
0.0
  0
LINE
  5
4A9
  8
DETAIL
 10
165.0
 20
433.0
 30
0.0
 11
165.0
 21
45.0
 31
0.0
  0
LINE
  5
4AA
  8
CENTER
  6
CENTER
 10
96.828188
 20
137.000126
 30
0.0
 11
157.171812
 21
137.000126
 31
0.0
  0
LINE
  5
4AB
  8
DETAIL
 10
162.5
 20
0.0
 30
0.0
 11
126.5
 21
0.0
 31
0.0
  0
LINE
  5
4AC
  8
DETAIL
 10
126.5
 20
0.0
 30
0.0
 11
126.5
 21
35.0
 31
0.0
  0
LINE
  5
4AD
  8
DETAIL
 10
105.0
 20
235.5
 30
0.0
 11
57.5
 21
188.0
 31
0.0
  0
LINE
  5
4AE
  8
CENTER
  6
CENTER
 10
127.0
 20
106.828314
 30
0.0
 11
127.0
 21
167.171938
 31
0.0
  0
LINE
  5
4AF
  8
DETAIL
 10
162.5
 20
35.0
 30
0.0
 11
162.5
 21
0.0
 31
0.0
  0
LINE
  5
4B0
  8
DETAIL
 10
50.0
 20
431.0
 30
0.0
 11
105.0
 21
431.0
 31
0.0
  0
CIRCLE
  5
4B1
  8
DETAIL
 10
53.033009
 20
353.033009
 30
0.0
 40
4.0
  0
TEXT
  5
4B7
  8
STELTXT
 10
408.564106
 20
248.546635
 30
0.0
 40
15.0
  1
/
  0
TEXT
  5
4B8
  8
STELTXT
 10
403.477498
 20
252.954464
 30
0.0
 40
15.0
  1
1
  0
TEXT
  5
4B9
  8
STELTXT
 10
419.750896
 20
244.140314
 30
0.0
 40
15.0
  1
4
  0
TEXT
  5
4BA
  8
STELTXT
 10
370.83354
 20
621.694764
 30
0.0
 40
25.0
  1
FLUE OUTLET %%C125mm
  0
CIRCLE
  5
4BC
  8
DETAIL
 10
121.769116
 20
759.889384
 30
0.0
 40
8.5
  0
CIRCLE
  5
4BD
  8
DETAIL
 10
63.159346
 20
721.511827
 30
0.0
 40
15.0
  0
POLYLINE
  5
4BF
  8
DETAIL
 66
     1
 10
0.0
 20
0.0
 30
0.0
 70
     1
  0
VERTEX
  5
DFB
  8
DETAIL
 10
148.974457
 20
750.699075
 30
0.0
  0
VERTEX
  5
DFC
  8
DETAIL
 10
148.974457
 20
769.079693
 30
0.0
  0
VERTEX
  5
DFD
  8
DETAIL
 10
170.43298
 20
769.079693
 30
0.0
  0
VERTEX
  5
DFE
  8
DETAIL
 10
170.43298
 20
750.699075
 30
0.0
  0
SEQEND
  5
DFF
  8
DETAIL
  0
TEXT
  5
4C0
  8
STELTXT
 10
6450.954798
 20
2831.230363
 30
0.0
 40
25.0
  1
 
  0
TEXT
  5
4C1
  8
STELTXT
 10
6459.385829
 20
1992.812349
 30
0.0
 40
25.0
  1
 
  0
POLYLINE
  5
4C3
  8
DETAIL
 66
     1
 10
0.0
 20
0.0
 30
0.0
 70
     1
  0
VERTEX
  5
E00
  8
DETAIL
 10
-10.729261
 20
712.321519
 30
0.0
  0
VERTEX
  5
E01
  8
DETAIL
 10
-10.729261
 20
730.702136
 30
0.0
  0
VERTEX
  5
E02
  8
DETAIL
 10
10.729261
 20
730.702136
 30
0.0
  0
VERTEX
  5
E03
  8
DETAIL
 10
10.729261
 20
712.321519
 30
0.0
  0
SEQEND
  5
E04
  8
DETAIL
  0
LINE
  5
4C5
  8
DETAIL
 10
64.356848
 20
736.463951
 30
0.0
 11
58.112086
 21
707.38649
 31
0.0
  0
LINE
  5
4C6
  8
DETAIL
 10
68.206607
 20
735.637165
 30
0.0
 11
61.961845
 21
706.559704
 31
0.0
  0
LINE
  5
4CA
  8
STELTXT
 10
-398.867898
 20
958.806336
 30
0.0
 11
-447.891901
 21
958.806336
 31
0.0
  0
POLYLINE
  8
STELTXT
  5
E19
  66
     1
 10
0.000000
 20
0.000000
 30
0.000000
  70
     8
  0
VERTEX
  8
STELTXT
  5
E1A
 10
33.6447
 20
454.021
 30
0.000000
  70
    32
  0
VERTEX
  8
STELTXT
  5
E1B
 10
325.371
 20
634.641
 30
0.000000
  70
    32
  0
VERTEX
  8
STELTXT
  5
E1C
 10
354.661
 20
634.641
 30
0.000000
  70
    32
  0
SEQEND
  8
STELTXT
  5
E1D
  0
POLYLINE
  8
STELTXT
  5
E1E
  66
     1
 10
0.000000
 20
0.000000
 30
0.000000
  70
     8
  0
VERTEX
  8
STELTXT
  5
E1F
 10
61.7208
 20
330.279
 30
0.000000
  70
    32
  0
VERTEX
  8
STELTXT
  5
E20
 10
325.371
 20
500.273
 30
0.000000
  70
    32
  0
VERTEX
  8
STELTXT
  5
E21
 10
354.661
 20
500.273
 30
0.000000
  70
    32
  0
SEQEND
  8
STELTXT
  5
E22
  0
POLYLINE
  8
STELTXT
  5
E23
  66
     1
 10
0.000000
 20
0.000000
 30
0.000000
  70
     8
  0
VERTEX
  8
STELTXT
  5
E24
 10
5.87393
 20
125.175
 30
0.000000
  70
    32
  0
VERTEX
  8
STELTXT
  5
E25
 10
322.429
 20
352.927
 30
0.000000
  70
    32
  0
VERTEX
  8
STELTXT
  5
E26
 10
354.661
 20
352.927
 30
0.000000
  70
    32
  0
SEQEND
  8
STELTXT
  5
E27
  0
LINE
  5
4CF
  8
DETAIL
 10
219.0
 20
815.0
 30
0.0
 11
219.0
 21
45.0
 31
0.0
  0
LINE
  5
4D0
  8
DETAIL
 10
207.0
 20
45.0
 30
0.0
 11
207.0
 21
35.0
 31
0.0
  0
POLYLINE
  8
STELTXT
  5
E28
  66
     1
 10
0.000000
 20
0.000000
 30
0.000000
  70
     8
  0
VERTEX
  8
STELTXT
  5
E29
 10
132.983
 20
141.927
 30
0.000000
  70
    32
  0
VERTEX
  8
STELTXT
  5
E2A
 10
325.371
 20
258.360
 30
0.000000
  70
    32
  0
VERTEX
  8
STELTXT
  5
E2B
 10
354.661
 20
258.360
 30
0.000000
  70
    32
  0
SEQEND
  8
STELTXT
  5
E2C
  0
DIMENSION
  5
5A6
  8
DIMENSION
  2
*D0
 10
-617.142411
 20
835.0
 30
0.0
 11
-642.642411
 21
417.5
 31
0.0
 70
     0
 13
-162.5
 23
0.0
 33
0.0
 14
0.0
 24
835.0
 34
0.0
 50
90.0
  0
LINE
  5
66C
  8
DETAIL
 10
219.0
 20
45.0
 30
0.0
 11
-219.0
 21
45.0
 31
0.0
  0
ARC
  5
678
  8
DETAIL
 10
-136.870317
 20
168.283271
 30
0.0
 40
148.135242
 50
180.49635
 51
236.328973
  0
ARC
  5
679
  8
DETAIL
 10
136.870317
 20
168.283271
 30
0.0
 40
148.135242
 50
303.671027
 51
359.50365
  0
DIMENSION
  5
67A
  8
DIMENSION
  2
*D1
 10
-457.003334
 20
300.0
 30
0.0
 11
-482.503334
 21
150.0
 31
0.0
 70
     0
 13
-126.5
 23
0.0
 33
0.0
 14
-74.9668
 24
300.0
 34
0.0
 50
90.0
  0
LINE
  5
6A5
  8
DETAIL
 10
-50.0
 20
431.0
 30
0.0
 11
-50.0
 21
401.0
 31
0.0
  0
LINE
  5
6A6
  8
DETAIL
 10
-40.0
 20
391.0
 30
0.0
 11
40.0
 21
391.0
 31
0.0
  0
LINE
  5
6A8
  8
DETAIL
 10
50.0
 20
431.0
 30
0.0
 11
50.0
 21
401.0
 31
0.0
  0
ARC
  5
6A9
  8
DETAIL
 10
-40.0
 20
401.0
 30
0.0
 40
10.0
 50
180.0
 51
270.0
  0
ARC
  5
6AA
  8
DETAIL
 10
40.0
 20
401.0
 30
0.0
 40
10.0
 50
270.0
 51
0.0
  0
CIRCLE
  5
6AC
  8
DETAIL
 10
-53.033009
 20
353.033009
 30
0.0
 40
4.0
  0
CIRCLE
  5
6AD
  8
DETAIL
 10
-53.033009
 20
246.966991
 30
0.0
 40
4.0
  0
CIRCLE
  5
6AE
  8
DETAIL
 10
53.033009
 20
246.966991
 30
0.0
 40
4.0
  0
ARC
  5
6B8
  8
DETAIL
 10
-136.870317
 20
691.716729
 30
0.0
 40
148.135242
 50
123.671027
 51
179.50365
  0
ARC
  5
6B9
  8
DETAIL
 10
136.870317
 20
691.716729
 30
0.0
 40
148.135242
 50
0.49635
 51
56.328973
  0
ARC
  5
6FD
  8
DETAIL
 10
0.0
 20
-374.025
 30
0.0
 40
1209.025
 50
79.563966
 51
100.436034
  0
ARC
  5
709
  8
DETAIL
 10
0.0
 20
-414.025
 30
0.0
 40
1209.025
 50
79.563966
 51
100.436034
  0
ARC
  5
70A
  8
DETAIL
 10
-147.521021
 20
649.907163
 30
0.0
 40
144.074503
 50
119.743969
 51
162.596381
  0
ARC
  5
70B
  8
DETAIL
 10
147.521021
 20
649.907163
 30
0.0
 40
144.074503
 50
17.403619
 51
60.256031
  0
LINE
  5
736
  8
DETAIL
 10
-285.0
 20
615.0
 30
0.0
 11
285.0
 21
615.0
 31
0.0
  0
LINE
  5
737
  8
DETAIL
 10
-219.0
 20
665.0
 30
0.0
 11
219.0
 21
665.0
 31
0.0
  0
LINE
  5
738
  8
DETAIL
 10
-219.0
 20
675.0
 30
0.0
 11
219.0
 21
675.0
 31
0.0
  0
ARC
  5
739
  8
DETAIL
 10
0.0
 20
-514.025
 30
0.0
 40
1209.025
 50
79.563966
 51
100.436034
  0
POLYLINE
  5
73C
  8
DETAIL
 66
     1
 10
0.0
 20
0.0
 30
0.0
 70
     1
  0
VERTEX
  5
E05
  8
DETAIL
 10
72.222902
 20
750.699075
 30
0.0
  0
VERTEX
  5
E06
  8
DETAIL
 10
72.222902
 20
769.079693
 30
0.0
  0
VERTEX
  5
E07
  8
DETAIL
 10
93.681425
 20
769.079693
 30
0.0
  0
VERTEX
  5
E08
  8
DETAIL
 10
93.681425
 20
750.699075
 30
0.0
  0
SEQEND
  5
E09
  8
DETAIL
  0
POLYLINE
  5
73D
  8
DETAIL
 66
     1
 10
0.0
 20
0.0
 30
0.0
 70
     1
  0
VERTEX
  5
E0A
  8
DETAIL
 10
34.111792
 20
750.699075
 30
0.0
  0
VERTEX
  5
E0B
  8
DETAIL
 10
34.111792
 20
769.079693
 30
0.0
  0
VERTEX
  5
E0C
  8
DETAIL
 10
55.570314
 20
769.079693
 30
0.0
  0
VERTEX
  5
E0D
  8
DETAIL
 10
55.570314
 20
750.699075
 30
0.0
  0
SEQEND
  5
E0E
  8
DETAIL
  0
POLYLINE
  5
73E
  8
DETAIL
 66
     1
 10
0.0
 20
0.0
 30
0.0
 70
     1
  0
VERTEX
  5
E0F
  8
DETAIL
 10
-3.999319
 20
750.380406
 30
0.0
  0
VERTEX
  5
E10
  8
DETAIL
 10
-3.999319
 20
768.761023
 30
0.0
  0
VERTEX
  5
E11
  8
DETAIL
 10
17.459203
 20
768.761023
 30
0.0
  0
VERTEX
  5
E12
  8
DETAIL
 10
17.459203
 20
750.380406
 30
0.0
  0
SEQEND
  5
E13
  8
DETAIL
  0
POLYLINE
  5
73F
  8
DETAIL
 66
     1
 10
0.0
 20
0.0
 30
0.0
 70
     1
  0
VERTEX
  5
E14
  8
DETAIL
 10
-177.037723
 20
750.380406
 30
0.0
  0
VERTEX
  5
E15
  8
DETAIL
 10
-177.037723
 20
768.761023
 30
0.0
  0
VERTEX
  5
E16
  8
DETAIL
 10
-155.579201
 20
768.761023
 30
0.0
  0
VERTEX
  5
E17
  8
DETAIL
 10
-155.579201
 20
750.380406
 30
0.0
  0
SEQEND
  5
E18
  8
DETAIL
  0
CIRCLE
  5
740
  8
DETAIL
 10
-63.159346
 20
721.511827
 30
0.0
 40
15.0
  0
LINE
  5
741
  8
DETAIL
 10
-61.961845
 20
736.463951
 30
0.0
 11
-68.206607
 21
707.38649
 31
0.0
  0
LINE
  5
742
  8
DETAIL
 10
-58.112086
 20
735.637165
 30
0.0
 11
-64.356848
 21
706.559704
 31
0.0
  0
LINE
  5
811
  8
CENTER
  6
CENTER
 10
-30.171812
 20
120.000126
 30
0.0
 11
30.171812
 21
120.000126
 31
0.0
  0
DIMENSION
  5
86A
  8
DIMENSION
  2
*D2
 10
-563.280631
 20
562.000126
 30
0.0
 11
-588.780631
 21
281.000063
 31
0.0
 70
     0
 13
-163.75
 23
0.0
 33
0.0
 14
-100.171812
 24
562.000126
 34
0.0
 50
90.0
  0
DIMENSION
  5
882
  8
DIMENSION
  2
*D3
 10
-511.663093
 20
392.0
 30
0.0
 11
-537.163093
 21
196.0
 31
0.0
 70
     0
 13
-162.5
 23
0.0
 33
0.0
 14
-87.380691
 24
392.0
 34
0.0
 50
90.0
  0
DIMENSION
  5
8FC
  8
DIMENSION
  2
*D4
 10
-399.6869
 20
137.000126
 30
0.0
 11
-425.1869
 21
68.500063
 31
0.0
 70
     0
 13
-164.375
 23
0.0
 33
0.0
 14
96.828188
 24
137.000126
 34
0.0
 50
90.0
  0
DIMENSION
  5
914
  8
DIMENSION
  2
*D5
 10
-341.047626
 20
120.000126
 30
0.0
 11
-366.547626
 21
60.000063
 31
0.0
 70
     0
 13
-164.375
 23
0.0
 33
0.0
 14
-30.171812
 24
120.000126
 34
0.0
 50
90.0
  0
DIMENSION
  5
92C
  8
DIMENSION
  2
*D6
 10
355.518974
 20
35.0
 30
0.0
 11
330.018974
 21
118.238095
 31
0.0
 70
     0
 13
162.5
 23
0.0
 33
0.0
 14
162.5
 24
35.0
 34
0.0
 50
90.0
  0
DIMENSION
  5
948
  8
DIMENSION
  2
*D7
 10
285.0
 20
976.800618
 30
0.0
 11
0.0
 21
1002.300618
 31
0.0
 70
     0
 13
-285.0
 23
693.0
 33
0.0
 14
285.0
 24
693.0
 34
0.0
  0
DIMENSION
  5
960
  8
DIMENSION
  2
*D8
 10
144.5
 20
-165.110226
 30
0.0
 11
0.0
 21
-139.610226
 31
0.0
 70
     0
 13
-144.5
 23
0.0
 33
0.0
 14
144.5
 24
0.0
 34
0.0
  0
DIMENSION
  5
990
  8
DIMENSION
  2
*D9
 10
285.0
 20
918.697093
 30
0.0
 11
107.5
 21
944.197093
 31
0.0
 70
     0
 13
-70.0
 23
592.171938
 33
0.0
 14
285.0
 24
693.625
 34
0.0
  0
DIMENSION
  5
9A8
  8
DIMENSION
  2
*D10
 10
127.0
 20
-62.46192
 30
0.0
 11
206.0
 21
-36.96192
 31
0.0
 70
     0
 13
285.0
 23
167.0
 33
0.0
 14
127.0
 24
106.828314
 34
0.0
  0
DIMENSION
  5
9C0
  8
DIMENSION
  2
*D11
 10
0.0
 20
-112.929002
 30
0.0
 11
204.973011
 21
-112.929002
 31
0.0
 70
   128
 13
285.0
 23
167.0
 33
0.0
 14
0.0
 24
89.828314
 34
0.0
  0
ENDSEC
  0
EOF
