  0
SECTION
  2
HEADER
  9
$ACADVER
  1
AC1009
  9
$INSBASE
 10
0.0
 20
0.0
 30
0.0
  9
$EXTMIN
 10
-785.095797
 20
-880.13375
 30
0.0
  9
$EXTMAX
 10
785.095846
 20
1312.133819
 30
0.0
  9
$LIMMIN
 10
0.0
 20
0.0
  9
$LIMMAX
 10
420.0
 20
297.0
  9
$ORTHOMODE
 70
     1
  9
$REGENMODE
 70
     1
  9
$FILLMODE
 70
     1
  9
$QTEXTMODE
 70
     0
  9
$MIRRTEXT
 70
     1
  9
$DRAGMODE
 70
     2
  9
$LTSCALE
 40
1.0
  9
$OSMODE
 70
     0
  9
$ATTMODE
 70
     2
  9
$TEXTSIZE
 40
25.0
  9
$TRACEWID
 40
1.0
  9
$TEXTSTYLE
  7
STANDARD
  9
$CLAYER
  8
0
  9
$CELTYPE
  6
BYLAYER
  9
$CECOLOR
 62
   256
  9
$DIMSCALE
 40
1.0
  9
$DIMASZ
 40
25.0
  9
$DIMEXO
 40
0.625
  9
$DIMDLI
 40
3.75
  9
$DIMRND
 40
0.0
  9
$DIMDLE
 40
0.0
  9
$DIMEXE
 40
1.25
  9
$DIMTP
 40
0.0
  9
$DIMTM
 40
0.0
  9
$DIMTXT
 40
25.0
  9
$DIMCEN
 40
2.5
  9
$DIMTSZ
 40
0.0
  9
$DIMTOL
 70
     0
  9
$DIMLIM
 70
     0
  9
$DIMTIH
 70
     0
  9
$DIMTOH
 70
     0
  9
$DIMSE1
 70
     0
  9
$DIMSE2
 70
     0
  9
$DIMTAD
 70
     1
  9
$DIMZIN
 70
     8
  9
$DIMBLK
  1

  9
$DIMASO
 70
     1
  9
$DIMSHO
 70
     1
  9
$DIMPOST
  1

  9
$DIMAPOST
  1

  9
$DIMALT
 70
     0
  9
$DIMALTD
 70
     3
  9
$DIMALTF
 40
0.03937
  9
$DIMLFAC
 40
1.0
  9
$DIMTOFL
 70
     1
  9
$DIMTVP
 40
0.0
  9
$DIMTIX
 70
     0
  9
$DIMSOXD
 70
     0
  9
$DIMSAH
 70
     0
  9
$DIMBLK1
  1

  9
$DIMBLK2
  1

  9
$DIMSTYLE
  2
ISO-25
  9
$DIMCLRD
 70
     0
  9
$DIMCLRE
 70
     0
  9
$DIMCLRT
 70
     0
  9
$DIMTFAC
 40
1.0
  9
$DIMGAP
 40
13.0
  9
$LUNITS
 70
     2
  9
$LUPREC
 70
     4
  9
$SKETCHINC
 40
1.0
  9
$FILLETRAD
 40
10.0
  9
$AUNITS
 70
     0
  9
$AUPREC
 70
     0
  9
$MENU
  1
.
  9
$ELEVATION
 40
0.0
  9
$PELEVATION
 40
0.0
  9
$THICKNESS
 40
0.0
  9
$LIMCHECK
 70
     0
  9
$BLIPMODE
 70
     0
  9
$CHAMFERA
 40
10.0
  9
$CHAMFERB
 40
10.0
  9
$SKPOLY
 70
     0
  9
$TDCREATE
 40
2452706.626866
  9
$TDUPDATE
 40
2453073.532684
  9
$TDINDWG
 40
0.293692
  9
$TDUSRTIMER
 40
0.293692
  9
$USRTIMER
 70
     1
  9
$ANGBASE
 50
0.0
  9
$ANGDIR
 70
     0
  9
$PDMODE
 70
     0
  9
$PDSIZE
 40
0.0
  9
$PLINEWID
 40
0.0
  9
$COORDS
 70
     1
  9
$SPLFRAME
 70
     0
  9
$SPLINETYPE
 70
     6
  9
$SPLINESEGS
 70
     8
  9
$ATTDIA
 70
     0
  9
$ATTREQ
 70
     1
  9
$HANDLING
 70
 22529
  9
$HANDSEED
  5
13DA
  9
$SURFTAB1
 70
     6
  9
$SURFTAB2
 70
     6
  9
$SURFTYPE
 70
     6
  9
$SURFU
 70
     6
  9
$SURFV
 70
     6
  9
$UCSNAME
  2

  9
$UCSORG
 10
0.0
 20
0.0
 30
0.0
  9
$UCSXDIR
 10
1.0
 20
0.0
 30
0.0
  9
$UCSYDIR
 10
0.0
 20
1.0
 30
0.0
  9
$PUCSNAME
  2

  9
$PUCSORG
 10
0.0
 20
0.0
 30
0.0
  9
$PUCSXDIR
 10
1.0
 20
0.0
 30
0.0
  9
$PUCSYDIR
 10
0.0
 20
1.0
 30
0.0
  9
$USERI1
 70
     0
  9
$USERI2
 70
     0
  9
$USERI3
 70
     0
  9
$USERI4
 70
     0
  9
$USERI5
 70
     0
  9
$USERR1
 40
0.0
  9
$USERR2
 40
0.0
  9
$USERR3
 40
0.0
  9
$USERR4
 40
0.0
  9
$USERR5
 40
0.0
  9
$WORLDVIEW
 70
     1
  9
$SHADEDGE
 70
     3
  9
$SHADEDIF
 70
    70
  9
$TILEMODE
 70
     1
  9
$MAXACTVP
 70
    48
  9
$PLIMCHECK
 70
     0
  9
$PEXTMIN
 10
1.000000E+020
 20
1.000000E+020
 30
1.000000E+020
  9
$PEXTMAX
 10
-1.000000E+020
 20
-1.000000E+020
 30
-1.000000E+020
  9
$PLIMMIN
 10
0.0
 20
0.0
  9
$PLIMMAX
 10
420.0
 20
297.0
  9
$UNITMODE
 70
     0
  9
$VISRETAIN
 70
     1
  9
$PLINEGEN
 70
     0
  9
$PSLTSCALE
 70
     1
  0
ENDSEC
  0
SECTION
  2
TABLES
  0
TABLE
  2
VPORT
 70
     2
  0
VPORT
  2
*ACTIVE
 70
     0
 10
0.0
 20
0.0
 11
1.0
 21
1.0
 12
0.000025
 22
216.000034
 13
0.0
 23
0.0
 14
10.0
 24
10.0
 15
10.0
 25
10.0
 16
0.0
 26
0.0
 36
1.0
 17
0.0
 27
0.0
 37
0.0
 40
2217.514412
 41
1.825
 42
50.0
 43
0.0
 44
0.0
 50
0.0
 51
0.0
 71
     0
 72
   100
 73
     1
 74
     3
 75
     0
 76
     0
 77
     0
 78
     0
  0
ENDTAB
  0
TABLE
  2
LTYPE
 70
     3
  0
LTYPE
  2
CONTINUOUS
 70
     0
  3
Solid line
 72
    65
 73
     0
 40
0.0
  0
LTYPE
  2
CENTER
 70
     0
  3
____ _ ____ _ ____ _ ____ _ ____ _ ____ _ ____
 72
    65
 73
     4
 40
2.0
 49
1.25
 49
-0.25
 49
0.25
 49
-0.25
  0
LTYPE
  2
DASHED
 70
     0
  3
__ __ __ __ __ __ __ __ __ __ __ __ __ __ __
 72
    65
 73
     2
 40
0.75
 49
0.5
 49
-0.25
  0
ENDTAB
  0
TABLE
  2
LAYER
 70
     9
  0
LAYER
  2
0
 70
     0
 62
     7
  6
CONTINUOUS
  0
LAYER
  2
ORIGIN
 70
     0
 62
     6
  6
CONTINUOUS
  0
LAYER
  2
DETAIL
 70
     0
 62
     2
  6
CONTINUOUS
  0
LAYER
  2
PLANNING
 70
     0
 62
     1
  6
DASHED
  0
LAYER
  2
STELTXT
 70
     0
 62
     4
  6
CONTINUOUS
  0
LAYER
  2
STELATT
 70
     0
 62
     7
  6
CONTINUOUS
  0
LAYER
  2
CENTER
 70
     0
 62
     4
  6
CENTER
  0
LAYER
  2
DEFPOINTS
 70
     0
 62
     7
  6
CONTINUOUS
  0
LAYER
  2
DIMENSION
 70
     0
 62
     7
  6
CONTINUOUS
  0
ENDTAB
  0
TABLE
  2
STYLE
 70
     1
  0
STYLE
  2
STANDARD
 70
     0
 40
0.0
 41
1.0
 50
0.0
 71
     0
 42
25.0
  3
simplex.shx
  4

  0
ENDTAB
  0
TABLE
  2
VIEW
 70
     0
  0
ENDTAB
  0
TABLE
  2
UCS
 70
     0
  0
ENDTAB
  0
TABLE
  2
APPID
 70
     1
  0
APPID
  2
ACAD
 70
     0
  0
ENDTAB
  0
TABLE
  2
DIMSTYLE
 70
     2
  0
DIMSTYLE
  2
ISO-25
 70
     0
  3

  4

  5

  6

  7

 40
1.0
 41
25.0
 42
0.625
 43
3.75
 44
1.25
 45
0.0
 46
0.0
 47
0.0
 48
0.0
140
25.0
141
2.5
142
0.0
143
0.03937
144
1.0
145
0.0
146
1.0
147
13.0
 71
     0
 72
     0
 73
     0
 74
     0
 75
     0
 76
     0
 77
     1
 78
     8
170
     0
171
     3
172
     1
173
     0
174
     0
175
     0
176
     0
177
     0
178
     0
  0
DIMSTYLE
  2
STANDARD
 70
     0
  3

  4

  5

  6

  7

 40
1.0
 41
0.18
 42
0.0625
 43
0.38
 44
0.18
 45
0.0
 46
0.0
 47
0.0
 48
0.0
140
0.18
141
0.09
142
0.0
143
25.4
144
1.0
145
0.0
146
1.0
147
0.09
 71
     0
 72
     0
 73
     1
 74
     1
 75
     0
 76
     0
 77
     0
 78
     0
170
     0
171
     2
172
     0
173
     0
174
     0
175
     0
176
     0
177
     0
178
     0
  0
ENDTAB
  0
ENDSEC
  0
SECTION
  2
BLOCKS
  0
BLOCK
  8
0
  2
$MODEL_SPACE
 70
     2
 10
0.0
 20
0.0
 30
0.0
  3
$MODEL_SPACE
  1

  0
ENDBLK
  5
A
  8
0
  0
BLOCK
 67
     1
  8
0
  2
$PAPER_SPACE
 70
     0
 10
0.0
 20
0.0
 30
0.0
  3
$PAPER_SPACE
  1

  0
ENDBLK
  5
10
 67
     1
  8
0
  0
BLOCK
  8
0
  2
*D0
 70
     1
 10
0.0
 20
0.0
 30
0.0
  3
*D0
  1

  0
LINE
  5
11DD
  8
DIMENSION
 62
     0
 10
-285.625
 20
812.0
 30
0.0
 11
-470.988731
 21
812.0
 31
0.0
  0
LINE
  5
11DE
  8
DIMENSION
 62
     0
 10
-219.625
 20
0.0
 30
0.0
 11
-470.988731
 21
0.0
 31
0.0
  0
LINE
  5
11DF
  8
DIMENSION
 62
     0
 10
-469.738731
 20
787.0
 30
0.0
 11
-469.738731
 21
25.0
 31
0.0
  0
SOLID
  5
11E0
  8
DIMENSION
 62
     0
 10
-473.905397
 20
787.0
 30
0.0
 11
-465.572064
 21
787.0
 31
0.0
 12
-469.738731
 22
812.0
 32
0.0
 13
-469.738731
 23
812.0
 33
0.0
  0
SOLID
  5
11E1
  8
DIMENSION
 62
     0
 10
-473.905397
 20
25.0
 30
0.0
 11
-465.572064
 21
25.0
 31
0.0
 12
-469.738731
 22
0.0
 32
0.0
 13
-469.738731
 23
0.0
 33
0.0
  0
TEXT
  5
11E2
  8
0
 62
     0
 10
-482.738731
 20
376.238095
 30
0.0
 40
25.0
  1
812
 50
90.0
  0
POINT
  5
11E3
  8
DEFPOINTS
 62
     0
 10
-285.0
 20
812.0
 30
0.0
  0
POINT
  5
11E4
  8
DEFPOINTS
 62
     0
 10
-219.0
 20
0.0
 30
0.0
  0
POINT
  5
11E5
  8
DEFPOINTS
 62
     0
 10
-469.738731
 20
0.0
 30
0.0
  0
ENDBLK
  5
F91
  8
0
  0
BLOCK
  8
0
  2
*D1
 70
     1
 10
0.0
 20
0.0
 30
0.0
  3
*D1
  1

  0
LINE
  5
11D4
  8
DIMENSION
 62
     0
 10
-286.25
 20
812.0
 30
0.0
 11
-399.945587
 21
812.0
 31
0.0
  0
LINE
  5
11D5
  8
DIMENSION
 62
     0
 10
-285.625
 20
120.0
 30
0.0
 11
-399.945587
 21
120.0
 31
0.0
  0
LINE
  5
11D6
  8
DIMENSION
 62
     0
 10
-398.695587
 20
787.0
 30
0.0
 11
-398.695587
 21
145.0
 31
0.0
  0
SOLID
  5
11D7
  8
DIMENSION
 62
     0
 10
-402.862253
 20
787.0
 30
0.0
 11
-394.52892
 21
787.0
 31
0.0
 12
-398.695587
 22
812.0
 32
0.0
 13
-398.695587
 23
812.0
 33
0.0
  0
SOLID
  5
11D8
  8
DIMENSION
 62
     0
 10
-402.862253
 20
145.0
 30
0.0
 11
-394.52892
 21
145.0
 31
0.0
 12
-398.695587
 22
120.0
 32
0.0
 13
-398.695587
 23
120.0
 33
0.0
  0
TEXT
  5
11D9
  8
0
 62
     0
 10
-411.695587
 20
433.857143
 30
0.0
 40
25.0
  1
692
 50
90.0
  0
POINT
  5
11DA
  8
DEFPOINTS
 62
     0
 10
-285.625
 20
812.0
 30
0.0
  0
POINT
  5
11DB
  8
DEFPOINTS
 62
     0
 10
-285.0
 20
120.0
 30
0.0
  0
POINT
  5
11DC
  8
DEFPOINTS
 62
     0
 10
-398.695587
 20
120.0
 30
0.0
  0
ENDBLK
  5
FA9
  8
0
  0
BLOCK
  8
0
  2
*D2
 70
     1
 10
0.0
 20
0.0
 30
0.0
  3
*D2
  1

  0
LINE
  5
1203
  8
DIMENSION
 62
     0
 10
-285.0
 20
168.045556
 30
0.0
 11
-285.0
 21
-111.61021
 31
0.0
  0
LINE
  5
1204
  8
DIMENSION
 62
     0
 10
285.0
 20
168.045556
 30
0.0
 11
285.0
 21
-111.61021
 31
0.0
  0
LINE
  5
1205
  8
DIMENSION
 62
     0
 10
-260.0
 20
-110.36021
 30
0.0
 11
260.0
 21
-110.36021
 31
0.0
  0
SOLID
  5
1206
  8
DIMENSION
 62
     0
 10
-260.0
 20
-106.193543
 30
0.0
 11
-260.0
 21
-114.526876
 31
0.0
 12
-285.0
 22
-110.36021
 32
0.0
 13
-285.0
 23
-110.36021
 33
0.0
  0
SOLID
  5
1207
  8
DIMENSION
 62
     0
 10
260.0
 20
-106.193543
 30
0.0
 11
260.0
 21
-114.526876
 31
0.0
 12
285.0
 22
-110.36021
 32
0.0
 13
285.0
 23
-110.36021
 33
0.0
  0
TEXT
  5
1208
  8
0
 62
     0
 10
-32.142857
 20
-97.36021
 30
0.0
 40
25.0
  1
570
  0
POINT
  5
1209
  8
DEFPOINTS
 62
     0
 10
-285.0
 20
168.670556
 30
0.0
  0
POINT
  5
120A
  8
DEFPOINTS
 62
     0
 10
285.0
 20
168.670556
 30
0.0
  0
POINT
  5
120B
  8
DEFPOINTS
 62
     0
 10
285.0
 20
-110.36021
 30
0.0
  0
ENDBLK
  5
FDD
  8
0
  0
BLOCK
  8
0
  2
*D3
 70
     1
 10
0.0
 20
0.0
 30
0.0
  3
*D3
  1

  0
LINE
  5
11F8
  8
DIMENSION
 62
     0
 10
285.625
 20
812.0
 30
0.0
 11
372.865983
 21
812.0
 31
0.0
  0
LINE
  5
11F9
  8
DIMENSION
 62
     0
 10
143.5
 20
872.0
 30
0.0
 11
372.865983
 21
872.0
 31
0.0
  0
LINE
  5
11FA
  8
DIMENSION
 62
     0
 10
371.615983
 20
787.0
 30
0.0
 11
371.615983
 21
762.0
 31
0.0
  0
LINE
  5
11FB
  8
DIMENSION
 62
     0
 10
371.615983
 20
897.0
 30
0.0
 11
371.615983
 21
988.47619
 31
0.0
  0
LINE
  5
11FC
  8
DIMENSION
 62
     0
 10
371.615983
 20
812.0
 30
0.0
 11
371.615983
 21
872.0
 31
0.0
  0
SOLID
  5
11FD
  8
DIMENSION
 62
     0
 10
367.449317
 20
787.0
 30
0.0
 11
375.78265
 21
787.0
 31
0.0
 12
371.615983
 22
812.0
 32
0.0
 13
371.615983
 23
812.0
 33
0.0
  0
SOLID
  5
11FE
  8
DIMENSION
 62
     0
 10
367.449317
 20
897.0
 30
0.0
 11
375.78265
 21
897.0
 31
0.0
 12
371.615983
 22
872.0
 32
0.0
 13
371.615983
 23
872.0
 33
0.0
  0
TEXT
  5
11FF
  8
0
 62
     0
 10
358.615983
 20
935.0
 30
0.0
 40
25.0
  1
60
 50
90.0
  0
POINT
  5
1200
  8
DEFPOINTS
 62
     0
 10
285.0
 20
812.0
 30
0.0
  0
POINT
  5
1201
  8
DEFPOINTS
 62
     0
 10
142.875
 20
872.0
 30
0.0
  0
POINT
  5
1202
  8
DEFPOINTS
 62
     0
 10
371.615983
 20
872.0
 30
0.0
  0
ENDBLK
  5
10AF
  8
0
  0
BLOCK
  8
0
  2
*D4
 70
     1
 10
0.0
 20
0.0
 30
0.0
  3
*D4
  1

  0
LINE
  5
11EF
  8
DIMENSION
 62
     0
 10
285.0
 20
788.557266
 30
0.0
 11
285.0
 21
934.74128
 31
0.0
  0
LINE
  5
11F0
  8
DIMENSION
 62
     0
 10
127.0
 20
842.625
 30
0.0
 11
127.0
 21
934.74128
 31
0.0
  0
LINE
  5
11F1
  8
DIMENSION
 62
     0
 10
260.0
 20
933.49128
 30
0.0
 11
152.0
 21
933.49128
 31
0.0
  0
SOLID
  5
11F2
  8
DIMENSION
 62
     0
 10
260.0
 20
937.657946
 30
0.0
 11
260.0
 21
929.324613
 31
0.0
 12
285.0
 22
933.49128
 32
0.0
 13
285.0
 23
933.49128
 33
0.0
  0
SOLID
  5
11F3
  8
DIMENSION
 62
     0
 10
152.0
 20
937.657946
 30
0.0
 11
152.0
 21
929.324613
 31
0.0
 12
127.0
 22
933.49128
 32
0.0
 13
127.0
 23
933.49128
 33
0.0
  0
TEXT
  5
11F4
  8
0
 62
     0
 10
176.238095
 20
946.49128
 30
0.0
 40
25.0
  1
158
  0
POINT
  5
11F5
  8
DEFPOINTS
 62
     0
 10
285.0
 20
787.932266
 30
0.0
  0
POINT
  5
11F6
  8
DEFPOINTS
 62
     0
 10
127.0
 20
842.0
 30
0.0
  0
POINT
  5
11F7
  8
DEFPOINTS
 62
     0
 10
127.0
 20
933.49128
 30
0.0
  0
ENDBLK
  5
10C9
  8
0
  0
BLOCK
  8
0
  2
*D5
 70
     1
 10
0.0
 20
0.0
 30
0.0
  3
*D5
  1

  0
LINE
  5
11E6
  8
DIMENSION
 62
     0
 10
285.0
 20
789.182266
 30
0.0
 11
285.0
 21
995.270772
 31
0.0
  0
LINE
  5
11E7
  8
DIMENSION
 62
     0
 10
-70.0
 20
872.625
 30
0.0
 11
-70.0
 21
995.270772
 31
0.0
  0
LINE
  5
11E8
  8
DIMENSION
 62
     0
 10
260.0
 20
994.020772
 30
0.0
 11
-45.0
 21
994.020772
 31
0.0
  0
SOLID
  5
11E9
  8
DIMENSION
 62
     0
 10
260.0
 20
998.187439
 30
0.0
 11
260.0
 21
989.854106
 31
0.0
 12
285.0
 22
994.020772
 32
0.0
 13
285.0
 23
994.020772
 33
0.0
  0
SOLID
  5
11EA
  8
DIMENSION
 62
     0
 10
-45.0
 20
998.187439
 30
0.0
 11
-45.0
 21
989.854106
 31
0.0
 12
-70.0
 22
994.020772
 32
0.0
 13
-70.0
 23
994.020772
 33
0.0
  0
TEXT
  5
11EB
  8
0
 62
     0
 10
75.357143
 20
1007.020772
 30
0.0
 40
25.0
  1
355
  0
POINT
  5
11EC
  8
DEFPOINTS
 62
     0
 10
285.0
 20
788.557266
 30
0.0
  0
POINT
  5
11ED
  8
DEFPOINTS
 62
     0
 10
-70.0
 20
872.0
 30
0.0
  0
POINT
  5
11EE
  8
DEFPOINTS
 62
     0
 10
-70.0
 20
994.020772
 30
0.0
  0
ENDBLK
  5
10E1
  8
0
  0
ENDSEC
  0
SECTION
  2
ENTITIES
  0
ATTDEF
  5
2F
  8
STELATT
 10
-93.333333
 20
-400.986484
 30
0.0
 40
40.0
  1
GT4
 72
     4
 11
0.0
 21
-380.986484
 31
0.0
  3

  2
MODEL
 70
     2
  0
ATTDEF
  5
33
  8
STELATT
 10
-233.333333
 20
-270.986484
 30
0.0
 40
40.0
  1
IDEAL
 72
     4
 11
0.0
 21
-250.986484
 31
0.0
  3

  2
MANUFACTURER
 70
     2
  0
ATTDEF
  5
6A
  8
STELATT
 10
-68.571429
 20
-335.986484
 30
0.0
 40
40.0
  1
BUCCANEER
 72
     4
 11
0.0
 21
-315.986484
 31
0.0
  3

  2
TYPE
 70
     2
  0
POLYLINE
  5
6F
  8
ORIGIN
 66
     1
 10
0.0
 20
0.0
 30
0.0
 70
     1
  0
VERTEX
  5
13C1
  8
ORIGIN
 10
37.5
 20
-37.5
 30
0.0
  0
VERTEX
  5
13C2
  8
ORIGIN
 10
-37.5
 20
37.5
 30
0.0
  0
VERTEX
  5
13C3
  8
ORIGIN
 10
-37.5
 20
-37.5
 30
0.0
  0
VERTEX
  5
13C4
  8
ORIGIN
 10
37.5
 20
37.5
 30
0.0
  0
SEQEND
  5
13C5
  8
ORIGIN
  0
LINE
  5
487
  8
CENTER
  6
CENTER
 10
0.0
 20
812.0
 30
0.0
 11
0.0
 21
872.0
 31
0.0
  0
LINE
  5
49D
  8
CENTER
  6
CENTER
 10
-70.0
 20
812.0
 30
0.0
 11
-70.0
 21
872.0
 31
0.0
  0
LINE
  5
4AE
  8
CENTER
  6
CENTER
 10
127.0
 20
812.0
 30
0.0
 11
127.0
 21
872.0
 31
0.0
  0
TEXT
  5
4C0
  8
STELTXT
 10
6450.954798
 20
2831.230363
 30
0.0
 40
25.0
  1
 
  0
TEXT
  5
4C1
  8
STELTXT
 10
6459.385829
 20
1992.812349
 30
0.0
 40
25.0
  1
 
  0
LINE
  5
D12
  8
DETAIL
 10
219.0
 20
0.0
 30
0.0
 11
-219.0
 21
0.0
 31
0.0
  0
LINE
  5
D13
  8
DETAIL
 10
-285.0
 20
812.0
 30
0.0
 11
285.0
 21
812.0
 31
0.0
  0
LINE
  5
D15
  8
DETAIL
 10
-285.0
 20
120.0
 30
0.0
 11
-285.0
 21
812.0
 31
0.0
  0
LINE
  5
D17
  8
DETAIL
 10
285.0
 20
812.0
 30
0.0
 11
285.0
 21
120.0
 31
0.0
  0
LINE
  5
D18
  8
DETAIL
 10
219.0
 20
812.0
 30
0.0
 11
219.0
 21
0.0
 31
0.0
  0
LINE
  5
D19
  8
DETAIL
 10
-219.0
 20
812.0
 30
0.0
 11
-219.0
 21
0.0
 31
0.0
  0
LINE
  5
D1F
  8
DETAIL
 10
-54.125
 20
862.0
 30
0.0
 11
62.5
 21
862.0
 31
0.0
  0
LINE
  5
D26
  8
DETAIL
 10
-54.125
 20
812.0
 30
0.0
 11
-54.125
 21
872.0
 31
0.0
  0
LINE
  5
D27
  8
DETAIL
 10
-85.875
 20
812.0
 30
0.0
 11
-85.875
 21
872.0
 31
0.0
  0
LINE
  5
D28
  8
DETAIL
 10
-85.875
 20
872.0
 30
0.0
 11
-54.125
 21
872.0
 31
0.0
  0
LINE
  5
D29
  8
DETAIL
 10
62.5
 20
862.0
 30
0.0
 11
62.5
 21
812.0
 31
0.0
  0
LINE
  5
D2E
  8
DETAIL
 10
111.125
 20
872.0
 30
0.0
 11
111.125
 21
812.0
 31
0.0
  0
LINE
  5
D2F
  8
DETAIL
 10
142.875
 20
872.0
 30
0.0
 11
142.875
 21
812.0
 31
0.0
  0
LINE
  5
D30
  8
DETAIL
 10
111.125
 20
872.0
 30
0.0
 11
142.875
 21
872.0
 31
0.0
  0
LINE
  5
D42
  8
PLANNING
 10
785.0
 20
-880.0
 30
0.0
 11
-785.0
 21
-880.0
 31
0.0
  0
LINE
  5
D43
  8
PLANNING
 10
-785.0
 20
-880.0
 30
0.0
 11
-785.0
 21
1312.0
 31
0.0
  0
LINE
  5
D72
  8
PLANNING
 10
785.0
 20
1312.0
 30
0.0
 11
-785.0
 21
1312.0
 31
0.0
  0
LINE
  5
D8F
  8
PLANNING
 10
785.0
 20
1312.0
 30
0.0
 11
785.0
 21
-880.0
 31
0.0
  0
LINE
  5
EA7
  8
DETAIL
 10
-7.0
 20
862.0
 30
0.0
 11
-7.0
 21
872.0
 31
0.0
  0
LINE
  5
EA8
  8
DETAIL
 10
-7.0
 20
872.0
 30
0.0
 11
7.0
 21
872.0
 31
0.0
  0
LINE
  5
EA9
  8
DETAIL
 10
7.0
 20
872.0
 30
0.0
 11
7.0
 21
862.0
 31
0.0
  0
LINE
  5
EEB
  8
DETAIL
 10
-285.0
 20
250.0
 30
0.0
 11
285.0
 21
250.0
 31
0.0
  0
ARC
  5
F25
  8
DETAIL
 10
-103.166093
 20
141.858649
 30
0.0
 40
183.143032
 50
186.854757
 51
230.76683
  0
ARC
  5
F28
  8
DETAIL
 10
103.166093
 20
141.858649
 30
0.0
 40
183.143032
 50
309.23317
 51
353.145243
  0
DIMENSION
  5
F85
  8
DIMENSION
  2
*D0
 10
-469.738731
 20
0.0
 30
0.0
 11
-495.238731
 21
406.0
 31
0.0
 70
     0
 13
-285.0
 23
812.0
 33
0.0
 14
-219.0
 24
0.0
 34
0.0
 50
90.0
  0
DIMENSION
  5
F9D
  8
DIMENSION
  2
*D1
 10
-398.695587
 20
120.0
 30
0.0
 11
-424.195587
 21
466.0
 31
0.0
 70
     0
 13
-285.625
 23
812.0
 33
0.0
 14
-285.0
 24
120.0
 34
0.0
 50
90.0
  0
DIMENSION
  5
FD1
  8
DIMENSION
  2
*D2
 10
285.0
 20
-110.36021
 30
0.0
 11
0.0
 21
-84.86021
 31
0.0
 70
     0
 13
-285.0
 23
168.670556
 33
0.0
 14
285.0
 24
168.670556
 34
0.0
  0
TEXT
  5
1020
  8
STELTXT
 10
-738.638453
 20
899.387793
 30
0.0
 40
25.0
  1
%%C1 " THREADED
  0
TEXT
  5
1021
  8
STELTXT
 10
-738.638453
 20
1184.313722
 30
0.0
 40
25.0
  1
HEATING RETURN
  0
TEXT
  5
1023
  8
STELTXT
 10
-685.663093
 20
899.543471
 30
0.0
 40
15.0
  1
4
  0
TEXT
  5
1024
  8
STELTXT
 10
-696.849883
 20
903.949792
 30
0.0
 40
15.0
  1
/
  0
TEXT
  5
1025
  8
STELTXT
 10
-701.936492
 20
908.357621
 30
0.0
 40
15.0
  1
1
  0
TEXT
  5
1026
  8
STELTXT
 10
-736.14193
 20
1090.392212
 30
0.0
 40
25.0
  1
14mm DRAIN COCK
  0
TEXT
  5
1027
  8
STELTXT
 10
-734.580449
 20
986.614113
 30
0.0
 40
25.0
  1
FLUE OUTLET %%C125mm
  0
TEXT
  5
1032
  8
STELTXT
 10
-685.663093
 20
1224.4694
 30
0.0
 40
15.0
  1
4
  0
TEXT
  5
1033
  8
STELTXT
 10
-696.849883
 20
1228.875721
 30
0.0
 40
15.0
  1
/
  0
TEXT
  5
1034
  8
STELTXT
 10
-738.638453
 20
1224.313722
 30
0.0
 40
25.0
  1
%%C1 " THREADED
  0
TEXT
  5
1035
  8
STELTXT
 10
-738.638453
 20
859.387793
 30
0.0
 40
25.0
  1
HEATING FLOW
  0
TEXT
  5
1036
  8
STELTXT
 10
-701.936492
 20
1233.28355
 30
0.0
 40
15.0
  1
1
  0
POLYLINE
  8
STELTXT
  5
13C6
  66
     1
 10
0.000000
 20
0.000000
 30
0.000000
  70
     8
  0
VERTEX
  8
STELTXT
  5
13C7
 10
-3.12544
 20
872.172
 30
0.000000
  70
    32
  0
VERTEX
  8
STELTXT
  5
13C8
 10
-321.049
 20
1101.95
 30
0.000000
  70
    32
  0
VERTEX
  8
STELTXT
  5
13C9
 10
-353.281
 20
1101.95
 30
0.000000
  70
    32
  0
SEQEND
  8
STELTXT
  5
13CA
  0
POLYLINE
  8
STELTXT
  5
13CB
  66
     1
 10
0.000000
 20
0.000000
 30
0.000000
  70
     8
  0
VERTEX
  8
STELTXT
  5
13CC
 10
124.491
 20
877.758
 30
0.000000
  70
    32
  0
VERTEX
  8
STELTXT
  5
13CD
 10
-387.490
 20
1241.69
 30
0.000000
  70
    32
  0
VERTEX
  8
STELTXT
  5
13CE
 10
-416.780
 20
1241.69
 30
0.000000
  70
    32
  0
SEQEND
  8
STELTXT
  5
13CF
  0
POLYLINE
  8
STELTXT
  5
13D0
  66
     1
 10
0.000000
 20
0.000000
 30
0.000000
  70
     8
  0
VERTEX
  8
STELTXT
  5
13D1
 10
-90.3530
 20
842.387
 30
0.000000
  70
    32
  0
VERTEX
  8
STELTXT
  5
13D2
 10
-395.737
 20
912.663
 30
0.000000
  70
    32
  0
VERTEX
  8
STELTXT
  5
13D3
 10
-425.027
 20
912.663
 30
0.000000
  70
    32
  0
SEQEND
  8
STELTXT
  5
13D4
  0
POLYLINE
  8
STELTXT
  5
13D5
  66
     1
 10
0.000000
 20
0.000000
 30
0.000000
  70
     8
  0
VERTEX
  8
STELTXT
  5
13D6
 10
-18.7352
 20
842.041
 30
0.000000
  70
    32
  0
VERTEX
  8
STELTXT
  5
13D7
 10
-263.927
 20
994.356
 30
0.000000
  70
    32
  0
VERTEX
  8
STELTXT
  5
13D8
 10
-293.217
 20
994.356
 30
0.000000
  70
    32
  0
SEQEND
  8
STELTXT
  5
13D9
  0
DIMENSION
  5
10A1
  8
DIMENSION
  2
*D3
 10
371.615983
 20
872.0
 30
0.0
 11
346.115983
 21
955.238095
 31
0.0
 70
     0
 13
285.0
 23
812.0
 33
0.0
 14
142.875
 24
872.0
 34
0.0
 50
90.0
  0
DIMENSION
  5
10BD
  8
DIMENSION
  2
*D4
 10
127.0
 20
933.49128
 30
0.0
 11
206.0
 21
958.99128
 31
0.0
 70
     0
 13
285.0
 23
787.932266
 33
0.0
 14
127.0
 24
842.0
 34
0.0
  0
DIMENSION
  5
10D5
  8
DIMENSION
  2
*D5
 10
-70.0
 20
994.020772
 30
0.0
 11
107.5
 21
1019.520772
 31
0.0
 70
     0
 13
285.0
 23
788.557266
 33
0.0
 14
-70.0
 24
872.0
 34
0.0
  0
ENDSEC
  0
EOF
