  0
SECTION
  2
HEADER
  9
$ACADVER
  1
AC1009
  9
$INSBASE
 10
0.0
 20
0.0
 30
0.0
  9
$EXTMIN
 10
-785.076219
 20
-880.03726
 30
0.0
  9
$EXTMAX
 10
785.110966
 20
1566.037348
 30
0.0
  9
$LIMMIN
 10
0.0
 20
0.0
  9
$LIMMAX
 10
420.0
 20
297.0
  9
$ORTHOMODE
 70
     1
  9
$REGENMODE
 70
     1
  9
$FILLMODE
 70
     1
  9
$QTEXTMODE
 70
     0
  9
$MIRRTEXT
 70
     1
  9
$DRAGMODE
 70
     2
  9
$LTSCALE
 40
1.0
  9
$OSMODE
 70
     0
  9
$ATTMODE
 70
     2
  9
$TEXTSIZE
 40
25.0
  9
$TRACEWID
 40
1.0
  9
$TEXTSTYLE
  7
STANDARD
  9
$CLAYER
  8
0
  9
$CELTYPE
  6
BYLAYER
  9
$CECOLOR
 62
   256
  9
$DIMSCALE
 40
1.0
  9
$DIMASZ
 40
25.0
  9
$DIMEXO
 40
0.625
  9
$DIMDLI
 40
3.75
  9
$DIMRND
 40
0.0
  9
$DIMDLE
 40
0.0
  9
$DIMEXE
 40
1.25
  9
$DIMTP
 40
0.0
  9
$DIMTM
 40
0.0
  9
$DIMTXT
 40
25.0
  9
$DIMCEN
 40
2.5
  9
$DIMTSZ
 40
0.0
  9
$DIMTOL
 70
     0
  9
$DIMLIM
 70
     0
  9
$DIMTIH
 70
     0
  9
$DIMTOH
 70
     0
  9
$DIMSE1
 70
     0
  9
$DIMSE2
 70
     0
  9
$DIMTAD
 70
     1
  9
$DIMZIN
 70
     8
  9
$DIMBLK
  1

  9
$DIMASO
 70
     1
  9
$DIMSHO
 70
     1
  9
$DIMPOST
  1

  9
$DIMAPOST
  1

  9
$DIMALT
 70
     0
  9
$DIMALTD
 70
     3
  9
$DIMALTF
 40
0.03937
  9
$DIMLFAC
 40
1.0
  9
$DIMTOFL
 70
     1
  9
$DIMTVP
 40
0.0
  9
$DIMTIX
 70
     0
  9
$DIMSOXD
 70
     0
  9
$DIMSAH
 70
     0
  9
$DIMBLK1
  1

  9
$DIMBLK2
  1

  9
$DIMSTYLE
  2
ISO-25
  9
$DIMCLRD
 70
     0
  9
$DIMCLRE
 70
     0
  9
$DIMCLRT
 70
     0
  9
$DIMTFAC
 40
1.0
  9
$DIMGAP
 40
13.0
  9
$LUNITS
 70
     2
  9
$LUPREC
 70
     4
  9
$SKETCHINC
 40
1.0
  9
$FILLETRAD
 40
10.0
  9
$AUNITS
 70
     0
  9
$AUPREC
 70
     0
  9
$MENU
  1
.
  9
$ELEVATION
 40
0.0
  9
$PELEVATION
 40
0.0
  9
$THICKNESS
 40
0.0
  9
$LIMCHECK
 70
     0
  9
$BLIPMODE
 70
     0
  9
$CHAMFERA
 40
10.0
  9
$CHAMFERB
 40
10.0
  9
$SKPOLY
 70
     0
  9
$TDCREATE
 40
2452706.626866
  9
$TDUPDATE
 40
2453073.53272
  9
$TDINDWG
 40
0.298548
  9
$TDUSRTIMER
 40
0.298548
  9
$USRTIMER
 70
     1
  9
$ANGBASE
 50
0.0
  9
$ANGDIR
 70
     0
  9
$PDMODE
 70
     0
  9
$PDSIZE
 40
0.0
  9
$PLINEWID
 40
0.0
  9
$COORDS
 70
     1
  9
$SPLFRAME
 70
     0
  9
$SPLINETYPE
 70
     6
  9
$SPLINESEGS
 70
     8
  9
$ATTDIA
 70
     0
  9
$ATTREQ
 70
     1
  9
$HANDLING
 70
 22529
  9
$HANDSEED
  5
1511
  9
$SURFTAB1
 70
     6
  9
$SURFTAB2
 70
     6
  9
$SURFTYPE
 70
     6
  9
$SURFU
 70
     6
  9
$SURFV
 70
     6
  9
$UCSNAME
  2

  9
$UCSORG
 10
0.0
 20
0.0
 30
0.0
  9
$UCSXDIR
 10
1.0
 20
0.0
 30
0.0
  9
$UCSYDIR
 10
0.0
 20
1.0
 30
0.0
  9
$PUCSNAME
  2

  9
$PUCSORG
 10
0.0
 20
0.0
 30
0.0
  9
$PUCSXDIR
 10
1.0
 20
0.0
 30
0.0
  9
$PUCSYDIR
 10
0.0
 20
1.0
 30
0.0
  9
$USERI1
 70
     0
  9
$USERI2
 70
     0
  9
$USERI3
 70
     0
  9
$USERI4
 70
     0
  9
$USERI5
 70
     0
  9
$USERR1
 40
0.0
  9
$USERR2
 40
0.0
  9
$USERR3
 40
0.0
  9
$USERR4
 40
0.0
  9
$USERR5
 40
0.0
  9
$WORLDVIEW
 70
     1
  9
$SHADEDGE
 70
     3
  9
$SHADEDIF
 70
    70
  9
$TILEMODE
 70
     1
  9
$MAXACTVP
 70
    48
  9
$PLIMCHECK
 70
     0
  9
$PEXTMIN
 10
1.000000E+020
 20
1.000000E+020
 30
1.000000E+020
  9
$PEXTMAX
 10
-1.000000E+020
 20
-1.000000E+020
 30
-1.000000E+020
  9
$PLIMMIN
 10
0.0
 20
0.0
  9
$PLIMMAX
 10
420.0
 20
297.0
  9
$UNITMODE
 70
     0
  9
$VISRETAIN
 70
     1
  9
$PLINEGEN
 70
     0
  9
$PSLTSCALE
 70
     1
  0
ENDSEC
  0
SECTION
  2
TABLES
  0
TABLE
  2
VPORT
 70
     2
  0
VPORT
  2
*ACTIVE
 70
     0
 10
0.0
 20
0.0
 11
1.0
 21
1.0
 12
0.017373
 22
343.000044
 13
0.0
 23
0.0
 14
10.0
 24
10.0
 15
10.0
 25
10.0
 16
0.0
 26
0.0
 36
1.0
 17
0.0
 27
0.0
 37
0.0
 40
2474.244373
 41
1.825
 42
50.0
 43
0.0
 44
0.0
 50
0.0
 51
0.0
 71
     0
 72
   100
 73
     1
 74
     3
 75
     0
 76
     0
 77
     0
 78
     0
  0
ENDTAB
  0
TABLE
  2
LTYPE
 70
     3
  0
LTYPE
  2
CONTINUOUS
 70
     0
  3
Solid line
 72
    65
 73
     0
 40
0.0
  0
LTYPE
  2
CENTER
 70
     0
  3
____ _ ____ _ ____ _ ____ _ ____ _ ____ _ ____
 72
    65
 73
     4
 40
2.0
 49
1.25
 49
-0.25
 49
0.25
 49
-0.25
  0
LTYPE
  2
DASHED
 70
     0
  3
__ __ __ __ __ __ __ __ __ __ __ __ __ __ __
 72
    65
 73
     2
 40
0.75
 49
0.5
 49
-0.25
  0
ENDTAB
  0
TABLE
  2
LAYER
 70
     9
  0
LAYER
  2
0
 70
     0
 62
     7
  6
CONTINUOUS
  0
LAYER
  2
ORIGIN
 70
     0
 62
     6
  6
CONTINUOUS
  0
LAYER
  2
DETAIL
 70
     0
 62
     2
  6
CONTINUOUS
  0
LAYER
  2
PLANNING
 70
     0
 62
     1
  6
DASHED
  0
LAYER
  2
STELTXT
 70
     0
 62
     4
  6
CONTINUOUS
  0
LAYER
  2
STELATT
 70
     0
 62
     7
  6
CONTINUOUS
  0
LAYER
  2
CENTER
 70
     0
 62
     4
  6
CENTER
  0
LAYER
  2
DEFPOINTS
 70
     0
 62
     7
  6
CONTINUOUS
  0
LAYER
  2
DIMENSION
 70
     0
 62
     7
  6
CONTINUOUS
  0
ENDTAB
  0
TABLE
  2
STYLE
 70
     1
  0
STYLE
  2
STANDARD
 70
     0
 40
0.0
 41
1.0
 50
0.0
 71
     0
 42
25.0
  3
simplex.shx
  4

  0
ENDTAB
  0
TABLE
  2
VIEW
 70
     0
  0
ENDTAB
  0
TABLE
  2
UCS
 70
     0
  0
ENDTAB
  0
TABLE
  2
APPID
 70
     1
  0
APPID
  2
ACAD
 70
     0
  0
ENDTAB
  0
TABLE
  2
DIMSTYLE
 70
     2
  0
DIMSTYLE
  2
ISO-25
 70
     0
  3

  4

  5

  6

  7

 40
1.0
 41
25.0
 42
0.625
 43
3.75
 44
1.25
 45
0.0
 46
0.0
 47
0.0
 48
0.0
140
25.0
141
2.5
142
0.0
143
0.03937
144
1.0
145
0.0
146
1.0
147
13.0
 71
     0
 72
     0
 73
     0
 74
     0
 75
     0
 76
     0
 77
     1
 78
     8
170
     0
171
     3
172
     1
173
     0
174
     0
175
     0
176
     0
177
     0
178
     0
  0
DIMSTYLE
  2
STANDARD
 70
     0
  3

  4

  5

  6

  7

 40
1.0
 41
0.18
 42
0.0625
 43
0.38
 44
0.18
 45
0.0
 46
0.0
 47
0.0
 48
0.0
140
0.18
141
0.09
142
0.0
143
25.4
144
1.0
145
0.0
146
1.0
147
0.09
 71
     0
 72
     0
 73
     1
 74
     1
 75
     0
 76
     0
 77
     0
 78
     0
170
     0
171
     2
172
     0
173
     0
174
     0
175
     0
176
     0
177
     0
178
     0
  0
ENDTAB
  0
ENDSEC
  0
SECTION
  2
BLOCKS
  0
BLOCK
  8
0
  2
$MODEL_SPACE
 70
     2
 10
0.0
 20
0.0
 30
0.0
  3
$MODEL_SPACE
  1

  0
ENDBLK
  5
A
  8
0
  0
BLOCK
 67
     1
  8
0
  2
$PAPER_SPACE
 70
     0
 10
0.0
 20
0.0
 30
0.0
  3
$PAPER_SPACE
  1

  0
ENDBLK
  5
10
 67
     1
  8
0
  0
BLOCK
  8
0
  2
*D0
 70
     1
 10
0.0
 20
0.0
 30
0.0
  3
*D0
  1

  0
LINE
  5
1314
  8
DIMENSION
 62
     0
 10
-285.625
 20
1066.0
 30
0.0
 11
-470.988731
 21
1066.0
 31
0.0
  0
LINE
  5
1315
  8
DIMENSION
 62
     0
 10
-219.625
 20
0.0
 30
0.0
 11
-470.988731
 21
0.0
 31
0.0
  0
LINE
  5
1316
  8
DIMENSION
 62
     0
 10
-469.738731
 20
1041.0
 30
0.0
 11
-469.738731
 21
25.0
 31
0.0
  0
SOLID
  5
1317
  8
DIMENSION
 62
     0
 10
-473.905397
 20
1041.0
 30
0.0
 11
-465.572064
 21
1041.0
 31
0.0
 12
-469.738731
 22
1066.0
 32
0.0
 13
-469.738731
 23
1066.0
 33
0.0
  0
SOLID
  5
1318
  8
DIMENSION
 62
     0
 10
-473.905397
 20
25.0
 30
0.0
 11
-465.572064
 21
25.0
 31
0.0
 12
-469.738731
 22
0.0
 32
0.0
 13
-469.738731
 23
0.0
 33
0.0
  0
TEXT
  5
1319
  8
0
 62
     0
 10
-482.738731
 20
491.928571
 30
0.0
 40
25.0
  1
1066
 50
90.0
  0
POINT
  5
131A
  8
DEFPOINTS
 62
     0
 10
-285.0
 20
1066.0
 30
0.0
  0
POINT
  5
131B
  8
DEFPOINTS
 62
     0
 10
-219.0
 20
0.0
 30
0.0
  0
POINT
  5
131C
  8
DEFPOINTS
 62
     0
 10
-469.738731
 20
0.0
 30
0.0
  0
ENDBLK
  5
F91
  8
0
  0
BLOCK
  8
0
  2
*D1
 70
     1
 10
0.0
 20
0.0
 30
0.0
  3
*D1
  1

  0
LINE
  5
130B
  8
DIMENSION
 62
     0
 10
-286.25
 20
1066.0
 30
0.0
 11
-399.945587
 21
1066.0
 31
0.0
  0
LINE
  5
130C
  8
DIMENSION
 62
     0
 10
-285.625
 20
120.0
 30
0.0
 11
-399.945587
 21
120.0
 31
0.0
  0
LINE
  5
130D
  8
DIMENSION
 62
     0
 10
-398.695587
 20
1041.0
 30
0.0
 11
-398.695587
 21
145.0
 31
0.0
  0
SOLID
  5
130E
  8
DIMENSION
 62
     0
 10
-402.862253
 20
1041.0
 30
0.0
 11
-394.52892
 21
1041.0
 31
0.0
 12
-398.695587
 22
1066.0
 32
0.0
 13
-398.695587
 23
1066.0
 33
0.0
  0
SOLID
  5
130F
  8
DIMENSION
 62
     0
 10
-402.862253
 20
145.0
 30
0.0
 11
-394.52892
 21
145.0
 31
0.0
 12
-398.695587
 22
120.0
 32
0.0
 13
-398.695587
 23
120.0
 33
0.0
  0
TEXT
  5
1310
  8
0
 62
     0
 10
-411.695587
 20
561.452381
 30
0.0
 40
25.0
  1
946
 50
90.0
  0
POINT
  5
1311
  8
DEFPOINTS
 62
     0
 10
-285.625
 20
1066.0
 30
0.0
  0
POINT
  5
1312
  8
DEFPOINTS
 62
     0
 10
-285.0
 20
120.0
 30
0.0
  0
POINT
  5
1313
  8
DEFPOINTS
 62
     0
 10
-398.695587
 20
120.0
 30
0.0
  0
ENDBLK
  5
FA9
  8
0
  0
BLOCK
  8
0
  2
*D2
 70
     1
 10
0.0
 20
0.0
 30
0.0
  3
*D2
  1

  0
LINE
  5
133A
  8
DIMENSION
 62
     0
 10
-285.0
 20
185.910182
 30
0.0
 11
-285.0
 21
-93.745584
 31
0.0
  0
LINE
  5
133B
  8
DIMENSION
 62
     0
 10
285.0
 20
185.910182
 30
0.0
 11
285.0
 21
-93.745584
 31
0.0
  0
LINE
  5
133C
  8
DIMENSION
 62
     0
 10
-260.0
 20
-92.495584
 30
0.0
 11
260.0
 21
-92.495584
 31
0.0
  0
SOLID
  5
133D
  8
DIMENSION
 62
     0
 10
-260.0
 20
-88.328917
 30
0.0
 11
-260.0
 21
-96.66225
 31
0.0
 12
-285.0
 22
-92.495584
 32
0.0
 13
-285.0
 23
-92.495584
 33
0.0
  0
SOLID
  5
133E
  8
DIMENSION
 62
     0
 10
260.0
 20
-88.328917
 30
0.0
 11
260.0
 21
-96.66225
 31
0.0
 12
285.0
 22
-92.495584
 32
0.0
 13
285.0
 23
-92.495584
 33
0.0
  0
TEXT
  5
133F
  8
0
 62
     0
 10
-32.142857
 20
-79.495584
 30
0.0
 40
25.0
  1
570
  0
POINT
  5
1340
  8
DEFPOINTS
 62
     0
 10
-285.0
 20
186.535182
 30
0.0
  0
POINT
  5
1341
  8
DEFPOINTS
 62
     0
 10
285.0
 20
186.535182
 30
0.0
  0
POINT
  5
1342
  8
DEFPOINTS
 62
     0
 10
285.0
 20
-92.495584
 30
0.0
  0
ENDBLK
  5
FDD
  8
0
  0
BLOCK
  8
0
  2
*D3
 70
     1
 10
0.0
 20
0.0
 30
0.0
  3
*D3
  1

  0
LINE
  5
132F
  8
DIMENSION
 62
     0
 10
285.625
 20
1066.0
 30
0.0
 11
372.865983
 21
1066.0
 31
0.0
  0
LINE
  5
1330
  8
DIMENSION
 62
     0
 10
143.5
 20
1126.0
 30
0.0
 11
372.865983
 21
1126.0
 31
0.0
  0
LINE
  5
1331
  8
DIMENSION
 62
     0
 10
371.615983
 20
1041.0
 30
0.0
 11
371.615983
 21
1016.0
 31
0.0
  0
LINE
  5
1332
  8
DIMENSION
 62
     0
 10
371.615983
 20
1151.0
 30
0.0
 11
371.615983
 21
1242.47619
 31
0.0
  0
LINE
  5
1333
  8
DIMENSION
 62
     0
 10
371.615983
 20
1066.0
 30
0.0
 11
371.615983
 21
1126.0
 31
0.0
  0
SOLID
  5
1334
  8
DIMENSION
 62
     0
 10
367.449317
 20
1041.0
 30
0.0
 11
375.78265
 21
1041.0
 31
0.0
 12
371.615983
 22
1066.0
 32
0.0
 13
371.615983
 23
1066.0
 33
0.0
  0
SOLID
  5
1335
  8
DIMENSION
 62
     0
 10
367.449317
 20
1151.0
 30
0.0
 11
375.78265
 21
1151.0
 31
0.0
 12
371.615983
 22
1126.0
 32
0.0
 13
371.615983
 23
1126.0
 33
0.0
  0
TEXT
  5
1336
  8
0
 62
     0
 10
358.615983
 20
1189.0
 30
0.0
 40
25.0
  1
60
 50
90.0
  0
POINT
  5
1337
  8
DEFPOINTS
 62
     0
 10
285.0
 20
1066.0
 30
0.0
  0
POINT
  5
1338
  8
DEFPOINTS
 62
     0
 10
142.875
 20
1126.0
 30
0.0
  0
POINT
  5
1339
  8
DEFPOINTS
 62
     0
 10
371.615983
 20
1126.0
 30
0.0
  0
ENDBLK
  5
10AF
  8
0
  0
BLOCK
  8
0
  2
*D4
 70
     1
 10
0.0
 20
0.0
 30
0.0
  3
*D4
  1

  0
LINE
  5
1326
  8
DIMENSION
 62
     0
 10
285.0
 20
1033.723155
 30
0.0
 11
285.0
 21
1188.74128
 31
0.0
  0
LINE
  5
1327
  8
DIMENSION
 62
     0
 10
127.0
 20
1096.625
 30
0.0
 11
127.0
 21
1188.74128
 31
0.0
  0
LINE
  5
1328
  8
DIMENSION
 62
     0
 10
260.0
 20
1187.49128
 30
0.0
 11
152.0
 21
1187.49128
 31
0.0
  0
SOLID
  5
1329
  8
DIMENSION
 62
     0
 10
260.0
 20
1191.657946
 30
0.0
 11
260.0
 21
1183.324613
 31
0.0
 12
285.0
 22
1187.49128
 32
0.0
 13
285.0
 23
1187.49128
 33
0.0
  0
SOLID
  5
132A
  8
DIMENSION
 62
     0
 10
152.0
 20
1191.657946
 30
0.0
 11
152.0
 21
1183.324613
 31
0.0
 12
127.0
 22
1187.49128
 32
0.0
 13
127.0
 23
1187.49128
 33
0.0
  0
TEXT
  5
132B
  8
0
 62
     0
 10
176.238095
 20
1200.49128
 30
0.0
 40
25.0
  1
158
  0
POINT
  5
132C
  8
DEFPOINTS
 62
     0
 10
285.0
 20
1033.098155
 30
0.0
  0
POINT
  5
132D
  8
DEFPOINTS
 62
     0
 10
127.0
 20
1096.0
 30
0.0
  0
POINT
  5
132E
  8
DEFPOINTS
 62
     0
 10
127.0
 20
1187.49128
 30
0.0
  0
ENDBLK
  5
10C9
  8
0
  0
BLOCK
  8
0
  2
*D5
 70
     1
 10
0.0
 20
0.0
 30
0.0
  3
*D5
  1

  0
LINE
  5
131D
  8
DIMENSION
 62
     0
 10
285.0
 20
1043.182266
 30
0.0
 11
285.0
 21
1249.270772
 31
0.0
  0
LINE
  5
131E
  8
DIMENSION
 62
     0
 10
-70.0
 20
1126.625
 30
0.0
 11
-70.0
 21
1249.270772
 31
0.0
  0
LINE
  5
131F
  8
DIMENSION
 62
     0
 10
260.0
 20
1248.020772
 30
0.0
 11
-45.0
 21
1248.020772
 31
0.0
  0
SOLID
  5
1320
  8
DIMENSION
 62
     0
 10
260.0
 20
1252.187439
 30
0.0
 11
260.0
 21
1243.854106
 31
0.0
 12
285.0
 22
1248.020772
 32
0.0
 13
285.0
 23
1248.020772
 33
0.0
  0
SOLID
  5
1321
  8
DIMENSION
 62
     0
 10
-45.0
 20
1252.187439
 30
0.0
 11
-45.0
 21
1243.854106
 31
0.0
 12
-70.0
 22
1248.020772
 32
0.0
 13
-70.0
 23
1248.020772
 33
0.0
  0
TEXT
  5
1322
  8
0
 62
     0
 10
75.357143
 20
1261.020772
 30
0.0
 40
25.0
  1
355
  0
POINT
  5
1323
  8
DEFPOINTS
 62
     0
 10
285.0
 20
1042.557266
 30
0.0
  0
POINT
  5
1324
  8
DEFPOINTS
 62
     0
 10
-70.0
 20
1126.0
 30
0.0
  0
POINT
  5
1325
  8
DEFPOINTS
 62
     0
 10
-70.0
 20
1248.020772
 30
0.0
  0
ENDBLK
  5
10E1
  8
0
  0
ENDSEC
  0
SECTION
  2
ENTITIES
  0
ATTDEF
  5
2F
  8
STELATT
 10
-93.333333
 20
-400.986484
 30
0.0
 40
40.0
  1
GT6
 72
     4
 11
0.0
 21
-380.986484
 31
0.0
  3

  2
MODEL
 70
     2
  0
ATTDEF
  5
33
  8
STELATT
 10
-233.333333
 20
-270.986484
 30
0.0
 40
40.0
  1
IDEAL
 72
     4
 11
0.0
 21
-250.986484
 31
0.0
  3

  2
MANUFACTURER
 70
     2
  0
ATTDEF
  5
6A
  8
STELATT
 10
-68.571429
 20
-335.986484
 30
0.0
 40
40.0
  1
BUCCANEER
 72
     4
 11
0.0
 21
-315.986484
 31
0.0
  3

  2
TYPE
 70
     2
  0
POLYLINE
  5
6F
  8
ORIGIN
 66
     1
 10
0.0
 20
0.0
 30
0.0
 70
     1
  0
VERTEX
  5
14F8
  8
ORIGIN
 10
37.5
 20
-37.5
 30
0.0
  0
VERTEX
  5
14F9
  8
ORIGIN
 10
-37.5
 20
37.5
 30
0.0
  0
VERTEX
  5
14FA
  8
ORIGIN
 10
-37.5
 20
-37.5
 30
0.0
  0
VERTEX
  5
14FB
  8
ORIGIN
 10
37.5
 20
37.5
 30
0.0
  0
SEQEND
  5
14FC
  8
ORIGIN
  0
LINE
  5
487
  8
CENTER
  6
CENTER
 10
0.0
 20
1066.0
 30
0.0
 11
0.0
 21
1126.0
 31
0.0
  0
LINE
  5
49D
  8
CENTER
  6
CENTER
 10
-70.0
 20
1066.0
 30
0.0
 11
-70.0
 21
1126.0
 31
0.0
  0
LINE
  5
4AE
  8
CENTER
  6
CENTER
 10
127.0
 20
1066.0
 30
0.0
 11
127.0
 21
1126.0
 31
0.0
  0
TEXT
  5
4C0
  8
STELTXT
 10
6450.954798
 20
2831.230363
 30
0.0
 40
25.0
  1
 
  0
TEXT
  5
4C1
  8
STELTXT
 10
6459.385829
 20
1992.812349
 30
0.0
 40
25.0
  1
 
  0
LINE
  5
D12
  8
DETAIL
 10
219.0
 20
0.0
 30
0.0
 11
-219.0
 21
0.0
 31
0.0
  0
LINE
  5
D13
  8
DETAIL
 10
-285.0
 20
1066.0
 30
0.0
 11
285.0
 21
1066.0
 31
0.0
  0
LINE
  5
D15
  8
DETAIL
 10
-285.0
 20
120.0
 30
0.0
 11
-285.0
 21
1066.0
 31
0.0
  0
LINE
  5
D17
  8
DETAIL
 10
285.0
 20
1066.0
 30
0.0
 11
285.0
 21
120.0
 31
0.0
  0
LINE
  5
D18
  8
DETAIL
 10
219.0
 20
1066.0
 30
0.0
 11
219.0
 21
0.0
 31
0.0
  0
LINE
  5
D19
  8
DETAIL
 10
-219.0
 20
1066.0
 30
0.0
 11
-219.0
 21
0.0
 31
0.0
  0
LINE
  5
D1F
  8
DETAIL
 10
-76.5
 20
1160.0
 30
0.0
 11
76.5
 21
1160.0
 31
0.0
  0
LINE
  5
D26
  8
DETAIL
 10
-54.125
 20
1066.0
 30
0.0
 11
-54.125
 21
1126.0
 31
0.0
  0
LINE
  5
D27
  8
DETAIL
 10
-85.875
 20
1066.0
 30
0.0
 11
-85.875
 21
1126.0
 31
0.0
  0
LINE
  5
D28
  8
DETAIL
 10
-85.875
 20
1126.0
 30
0.0
 11
-54.125
 21
1126.0
 31
0.0
  0
LINE
  5
D29
  8
DETAIL
 10
76.5
 20
1160.0
 30
0.0
 11
76.5
 21
1066.0
 31
0.0
  0
LINE
  5
D2E
  8
DETAIL
 10
111.125
 20
1126.0
 30
0.0
 11
111.125
 21
1066.0
 31
0.0
  0
LINE
  5
D2F
  8
DETAIL
 10
142.875
 20
1126.0
 30
0.0
 11
142.875
 21
1066.0
 31
0.0
  0
LINE
  5
D30
  8
DETAIL
 10
111.125
 20
1126.0
 30
0.0
 11
142.875
 21
1126.0
 31
0.0
  0
LINE
  5
D42
  8
PLANNING
 10
785.0
 20
-880.0
 30
0.0
 11
-785.0
 21
-880.0
 31
0.0
  0
LINE
  5
D43
  8
PLANNING
 10
-785.0
 20
-880.0
 30
0.0
 11
-785.0
 21
1566.0
 31
0.0
  0
LINE
  5
D72
  8
PLANNING
 10
785.0
 20
1566.0
 30
0.0
 11
-785.0
 21
1566.0
 31
0.0
  0
LINE
  5
D8F
  8
PLANNING
 10
785.0
 20
1566.0
 30
0.0
 11
785.0
 21
-880.0
 31
0.0
  0
LINE
  5
EA7
  8
DETAIL
  6
DASHED
 10
-7.0
 20
1066.0
 30
0.0
 11
-7.0
 21
1126.0
 31
0.0
  0
LINE
  5
EA8
  8
DETAIL
  6
DASHED
 10
-7.0
 20
1126.0
 30
0.0
 11
7.0
 21
1126.0
 31
0.0
  0
LINE
  5
EA9
  8
DETAIL
  6
DASHED
 10
7.0
 20
1126.0
 30
0.0
 11
7.0
 21
1066.0
 31
0.0
  0
LINE
  5
EEB
  8
DETAIL
 10
-285.0
 20
250.0
 30
0.0
 11
285.0
 21
250.0
 31
0.0
  0
ARC
  5
F25
  8
DETAIL
 10
-103.166093
 20
141.858649
 30
0.0
 40
183.143032
 50
186.854757
 51
230.76683
  0
ARC
  5
F28
  8
DETAIL
 10
103.166093
 20
141.858649
 30
0.0
 40
183.143032
 50
309.23317
 51
353.145243
  0
DIMENSION
  5
F85
  8
DIMENSION
  2
*D0
 10
-469.738731
 20
0.0
 30
0.0
 11
-495.238731
 21
533.0
 31
0.0
 70
     0
 13
-285.0
 23
1066.0
 33
0.0
 14
-219.0
 24
0.0
 34
0.0
 50
90.0
  0
DIMENSION
  5
F9D
  8
DIMENSION
  2
*D1
 10
-398.695587
 20
120.0
 30
0.0
 11
-424.195587
 21
593.0
 31
0.0
 70
     0
 13
-285.625
 23
1066.0
 33
0.0
 14
-285.0
 24
120.0
 34
0.0
 50
90.0
  0
DIMENSION
  5
FD1
  8
DIMENSION
  2
*D2
 10
285.0
 20
-92.495584
 30
0.0
 11
0.0
 21
-66.995584
 31
0.0
 70
     0
 13
-285.0
 23
186.535182
 33
0.0
 14
285.0
 24
186.535182
 34
0.0
  0
TEXT
  5
1020
  8
STELTXT
 10
-738.638453
 20
1153.387793
 30
0.0
 40
25.0
  1
%%C1 " THREADED
  0
TEXT
  5
1021
  8
STELTXT
 10
-738.638453
 20
1432.411048
 30
0.0
 40
25.0
  1
HEATING RETURN
  0
TEXT
  5
1023
  8
STELTXT
 10
-685.663093
 20
1153.543471
 30
0.0
 40
15.0
  1
4
  0
TEXT
  5
1024
  8
STELTXT
 10
-696.849883
 20
1157.949792
 30
0.0
 40
15.0
  1
/
  0
TEXT
  5
1025
  8
STELTXT
 10
-701.936492
 20
1162.357621
 30
0.0
 40
15.0
  1
1
  0
TEXT
  5
1026
  8
STELTXT
 10
-736.14193
 20
1344.392212
 30
0.0
 40
25.0
  1
14mm DRAIN COCK
  0
TEXT
  5
1027
  8
STELTXT
 10
-734.580449
 20
1240.614113
 30
0.0
 40
25.0
  1
FLUE OUTLET %%C125mm
  0
TEXT
  5
1032
  8
STELTXT
 10
-685.663093
 20
1472.566726
 30
0.0
 40
15.0
  1
4
  0
TEXT
  5
1033
  8
STELTXT
 10
-696.849883
 20
1476.973046
 30
0.0
 40
15.0
  1
/
  0
TEXT
  5
1034
  8
STELTXT
 10
-738.638453
 20
1472.411048
 30
0.0
 40
25.0
  1
%%C1 " THREADED
  0
TEXT
  5
1035
  8
STELTXT
 10
-738.638453
 20
1113.387793
 30
0.0
 40
25.0
  1
HEATING FLOW
  0
TEXT
  5
1036
  8
STELTXT
 10
-701.936492
 20
1481.380876
 30
0.0
 40
15.0
  1
1
  0
POLYLINE
  8
STELTXT
  5
14FD
  66
     1
 10
0.000000
 20
0.000000
 30
0.000000
  70
     8
  0
VERTEX
  8
STELTXT
  5
14FE
 10
-3.12544
 20
1126.17
 30
0.000000
  70
    32
  0
VERTEX
  8
STELTXT
  5
14FF
 10
-321.049
 20
1355.95
 30
0.000000
  70
    32
  0
VERTEX
  8
STELTXT
  5
1500
 10
-353.281
 20
1355.95
 30
0.000000
  70
    32
  0
SEQEND
  8
STELTXT
  5
1501
  0
POLYLINE
  8
STELTXT
  5
1502
  66
     1
 10
0.000000
 20
0.000000
 30
0.000000
  70
     8
  0
VERTEX
  8
STELTXT
  5
1503
 10
124.491
 20
1131.76
 30
0.000000
  70
    32
  0
VERTEX
  8
STELTXT
  5
1504
 10
-387.490
 20
1489.79
 30
0.000000
  70
    32
  0
VERTEX
  8
STELTXT
  5
1505
 10
-416.780
 20
1489.79
 30
0.000000
  70
    32
  0
SEQEND
  8
STELTXT
  5
1506
  0
POLYLINE
  8
STELTXT
  5
1507
  66
     1
 10
0.000000
 20
0.000000
 30
0.000000
  70
     8
  0
VERTEX
  8
STELTXT
  5
1508
 10
-90.3530
 20
1096.39
 30
0.000000
  70
    32
  0
VERTEX
  8
STELTXT
  5
1509
 10
-395.737
 20
1166.66
 30
0.000000
  70
    32
  0
VERTEX
  8
STELTXT
  5
150A
 10
-425.027
 20
1166.66
 30
0.000000
  70
    32
  0
SEQEND
  8
STELTXT
  5
150B
  0
POLYLINE
  8
STELTXT
  5
150C
  66
     1
 10
0.000000
 20
0.000000
 30
0.000000
  70
     8
  0
VERTEX
  8
STELTXT
  5
150D
 10
-51.7681
 20
1130.46
 30
0.000000
  70
    32
  0
VERTEX
  8
STELTXT
  5
150E
 10
-263.927
 20
1248.36
 30
0.000000
  70
    32
  0
VERTEX
  8
STELTXT
  5
150F
 10
-293.217
 20
1248.36
 30
0.000000
  70
    32
  0
SEQEND
  8
STELTXT
  5
1510
  0
DIMENSION
  5
10A1
  8
DIMENSION
  2
*D3
 10
371.615983
 20
1126.0
 30
0.0
 11
346.115983
 21
1209.238095
 31
0.0
 70
     0
 13
285.0
 23
1066.0
 33
0.0
 14
142.875
 24
1126.0
 34
0.0
 50
90.0
  0
DIMENSION
  5
10BD
  8
DIMENSION
  2
*D4
 10
127.0
 20
1187.49128
 30
0.0
 11
206.0
 21
1212.99128
 31
0.0
 70
     0
 13
285.0
 23
1033.098155
 33
0.0
 14
127.0
 24
1096.0
 34
0.0
  0
DIMENSION
  5
10D5
  8
DIMENSION
  2
*D5
 10
-70.0
 20
1248.020772
 30
0.0
 11
107.5
 21
1273.520772
 31
0.0
 70
     0
 13
285.0
 23
1042.557266
 33
0.0
 14
-70.0
 24
1126.0
 34
0.0
  0
LINE
  5
1264
  8
DETAIL
 10
-76.5
 20
1160.0
 30
0.0
 11
-76.5
 21
1126.0
 31
0.0
  0
ENDSEC
  0
EOF
