  0
SECTION
  2
HEADER
  9
$ACADVER
  1
AC1009
  9
$INSBASE
 10
0.0
 20
0.0
 30
0.0
  9
$EXTMIN
 10
-480.06935
 20
214.20165
 30
0.0
  9
$EXTMAX
 10
1212.307109
 20
1740.003406
 30
0.0
  9
$LIMMIN
 10
0.0
 20
0.0
  9
$LIMMAX
 10
12.0
 20
9.0
  9
$ORTHOMODE
 70
     1
  9
$REGENMODE
 70
     1
  9
$FILLMODE
 70
     1
  9
$QTEXTMODE
 70
     0
  9
$MIRRTEXT
 70
     0
  9
$DRAGMODE
 70
     2
  9
$LTSCALE
 40
50.0
  9
$OSMODE
 70
     0
  9
$ATTMODE
 70
     1
  9
$TEXTSIZE
 40
25.0
  9
$TRACEWID
 40
0.05
  9
$TEXTSTYLE
  7
STANDARD
  9
$CLAYER
  8
0
  9
$CELTYPE
  6
BYLAYER
  9
$CECOLOR
 62
   256
  9
$DIMSCALE
 40
1.0
  9
$DIMASZ
 40
25.0
  9
$DIMEXO
 40
20.0
  9
$DIMDLI
 40
0.38
  9
$DIMRND
 40
0.0
  9
$DIMDLE
 40
0.0
  9
$DIMEXE
 40
20.0
  9
$DIMTP
 40
0.0
  9
$DIMTM
 40
0.0
  9
$DIMTXT
 40
25.0
  9
$DIMCEN
 40
0.09
  9
$DIMTSZ
 40
0.0
  9
$DIMTOL
 70
     0
  9
$DIMLIM
 70
     0
  9
$DIMTIH
 70
     0
  9
$DIMTOH
 70
     0
  9
$DIMSE1
 70
     0
  9
$DIMSE2
 70
     0
  9
$DIMTAD
 70
     1
  9
$DIMZIN
 70
     0
  9
$DIMBLK
  1

  9
$DIMASO
 70
     1
  9
$DIMSHO
 70
     1
  9
$DIMPOST
  1

  9
$DIMAPOST
  1

  9
$DIMALT
 70
     0
  9
$DIMALTD
 70
     2
  9
$DIMALTF
 40
25.4
  9
$DIMLFAC
 40
1.0
  9
$DIMTOFL
 70
     0
  9
$DIMTVP
 40
0.0
  9
$DIMTIX
 70
     0
  9
$DIMSOXD
 70
     0
  9
$DIMSAH
 70
     0
  9
$DIMBLK1
  1

  9
$DIMBLK2
  1

  9
$DIMSTYLE
  2
STANDARD
  9
$DIMCLRD
 70
     0
  9
$DIMCLRE
 70
     0
  9
$DIMCLRT
 70
     0
  9
$DIMTFAC
 40
1.0
  9
$DIMGAP
 40
10.0
  9
$LUNITS
 70
     2
  9
$LUPREC
 70
     4
  9
$SKETCHINC
 40
0.1
  9
$FILLETRAD
 40
0.0
  9
$AUNITS
 70
     0
  9
$AUPREC
 70
     0
  9
$MENU
  1
.
  9
$ELEVATION
 40
0.0
  9
$PELEVATION
 40
0.0
  9
$THICKNESS
 40
0.0
  9
$LIMCHECK
 70
     0
  9
$BLIPMODE
 70
     0
  9
$CHAMFERA
 40
0.5
  9
$CHAMFERB
 40
0.5
  9
$SKPOLY
 70
     1
  9
$TDCREATE
 40
2451256.323024
  9
$TDUPDATE
 40
2453073.53369
  9
$TDINDWG
 40
0.12733
  9
$TDUSRTIMER
 40
0.12733
  9
$USRTIMER
 70
     1
  9
$ANGBASE
 50
0.0
  9
$ANGDIR
 70
     0
  9
$PDMODE
 70
     0
  9
$PDSIZE
 40
0.0
  9
$PLINEWID
 40
0.0
  9
$COORDS
 70
     1
  9
$SPLFRAME
 70
     0
  9
$SPLINETYPE
 70
     6
  9
$SPLINESEGS
 70
     8
  9
$ATTDIA
 70
     0
  9
$ATTREQ
 70
     1
  9
$HANDLING
 70
 22529
  9
$HANDSEED
  5
91B
  9
$SURFTAB1
 70
     6
  9
$SURFTAB2
 70
     6
  9
$SURFTYPE
 70
     6
  9
$SURFU
 70
     6
  9
$SURFV
 70
     6
  9
$UCSNAME
  2

  9
$UCSORG
 10
0.0
 20
0.0
 30
0.0
  9
$UCSXDIR
 10
1.0
 20
0.0
 30
0.0
  9
$UCSYDIR
 10
0.0
 20
1.0
 30
0.0
  9
$PUCSNAME
  2

  9
$PUCSORG
 10
0.0
 20
0.0
 30
0.0
  9
$PUCSXDIR
 10
1.0
 20
0.0
 30
0.0
  9
$PUCSYDIR
 10
0.0
 20
1.0
 30
0.0
  9
$USERI1
 70
     0
  9
$USERI2
 70
     0
  9
$USERI3
 70
     0
  9
$USERI4
 70
     0
  9
$USERI5
 70
     0
  9
$USERR1
 40
0.0
  9
$USERR2
 40
0.0
  9
$USERR3
 40
0.0
  9
$USERR4
 40
0.0
  9
$USERR5
 40
0.0
  9
$WORLDVIEW
 70
     1
  9
$SHADEDGE
 70
     3
  9
$SHADEDIF
 70
    70
  9
$TILEMODE
 70
     1
  9
$MAXACTVP
 70
    48
  9
$PLIMCHECK
 70
     0
  9
$PEXTMIN
 10
1.000000E+020
 20
1.000000E+020
 30
1.000000E+020
  9
$PEXTMAX
 10
-1.000000E+020
 20
-1.000000E+020
 30
-1.000000E+020
  9
$PLIMMIN
 10
0.0
 20
0.0
  9
$PLIMMAX
 10
12.0
 20
9.0
  9
$UNITMODE
 70
     0
  9
$VISRETAIN
 70
     1
  9
$PLINEGEN
 70
     0
  9
$PSLTSCALE
 70
     1
  0
ENDSEC
  0
SECTION
  2
TABLES
  0
TABLE
  2
VPORT
 70
     2
  0
VPORT
  2
*ACTIVE
 70
     0
 10
0.0
 20
0.0
 11
1.0
 21
1.0
 12
366.118879
 22
977.102528
 13
0.0
 23
0.0
 14
0.5
 24
0.5
 15
0.5
 25
0.5
 16
0.0
 26
0.0
 36
1.0
 17
0.0
 27
0.0
 37
0.0
 40
1543.37337
 41
1.825
 42
50.0
 43
0.0
 44
0.0
 50
0.0
 51
0.0
 71
     0
 72
   100
 73
     1
 74
     0
 75
     0
 76
     0
 77
     0
 78
     0
  0
ENDTAB
  0
TABLE
  2
LTYPE
 70
     3
  0
LTYPE
  2
CONTINUOUS
 70
     0
  3
Solid line
 72
    65
 73
     0
 40
0.0
  0
LTYPE
  2
CENTER
 70
     0
  3
____ _ ____ _ ____ _ ____ _ ____ _ ____ _ ____
 72
    65
 73
     4
 40
2.0
 49
1.25
 49
-0.25
 49
0.25
 49
-0.25
  0
LTYPE
  2
DASHED
 70
     0
  3
Dashed __ __ __ __ __ __ __ __ __ __ __ __ __ _
 72
    65
 73
     2
 40
0.75
 49
0.5
 49
-0.25
  0
ENDTAB
  0
TABLE
  2
LAYER
 70
     9
  0
LAYER
  2
0
 70
     0
 62
     7
  6
CONTINUOUS
  0
LAYER
  2
DETAIL
 70
     0
 62
     2
  6
CONTINUOUS
  0
LAYER
  2
DIMENSIONS
 70
     0
 62
     7
  6
CONTINUOUS
  0
LAYER
  2
CENTER
 70
     0
 62
     4
  6
CENTER
  0
LAYER
  2
ORIGIN
 70
     0
 62
     6
  6
CONTINUOUS
  0
LAYER
  2
STELTXT
 70
     0
 62
     4
  6
CONTINUOUS
  0
LAYER
  2
STELATT
 70
     0
 62
     7
  6
CONTINUOUS
  0
LAYER
  2
DEFPOINTS
 70
     0
 62
     7
  6
CONTINUOUS
  0
LAYER
  2
PLANNING
 70
     0
 62
     1
  6
DASHED
  0
ENDTAB
  0
TABLE
  2
STYLE
 70
     1
  0
STYLE
  2
STANDARD
 70
     0
 40
0.0
 41
1.0
 50
0.0
 71
     0
 42
25.0
  3
simplex.shx
  4

  0
ENDTAB
  0
TABLE
  2
VIEW
 70
     0
  0
ENDTAB
  0
TABLE
  2
UCS
 70
     0
  0
ENDTAB
  0
TABLE
  2
APPID
 70
     1
  0
APPID
  2
ACAD
 70
     0
  0
ENDTAB
  0
TABLE
  2
DIMSTYLE
 70
     1
  0
DIMSTYLE
  2
STANDARD
 70
     0
  3

  4

  5

  6

  7

 40
1.0
 41
25.0
 42
20.0
 43
0.38
 44
20.0
 45
0.0
 46
0.0
 47
0.0
 48
0.0
140
25.0
141
0.09
142
0.0
143
25.4
144
1.0
145
0.0
146
1.0
147
10.0
 71
     0
 72
     0
 73
     0
 74
     0
 75
     0
 76
     0
 77
     1
 78
     0
170
     0
171
     2
172
     0
173
     0
174
     0
175
     0
176
     0
177
     0
178
     0
  0
ENDTAB
  0
ENDSEC
  0
SECTION
  2
BLOCKS
  0
BLOCK
  8
0
  2
$MODEL_SPACE
 70
     0
 10
0.0
 20
0.0
 30
0.0
  3
$MODEL_SPACE
  1

  0
ENDBLK
  5
153
  8
0
  0
BLOCK
 67
     1
  8
0
  2
$PAPER_SPACE
 70
     0
 10
0.0
 20
0.0
 30
0.0
  3
$PAPER_SPACE
  1

  0
ENDBLK
  5
150
 67
     1
  8
0
  0
BLOCK
  8
0
  2
*D0
 70
     1
 10
0.0
 20
0.0
 30
0.0
  3
*D0
  1

  0
LINE
  5
DF
  8
0
  6
BYBLOCK
 62
     0
 10
-1843.58946
 20
582.599295
 30
0.0
 11
-1843.58946
 21
848.256557
 31
0.0
  0
LINE
  5
E0
  8
0
  6
BYBLOCK
 62
     0
 10
-1283.58946
 20
582.599295
 30
0.0
 11
-1283.58946
 21
848.256557
 31
0.0
  0
LINE
  5
E1
  8
0
  6
BYBLOCK
 62
     0
 10
-1818.58946
 20
828.256557
 30
0.0
 11
-1308.58946
 21
828.256557
 31
0.0
  0
SOLID
  5
E2
  8
0
  6
BYBLOCK
 62
     0
 10
-1818.58946
 20
832.423223
 30
0.0
 11
-1818.58946
 21
824.08989
 31
0.0
 12
-1843.58946
 22
828.256557
 32
0.0
 13
-1843.58946
 23
828.256557
 33
0.0
  0
SOLID
  5
E3
  8
0
  6
BYBLOCK
 62
     0
 10
-1308.58946
 20
832.423223
 30
0.0
 11
-1308.58946
 21
824.08989
 31
0.0
 12
-1283.58946
 22
828.256557
 32
0.0
 13
-1283.58946
 23
828.256557
 33
0.0
  0
TEXT
  5
E4
  8
0
  6
BYBLOCK
 62
     0
 10
-1595.732317
 20
838.256557
 30
0.0
 40
25.0
  1
560
  0
POINT
  5
E5
  8
DEFPOINTS
  6
BYBLOCK
 62
     0
 10
-1843.58946
 20
562.599295
 30
0.0
  0
POINT
  5
E6
  8
DEFPOINTS
  6
BYBLOCK
 62
     0
 10
-1283.58946
 20
562.599295
 30
0.0
  0
POINT
  5
E7
  8
DEFPOINTS
  6
BYBLOCK
 62
     0
 10
-1283.58946
 20
828.256557
 30
0.0
  0
ENDBLK
  5
E9
  8
0
  0
BLOCK
  8
0
  2
*D1
 70
     1
 10
0.0
 20
0.0
 30
0.0
  3
*D1
  1

  0
LINE
  5
D2
  8
0
  6
BYBLOCK
 62
     0
 10
-1638.58946
 20
475.425664
 30
0.0
 11
-1638.58946
 21
774.99568
 31
0.0
  0
LINE
  5
D3
  8
0
  6
BYBLOCK
 62
     0
 10
-1843.58946
 20
582.599295
 30
0.0
 11
-1843.58946
 21
774.99568
 31
0.0
  0
LINE
  5
D4
  8
0
  6
BYBLOCK
 62
     0
 10
-1663.58946
 20
754.99568
 30
0.0
 11
-1818.58946
 21
754.99568
 31
0.0
  0
SOLID
  5
D5
  8
0
  6
BYBLOCK
 62
     0
 10
-1663.58946
 20
759.162347
 30
0.0
 11
-1663.58946
 21
750.829014
 31
0.0
 12
-1638.58946
 22
754.99568
 32
0.0
 13
-1638.58946
 23
754.99568
 33
0.0
  0
SOLID
  5
D6
  8
0
  6
BYBLOCK
 62
     0
 10
-1818.58946
 20
759.162347
 30
0.0
 11
-1818.58946
 21
750.829014
 31
0.0
 12
-1843.58946
 22
754.99568
 32
0.0
 13
-1843.58946
 23
754.99568
 33
0.0
  0
TEXT
  5
D7
  8
0
  6
BYBLOCK
 62
     0
 10
-1773.232317
 20
764.99568
 30
0.0
 40
25.0
  1
205
  0
POINT
  5
D8
  8
DEFPOINTS
  6
BYBLOCK
 62
     0
 10
-1638.58946
 20
455.425664
 30
0.0
  0
POINT
  5
D9
  8
DEFPOINTS
  6
BYBLOCK
 62
     0
 10
-1843.58946
 20
562.599295
 30
0.0
  0
POINT
  5
DA
  8
DEFPOINTS
  6
BYBLOCK
 62
     0
 10
-1843.58946
 20
754.99568
 30
0.0
  0
ENDBLK
  5
DC
  8
0
  0
BLOCK
  8
0
  2
*D2
 70
     1
 10
0.0
 20
0.0
 30
0.0
  3
*D2
  1

  0
LINE
  5
5FB
  8
0
  6
BYBLOCK
 62
     0
 10
366.0
 20
1158.0
 30
0.0
 11
366.0
 21
1651.662854
 31
0.0
  0
LINE
  5
5FC
  8
0
  6
BYBLOCK
 62
     0
 10
580.0
 20
1459.266469
 30
0.0
 11
580.0
 21
1651.662854
 31
0.0
  0
LINE
  5
5FD
  8
0
  6
BYBLOCK
 62
     0
 10
391.0
 20
1631.662854
 30
0.0
 11
555.0
 21
1631.662854
 31
0.0
  0
SOLID
  5
5FE
  8
0
  6
BYBLOCK
 62
     0
 10
391.0
 20
1635.829521
 30
0.0
 11
391.0
 21
1627.496187
 31
0.0
 12
366.0
 22
1631.662854
 32
0.0
 13
366.0
 23
1631.662854
 33
0.0
  0
SOLID
  5
5FF
  8
0
  6
BYBLOCK
 62
     0
 10
555.0
 20
1635.829521
 30
0.0
 11
555.0
 21
1627.496187
 31
0.0
 12
580.0
 22
1631.662854
 32
0.0
 13
580.0
 23
1631.662854
 33
0.0
  0
TEXT
  5
600
  8
0
 62
     0
 10
442.642857
 20
1641.662854
 30
0.0
 40
25.0
  1
214
  0
POINT
  5
601
  8
DEFPOINTS
  6
BYBLOCK
 62
     0
 10
366.0
 20
1138.0
 30
0.0
  0
POINT
  5
602
  8
DEFPOINTS
  6
BYBLOCK
 62
     0
 10
580.0
 20
1439.266469
 30
0.0
  0
POINT
  5
603
  8
DEFPOINTS
  6
BYBLOCK
 62
     0
 10
580.0
 20
1631.662854
 30
0.0
  0
ENDBLK
  5
604
  8
0
  0
ENDSEC
  0
SECTION
  2
ENTITIES
  0
LINE
  5
3D
  8
DETAIL
 10
406.476078
 20
1099.570733
 30
0.0
 11
406.476078
 21
841.402001
 31
0.0
  0
LINE
  5
3F
  8
DETAIL
 10
460.864465
 20
723.640809
 30
0.0
 11
460.864465
 21
1172.03915
 31
0.0
  0
LINE
  5
40
  8
DETAIL
 10
580.0
 20
570.100503
 30
0.0
 11
580.0
 21
1439.266469
 31
0.0
  0
LINE
  5
41
  8
DETAIL
 10
490.324814
 20
1537.0
 30
0.0
 11
490.324814
 21
1007.47937
 31
0.0
  0
LINE
  5
4F
  8
DETAIL
 10
193.523922
 20
1099.570733
 30
0.0
 11
193.523922
 21
841.402001
 31
0.0
  0
LINE
  5
50
  8
DETAIL
 10
139.135535
 20
723.640809
 30
0.0
 11
139.135535
 21
1172.03915
 31
0.0
  0
LINE
  5
51
  8
DETAIL
 10
20.0
 20
1439.266469
 30
0.0
 11
20.0
 21
570.100503
 31
0.0
  0
LINE
  5
52
  8
DETAIL
 10
109.675186
 20
1537.0
 30
0.0
 11
109.675186
 21
570.100503
 31
0.0
  0
LINE
  5
6D
  8
PLANNING
 10
-480.0
 20
550.0
 30
0.0
 11
1080.0
 21
550.0
 31
0.0
  0
POLYLINE
  5
7C
  8
ORIGIN
 66
     1
 10
0.0
 20
0.0
 30
0.0
  0
VERTEX
  5
8EA
  8
ORIGIN
 10
24.761905
 20
575.338598
 30
0.0
  0
VERTEX
  5
8EB
  8
ORIGIN
 10
-75.238095
 20
465.338598
 30
0.0
  0
VERTEX
  5
8EC
  8
ORIGIN
 10
-75.238095
 20
665.338598
 30
0.0
  0
VERTEX
  5
8ED
  8
ORIGIN
 10
124.761905
 20
465.338598
 30
0.0
  0
VERTEX
  5
8EE
  8
ORIGIN
 10
124.761905
 20
665.338598
 30
0.0
  0
VERTEX
  5
8EF
  8
ORIGIN
 10
24.761905
 20
575.338598
 30
0.0
  0
SEQEND
  5
8F0
  8
ORIGIN
  0
ATTDEF
  5
7E
  8
STELATT
 10
66.778608
 20
354.246096
 30
0.0
 40
40.0
  1
IDEAL
 72
     4
 11
300.111941
 21
374.246096
 31
0.0
  3

  2
MANUFACTURER
 70
     2
  0
ATTDEF
  5
80
  8
STELATT
 10
206.778608
 20
214.246096
 30
0.0
 40
40.0
  1
GTE 5
 72
     4
 11
300.111941
 21
234.246096
 31
0.0
  3

  2
MODEL
 70
     2
  0
ATTDEF
  5
81
  8
STELATT
 10
231.540512
 20
284.246096
 30
0.0
 40
40.0
  1
FALCON GTE
 72
     4
 11
300.111941
 21
304.246096
 31
0.0
  3

  2
TYPE
 70
     2
  0
CIRCLE
  5
8F
  8
DETAIL
 10
363.63961
 20
973.63961
 30
0.0
 40
6.388446
  0
CIRCLE
  5
90
  8
DETAIL
 10
363.63961
 20
846.36039
 30
0.0
 40
6.388446
  0
LINE
  5
91
  8
DETAIL
 10
225.181508
 20
809.697066
 30
0.0
 11
374.818492
 21
809.697066
 31
0.0
  0
CIRCLE
  5
92
  8
DETAIL
 10
300.0
 20
910.0
 30
0.0
 40
75.0
  0
LINE
  5
93
  8
CENTER
 10
209.387207
 20
910.0
 30
0.0
 11
388.415589
 21
910.0
 31
0.0
  0
LINE
  5
96
  8
DETAIL
 10
109.675186
 20
723.640809
 30
0.0
 11
490.324814
 21
723.640809
 31
0.0
  0
LINE
  5
97
  8
DETAIL
 10
20.0
 20
570.100503
 30
0.0
 11
580.0
 21
570.100503
 31
0.0
  0
LINE
  5
9C
  8
DETAIL
 10
111.831787
 20
550.0
 30
0.0
 11
158.168213
 21
550.0
 31
0.0
  0
ARC
  5
9F
  8
DETAIL
 10
111.831787
 20
575.0
 30
0.0
 40
25.0
 50
191.301972
 51
270.0
  0
ARC
  5
A5
  8
DETAIL
 10
158.168213
 20
575.0
 30
0.0
 40
25.0
 50
270.0
 51
348.698028
  0
LINE
  5
A6
  8
CENTER
 10
300.0
 20
818.755613
 30
0.0
 11
300.0
 21
999.926655
 31
0.0
  0
CIRCLE
  5
A7
  8
DETAIL
 10
236.36039
 20
846.36039
 30
0.0
 40
6.388446
  0
LINE
  5
A8
  8
DETAIL
 10
225.181508
 20
809.697066
 30
0.0
 11
193.523922
 21
841.402001
 31
0.0
  0
CIRCLE
  5
A9
  8
DETAIL
 10
236.36039
 20
973.63961
 30
0.0
 40
6.388446
  0
ARC
  5
AB
  8
DETAIL
 10
488.168213
 20
575.0
 30
0.0
 40
25.0
 50
270.0
 51
348.698028
  0
ARC
  5
AF
  8
DETAIL
 10
441.831787
 20
575.0
 30
0.0
 40
25.0
 50
191.301972
 51
270.0
  0
LINE
  5
B3
  8
DETAIL
 10
488.168213
 20
550.0
 30
0.0
 11
441.831787
 21
550.0
 31
0.0
  0
LINE
  5
BB
  8
DETAIL
 10
374.818492
 20
809.697066
 30
0.0
 11
406.476078
 21
841.402001
 31
0.0
  0
LINE
  5
BF
  8
PLANNING
 10
102.876621
 20
1537.0
 30
0.0
 11
-480.0
 21
1537.0
 31
0.0
  0
TEXT
  5
C0
  8
STELTXT
 10
-328.357501
 20
1438.724869
 30
0.0
 40
25.0
  1
%%c1 " HEATING
  0
TEXT
  5
C1
  8
STELTXT
 10
658.444485
 20
1301.403804
 30
0.0
 40
25.0
  1
153%%C FLUE OUTLET
  0
LINE
  5
C2
  8
PLANNING
 10
497.123379
 20
1537.0
 30
0.0
 11
1080.0
 21
1537.0
 31
0.0
  0
DIMENSION
  5
C3
  8
DIMENSIONS
  2
*D2
 10
580.0
 20
1631.662854
 30
0.0
 11
473.0
 21
1654.162854
 31
0.0
 70
     0
 13
366.0
 23
1138.0
 33
0.0
 14
580.0
 24
1439.266469
 34
0.0
1001
ACAD
1000
DSTYLE
1002
{
1070
   271
1070
     0
1002
}
  0
DIMENSION
  5
D0
  8
DIMENSIONS
  2
*D1
 10
20.0
 20
1631.662854
 30
0.0
 11
122.5
 21
1654.162854
 31
0.0
 12
1863.58946
 22
876.667174
 32
0.0
 13
225.0
 23
1332.092838
 33
0.0
 14
20.0
 24
1439.266469
 34
0.0
  0
DIMENSION
  5
DD
  8
DIMENSIONS
  2
*D0
 10
580.0
 20
1704.92373
 30
0.0
 11
300.0
 21
1727.42373
 31
0.0
 12
1863.58946
 22
876.667174
 32
0.0
 13
20.0
 23
1439.266469
 33
0.0
 14
580.0
 24
1439.266469
 34
0.0
  0
POLYLINE
  5
EC
  8
DETAIL
 66
     1
 10
0.0
 20
0.0
 30
0.0
 70
     1
  0
VERTEX
  5
8F1
  8
DETAIL
 10
361.630428
 20
1444.187088
 30
0.0
  0
VERTEX
  5
8F2
  8
DETAIL
 10
418.75441
 20
1444.187088
 30
0.0
  0
VERTEX
  5
8F3
  8
DETAIL
 10
418.75441
 20
1418.091061
 30
0.0
  0
VERTEX
  5
8F4
  8
DETAIL
 10
361.630428
 20
1418.091061
 30
0.0
  0
SEQEND
  5
8F5
  8
DETAIL
  0
POLYLINE
  5
ED
  8
DETAIL
 66
     1
 10
0.0
 20
0.0
 30
0.0
 70
     1
  0
VERTEX
  5
8F6
  8
DETAIL
 10
365.710715
 20
1505.349653
 30
0.0
  0
VERTEX
  5
8F7
  8
DETAIL
 10
413.858072
 20
1505.349653
 30
0.0
  0
VERTEX
  5
8F8
  8
DETAIL
 10
413.858072
 20
1484.962131
 30
0.0
  0
VERTEX
  5
8F9
  8
DETAIL
 10
365.710715
 20
1484.962131
 30
0.0
  0
SEQEND
  5
8FA
  8
DETAIL
  0
LINE
  5
EE
  8
DETAIL
 10
109.675186
 20
1527.269859
 30
0.0
 11
490.324814
 21
1527.269859
 31
0.0
  0
LINE
  5
EF
  8
DETAIL
 10
193.523922
 20
1099.570733
 30
0.0
 11
406.476078
 21
1099.570733
 31
0.0
  0
LINE
  5
F0
  8
DETAIL
 10
139.135535
 20
1172.03915
 30
0.0
 11
460.864465
 21
1172.03915
 31
0.0
  0
LINE
  5
F1
  8
DETAIL
 10
109.675186
 20
1369.062689
 30
0.0
 11
490.324814
 21
1369.062689
 31
0.0
  0
LINE
  5
F2
  8
DETAIL
 10
497.123379
 20
1537.0
 30
0.0
 11
102.876621
 21
1537.0
 31
0.0
  0
LINE
  5
F3
  8
DETAIL
 10
580.0
 20
1359.417713
 30
0.0
 11
20.0
 21
1359.417713
 31
0.0
  0
LINE
  5
F4
  8
CENTER
 10
225.0
 20
1332.092838
 30
0.0
 11
225.0
 21
1272.081068
 31
0.0
  0
ARC
  5
F6
  8
DETAIL
 10
300.977264
 20
1068.80107
 30
0.0
 40
25.0
 50
270.0
 51
0.0
  0
LINE
  5
F7
  8
DETAIL
 10
274.022736
 20
1043.80107
 30
0.0
 11
300.977264
 21
1043.80107
 31
0.0
  0
LINE
  5
F8
  8
DETAIL
 10
325.977264
 20
1099.570733
 30
0.0
 11
325.977264
 21
1068.80107
 31
0.0
  0
LINE
  5
F9
  8
DETAIL
 10
274.022736
 20
1099.570733
 30
0.0
 11
274.022736
 21
1043.80107
 31
0.0
  0
CIRCLE
  5
FA
  8
DETAIL
 10
300.0
 20
1070.130435
 30
0.0
 40
13.562621
  0
CIRCLE
  5
FB
  8
DETAIL
 10
300.0
 20
1070.130435
 30
0.0
 40
20.430105
  0
LINE
  5
FC
  8
DETAIL
 10
109.675186
 20
1510.959841
 30
0.0
 11
281.04713
 21
1510.959841
 31
0.0
  0
LINE
  5
FD
  8
DETAIL
 10
109.675186
 20
1379.664198
 30
0.0
 11
281.04713
 21
1379.664198
 31
0.0
  0
LINE
  5
FE
  8
DETAIL
 10
102.876621
 20
1537.0
 30
0.0
 11
20.0
 21
1439.266469
 31
0.0
  0
LINE
  5
FF
  8
DETAIL
 10
281.04713
 20
1527.269859
 30
0.0
 11
281.04713
 21
1369.062689
 31
0.0
  0
LINE
  5
101
  8
CENTER
 10
256.50675
 20
1303.0
 30
0.0
 11
194.079397
 21
1303.0
 31
0.0
  0
CIRCLE
  5
102
  8
DETAIL
 10
327.356039
 20
1420.537561
 30
0.0
 40
10.608739
  0
CIRCLE
  5
103
  8
DETAIL
 10
324.907874
 20
1483.331131
 30
0.0
 40
16.321134
  0
POLYLINE
  5
106
  8
DETAIL
 66
     1
 10
0.0
 20
0.0
 30
0.0
 70
     1
  0
VERTEX
  5
8FB
  8
DETAIL
 10
442.420059
 20
1445.002592
 30
0.0
  0
VERTEX
  5
8FC
  8
DETAIL
 10
471.798111
 20
1445.002592
 30
0.0
  0
VERTEX
  5
8FD
  8
DETAIL
 10
471.798111
 20
1425.43057
 30
0.0
  0
VERTEX
  5
8FE
  8
DETAIL
 10
442.420059
 20
1425.43057
 30
0.0
  0
SEQEND
  5
8FF
  8
DETAIL
  0
LINE
  5
107
  8
DETAIL
 10
427.937367
 20
1527.269859
 30
0.0
 11
427.937367
 21
1369.062689
 31
0.0
  0
POLYLINE
  5
108
  8
DETAIL
 66
     1
 10
0.0
 20
0.0
 30
0.0
 70
     1
  0
VERTEX
  5
900
  8
DETAIL
 10
442.420059
 20
1504.534153
 30
0.0
  0
VERTEX
  5
901
  8
DETAIL
 10
471.798111
 20
1504.534153
 30
0.0
  0
VERTEX
  5
902
  8
DETAIL
 10
471.798111
 20
1484.962131
 30
0.0
  0
VERTEX
  5
903
  8
DETAIL
 10
442.420059
 20
1484.962131
 30
0.0
  0
SEQEND
  5
904
  8
DETAIL
  0
LINE
  5
109
  8
DETAIL
 10
497.123379
 20
1537.0
 30
0.0
 11
580.0
 21
1439.266469
 31
0.0
  0
TEXT
  5
10A
  8
STELTXT
 10
-288.631613
 20
1451.049614
 30
0.0
 40
12.5
  1
1
  0
TEXT
  5
10B
  8
STELTXT
 10
-284.7445
 20
1446.512727
 30
0.0
 40
12.5
  1
/
  0
TEXT
  5
10C
  8
STELTXT
 10
-277.199542
 20
1438.518356
 30
0.0
 40
12.5
  1
4
  0
TEXT
  5
20C
  8
STELTXT
 10
5292.05774
 20
1934.284861
 30
0.0
 40
25.0
  1
 
  0
TEXT
  5
20D
  8
STELTXT
 10
5300.488771
 20
1095.866847
 30
0.0
 40
25.0
  1
 
  0
LINE
  5
2F1
  8
CENTER
 10
384.828188
 20
738.0
 30
0.0
 11
445.171812
 21
738.0
 31
0.0
  0
LINE
  5
2F2
  8
CENTER
 10
415.0
 20
707.828188
 30
0.0
 11
415.0
 21
770.981805
 31
0.0
  0
POLYLINE
  8
STELTXT
  5
907
  66
     1
 10
0.000000
 20
0.000000
 30
0.000000
  70
     8
  0
VERTEX
  8
STELTXT
  5
908
 10
411.649
 20
743.139
 30
0.000000
  70
    32
  0
VERTEX
  8
STELTXT
  5
909
 10
582.073
 20
851.179
 30
0.000000
  70
    32
  0
VERTEX
  8
STELTXT
  5
90A
 10
649.288
 20
851.179
 30
0.000000
  70
    32
  0
SEQEND
  8
STELTXT
  5
90B
  0
TEXT
  5
2F4
  8
STELTXT
 10
664.0691
 20
836.803071
 30
0.0
 40
25.0
  1
%%C1 " THREADED
  0
TEXT
  5
2F5
  8
STELTXT
 10
664.0691
 20
796.803071
 30
0.0
 40
25.0
  1
HEATING RETURN
  0
TEXT
  5
2F6
  8
STELTXT
 10
705.857669
 20
841.365069
 30
0.0
 40
15.0
  1
/
  0
TEXT
  5
2F7
  8
STELTXT
 10
717.044459
 20
836.958749
 30
0.0
 40
15.0
  1
4
  0
TEXT
  5
2F8
  8
STELTXT
 10
700.771061
 20
845.772899
 30
0.0
 40
15.0
  1
1
  0
POLYLINE
  8
STELTXT
  5
90C
  66
     1
 10
0.000000
 20
0.000000
 30
0.000000
  70
     8
  0
VERTEX
  8
STELTXT
  5
90D
 10
312.193
 20
688.178
 30
0.000000
  70
    32
  0
VERTEX
  8
STELTXT
  5
90E
 10
628.522
 20
942.784
 30
0.000000
  70
    32
  0
VERTEX
  8
STELTXT
  5
90F
 10
657.812
 20
942.784
 30
0.000000
  70
    32
  0
SEQEND
  8
STELTXT
  5
910
  0
TEXT
  5
2FB
  8
STELTXT
 10
675.365721
 20
934.229955
 30
0.0
 40
25.0
  1
%%C " TAPPED DRAINING TUBE
  0
TEXT
  5
2FC
  8
STELTXT
 10
698.141752
 20
938.904391
 30
0.0
 40
15.0
  1
/
  0
TEXT
  5
2FD
  8
STELTXT
 10
693.055144
 20
943.312221
 30
0.0
 40
15.0
  1
3
  0
TEXT
  5
2FE
  8
STELTXT
 10
709.328542
 20
934.498071
 30
0.0
 40
15.0
  1
4
  0
LINE
  5
2FF
  8
CENTER
 10
269.828188
 20
680.349874
 30
0.0
 11
330.171812
 21
680.349874
 31
0.0
  0
LINE
  5
300
  8
CENTER
 10
300.0
 20
650.178062
 30
0.0
 11
300.0
 21
710.521686
 31
0.0
  0
TEXT
  5
303
  8
STELTXT
 10
-328.357501
 20
1403.117237
 30
0.0
 40
25.0
  1
OUTLET
  0
CIRCLE
  5
31E
  8
DETAIL
  6
DASHED
 10
366.0
 20
1158.0
 30
0.0
 40
76.5
  0
LINE
  5
32A
  8
CENTER
 10
278.619309
 20
1158.0
 30
0.0
 11
453.380691
 21
1158.0
 31
0.0
  0
LINE
  5
32B
  8
CENTER
 10
366.0
 20
1070.619309
 30
0.0
 11
366.0
 21
1245.380691
 31
0.0
  0
LINE
  5
3B0
  8
DETAIL
 10
490.324814
 20
951.564391
 30
0.0
 11
490.324814
 21
570.100503
 31
0.0
  0
POLYLINE
  8
STELTXT
  5
911
  66
     1
 10
0.000000
 20
0.000000
 30
0.000000
  70
     8
  0
VERTEX
  8
STELTXT
  5
912
 10
221.146
 20
1307.19
 30
0.000000
  70
    32
  0
VERTEX
  8
STELTXT
  5
913
 10
-19.6017
 20
1449.93
 30
0.000000
  70
    32
  0
VERTEX
  8
STELTXT
  5
914
 10
-51.3487
 20
1449.93
 30
0.000000
  70
    32
  0
SEQEND
  8
STELTXT
  5
915
  0
POLYLINE
  8
STELTXT
  5
916
  66
     1
 10
0.000000
 20
0.000000
 30
0.000000
  70
     8
  0
VERTEX
  8
STELTXT
  5
917
 10
416.919
 20
1209.39
 30
0.000000
  70
    32
  0
VERTEX
  8
STELTXT
  5
918
 10
615.338
 20
1315.12
 30
0.000000
  70
    32
  0
VERTEX
  8
STELTXT
  5
919
 10
644.439
 20
1315.12
 30
0.000000
  70
    32
  0
SEQEND
  8
STELTXT
  5
91A
  0
LINE
  5
4FA
  8
PLANNING
 10
-480.0
 20
550.0
 30
0.0
 11
-480.0
 21
1537.0
 31
0.0
  0
LINE
  5
4FB
  8
PLANNING
 10
1080.0
 20
550.0
 30
0.0
 11
1080.0
 21
1537.0
 31
0.0
  0
LINE
  5
5E0
  8
DIMENSIONS
  6
BYBLOCK
 62
     0
 10
415.0
 20
790.981805
 30
0.0
 11
415.0
 21
982.936929
 31
0.0
  0
LINE
  5
5E1
  8
DIMENSIONS
  6
BYBLOCK
 62
     0
 10
440.0
 20
962.936929
 30
0.0
 11
555.0
 21
962.936929
 31
0.0
  0
SOLID
  5
5E2
  8
DIMENSIONS
  6
BYBLOCK
 62
     0
 10
440.0
 20
967.103596
 30
0.0
 11
440.0
 21
958.770262
 31
0.0
 12
415.0
 22
962.936929
 32
0.0
 13
415.0
 23
962.936929
 33
0.0
  0
SOLID
  5
5E3
  8
DIMENSIONS
  6
BYBLOCK
 62
     0
 10
555.0
 20
967.103596
 30
0.0
 11
555.0
 21
958.770262
 31
0.0
 12
580.0
 22
962.936929
 32
0.0
 13
580.0
 23
962.936929
 33
0.0
  0
TEXT
  5
5F3
  8
DIMENSIONS
 62
     0
 10
467.738095
 20
972.936929
 30
0.0
 40
25.0
  1
165
  0
LINE
  5
66B
  8
DIMENSIONS
 10
82.876621
 20
1537.0
 30
0.0
 11
-377.152784
 21
1537.0
 31
0.0
  0
LINE
  5
66C
  8
DIMENSIONS
 10
91.831787
 20
550.0
 30
0.0
 11
-377.152784
 21
550.0
 31
0.0
  0
LINE
  5
66D
  8
DIMENSIONS
 10
-357.152784
 20
1512.0
 30
0.0
 11
-357.152784
 21
575.0
 31
0.0
  0
SOLID
  5
66E
  8
DIMENSIONS
 10
-361.319451
 20
1512.0
 30
0.0
 11
-352.986117
 21
1512.0
 31
0.0
 12
-357.152784
 22
1537.0
 32
0.0
 13
-357.152784
 23
1537.0
 33
0.0
  0
SOLID
  5
66F
  8
DIMENSIONS
 10
-361.319451
 20
575.0
 30
0.0
 11
-352.986117
 21
575.0
 31
0.0
 12
-357.152784
 22
550.0
 32
0.0
 13
-357.152784
 23
550.0
 33
0.0
  0
TEXT
  5
670
  8
0
 10
-367.152784
 20
1011.357143
 30
0.0
 40
25.0
  1
987
 50
90.0
  0
LINE
  5
69B
  8
DIMENSIONS
 10
280.0
 20
910.0
 30
0.0
 11
-210.140351
 21
910.0
 31
0.0
  0
LINE
  5
69C
  8
DIMENSIONS
 10
280.0
 20
550.0
 30
0.0
 11
-210.140351
 21
550.0
 31
0.0
  0
LINE
  5
69D
  8
DIMENSIONS
 10
-190.140351
 20
885.0
 30
0.0
 11
-190.140351
 21
575.0
 31
0.0
  0
SOLID
  5
69E
  8
DIMENSIONS
 10
-194.307017
 20
885.0
 30
0.0
 11
-185.973684
 21
885.0
 31
0.0
 12
-190.140351
 22
910.0
 32
0.0
 13
-190.140351
 23
910.0
 33
0.0
  0
SOLID
  5
69F
  8
DIMENSIONS
 10
-194.307017
 20
575.0
 30
0.0
 11
-185.973684
 21
575.0
 31
0.0
 12
-190.140351
 22
550.0
 32
0.0
 13
-190.140351
 23
550.0
 33
0.0
  0
TEXT
  5
6A0
  8
0
 10
-200.140351
 20
697.857143
 30
0.0
 40
25.0
  1
360
 50
90.0
  0
ENDSEC
  0
EOF
