  0
SECTION
  2
HEADER
  9
$ACADVER
  1
AC1009
  9
$INSBASE
 10
0.0
 20
0.0
 30
0.0
  9
$EXTMIN
 10
-859.839578
 20
-401.141841
 30
0.0
  9
$EXTMAX
 10
848.179659
 20
1695.804264
 30
0.0
  9
$LIMMIN
 10
0.0
 20
0.0
  9
$LIMMAX
 10
420.0
 20
297.0
  9
$ORTHOMODE
 70
     1
  9
$REGENMODE
 70
     1
  9
$FILLMODE
 70
     1
  9
$QTEXTMODE
 70
     0
  9
$MIRRTEXT
 70
     1
  9
$DRAGMODE
 70
     2
  9
$LTSCALE
 40
1.0
  9
$OSMODE
 70
     0
  9
$ATTMODE
 70
     2
  9
$TEXTSIZE
 40
25.0
  9
$TRACEWID
 40
1.0
  9
$TEXTSTYLE
  7
STANDARD
  9
$CLAYER
  8
0
  9
$CELTYPE
  6
BYLAYER
  9
$CECOLOR
 62
   256
  9
$DIMSCALE
 40
1.0
  9
$DIMASZ
 40
25.0
  9
$DIMEXO
 40
0.625
  9
$DIMDLI
 40
3.75
  9
$DIMRND
 40
0.0
  9
$DIMDLE
 40
0.0
  9
$DIMEXE
 40
1.25
  9
$DIMTP
 40
0.0
  9
$DIMTM
 40
0.0
  9
$DIMTXT
 40
25.0
  9
$DIMCEN
 40
2.5
  9
$DIMTSZ
 40
0.0
  9
$DIMTOL
 70
     0
  9
$DIMLIM
 70
     0
  9
$DIMTIH
 70
     0
  9
$DIMTOH
 70
     0
  9
$DIMSE1
 70
     0
  9
$DIMSE2
 70
     0
  9
$DIMTAD
 70
     1
  9
$DIMZIN
 70
     8
  9
$DIMBLK
  1

  9
$DIMASO
 70
     1
  9
$DIMSHO
 70
     1
  9
$DIMPOST
  1

  9
$DIMAPOST
  1

  9
$DIMALT
 70
     0
  9
$DIMALTD
 70
     3
  9
$DIMALTF
 40
0.03937
  9
$DIMLFAC
 40
1.0
  9
$DIMTOFL
 70
     1
  9
$DIMTVP
 40
0.0
  9
$DIMTIX
 70
     0
  9
$DIMSOXD
 70
     0
  9
$DIMSAH
 70
     0
  9
$DIMBLK1
  1

  9
$DIMBLK2
  1

  9
$DIMSTYLE
  2
ISO-25
  9
$DIMCLRD
 70
     0
  9
$DIMCLRE
 70
     0
  9
$DIMCLRT
 70
     0
  9
$DIMTFAC
 40
1.0
  9
$DIMGAP
 40
13.0
  9
$LUNITS
 70
     2
  9
$LUPREC
 70
     4
  9
$SKETCHINC
 40
1.0
  9
$FILLETRAD
 40
10.0
  9
$AUNITS
 70
     0
  9
$AUPREC
 70
     0
  9
$MENU
  1
.
  9
$ELEVATION
 40
0.0
  9
$PELEVATION
 40
0.0
  9
$THICKNESS
 40
0.0
  9
$LIMCHECK
 70
     0
  9
$BLIPMODE
 70
     0
  9
$CHAMFERA
 40
10.0
  9
$CHAMFERB
 40
10.0
  9
$SKPOLY
 70
     0
  9
$TDCREATE
 40
2452706.626866
  9
$TDUPDATE
 40
2453073.53456
  9
$TDINDWG
 40
0.257187
  9
$TDUSRTIMER
 40
0.257187
  9
$USRTIMER
 70
     1
  9
$ANGBASE
 50
0.0
  9
$ANGDIR
 70
     0
  9
$PDMODE
 70
     0
  9
$PDSIZE
 40
0.0
  9
$PLINEWID
 40
0.0
  9
$COORDS
 70
     1
  9
$SPLFRAME
 70
     0
  9
$SPLINETYPE
 70
     6
  9
$SPLINESEGS
 70
     8
  9
$ATTDIA
 70
     0
  9
$ATTREQ
 70
     1
  9
$HANDLING
 70
 22529
  9
$HANDSEED
  5
E48
  9
$SURFTAB1
 70
     6
  9
$SURFTAB2
 70
     6
  9
$SURFTYPE
 70
     6
  9
$SURFU
 70
     6
  9
$SURFV
 70
     6
  9
$UCSNAME
  2

  9
$UCSORG
 10
0.0
 20
0.0
 30
0.0
  9
$UCSXDIR
 10
1.0
 20
0.0
 30
0.0
  9
$UCSYDIR
 10
0.0
 20
1.0
 30
0.0
  9
$PUCSNAME
  2

  9
$PUCSORG
 10
0.0
 20
0.0
 30
0.0
  9
$PUCSXDIR
 10
1.0
 20
0.0
 30
0.0
  9
$PUCSYDIR
 10
0.0
 20
1.0
 30
0.0
  9
$USERI1
 70
     0
  9
$USERI2
 70
     0
  9
$USERI3
 70
     0
  9
$USERI4
 70
     0
  9
$USERI5
 70
     0
  9
$USERR1
 40
0.0
  9
$USERR2
 40
0.0
  9
$USERR3
 40
0.0
  9
$USERR4
 40
0.0
  9
$USERR5
 40
0.0
  9
$WORLDVIEW
 70
     1
  9
$SHADEDGE
 70
     3
  9
$SHADEDIF
 70
    70
  9
$TILEMODE
 70
     1
  9
$MAXACTVP
 70
    48
  9
$PLIMCHECK
 70
     0
  9
$PEXTMIN
 10
1.000000E+020
 20
1.000000E+020
 30
1.000000E+020
  9
$PEXTMAX
 10
-1.000000E+020
 20
-1.000000E+020
 30
-1.000000E+020
  9
$PLIMMIN
 10
0.0
 20
0.0
  9
$PLIMMAX
 10
420.0
 20
297.0
  9
$UNITMODE
 70
     0
  9
$VISRETAIN
 70
     1
  9
$PLINEGEN
 70
     0
  9
$PSLTSCALE
 70
     1
  0
ENDSEC
  0
SECTION
  2
TABLES
  0
TABLE
  2
VPORT
 70
     2
  0
VPORT
  2
*ACTIVE
 70
     0
 10
0.0
 20
0.0
 11
1.0
 21
1.0
 12
-5.82996
 22
647.331211
 13
0.0
 23
0.0
 14
10.0
 24
10.0
 15
10.0
 25
10.0
 16
0.0
 26
0.0
 36
1.0
 17
0.0
 27
0.0
 37
0.0
 40
2121.095196
 41
1.825
 42
50.0
 43
0.0
 44
0.0
 50
0.0
 51
0.0
 71
     0
 72
   100
 73
     1
 74
     3
 75
     0
 76
     0
 77
     0
 78
     0
  0
ENDTAB
  0
TABLE
  2
LTYPE
 70
     3
  0
LTYPE
  2
CONTINUOUS
 70
     0
  3
Solid line
 72
    65
 73
     0
 40
0.0
  0
LTYPE
  2
CENTER
 70
     0
  3
____ _ ____ _ ____ _ ____ _ ____ _ ____ _ ____
 72
    65
 73
     4
 40
2.0
 49
1.25
 49
-0.25
 49
0.25
 49
-0.25
  0
LTYPE
  2
DASHED
 70
     0
  3
__ __ __ __ __ __ __ __ __ __ __ __ __ __ __
 72
    65
 73
     2
 40
0.75
 49
0.5
 49
-0.25
  0
ENDTAB
  0
TABLE
  2
LAYER
 70
     9
  0
LAYER
  2
0
 70
     0
 62
     7
  6
CONTINUOUS
  0
LAYER
  2
ORIGIN
 70
     0
 62
     6
  6
CONTINUOUS
  0
LAYER
  2
DETAIL
 70
     0
 62
     2
  6
CONTINUOUS
  0
LAYER
  2
DIMENSION
 70
     0
 62
     7
  6
CONTINUOUS
  0
LAYER
  2
PLANNING
 70
     0
 62
     1
  6
DASHED
  0
LAYER
  2
STELTXT
 70
     0
 62
     4
  6
CONTINUOUS
  0
LAYER
  2
STELATT
 70
     0
 62
     7
  6
CONTINUOUS
  0
LAYER
  2
CENTER
 70
     0
 62
     4
  6
CENTER
  0
LAYER
  2
DEFPOINTS
 70
     0
 62
     7
  6
CONTINUOUS
  0
ENDTAB
  0
TABLE
  2
STYLE
 70
     1
  0
STYLE
  2
STANDARD
 70
     0
 40
0.0
 41
1.0
 50
0.0
 71
     0
 42
25.0
  3
simplex.shx
  4

  0
ENDTAB
  0
TABLE
  2
VIEW
 70
     0
  0
ENDTAB
  0
TABLE
  2
UCS
 70
     0
  0
ENDTAB
  0
TABLE
  2
APPID
 70
     1
  0
APPID
  2
ACAD
 70
     0
  0
ENDTAB
  0
TABLE
  2
DIMSTYLE
 70
     1
  0
DIMSTYLE
  2
ISO-25
 70
     0
  3

  4

  5

  6

  7

 40
1.0
 41
25.0
 42
0.625
 43
3.75
 44
1.25
 45
0.0
 46
0.0
 47
0.0
 48
0.0
140
25.0
141
2.5
142
0.0
143
0.03937
144
1.0
145
0.0
146
1.0
147
13.0
 71
     0
 72
     0
 73
     0
 74
     0
 75
     0
 76
     0
 77
     1
 78
     8
170
     0
171
     3
172
     1
173
     0
174
     0
175
     0
176
     0
177
     0
178
     0
  0
ENDTAB
  0
ENDSEC
  0
SECTION
  2
BLOCKS
  0
BLOCK
  8
0
  2
$MODEL_SPACE
 70
     2
 10
0.0
 20
0.0
 30
0.0
  3
$MODEL_SPACE
  1

  0
ENDBLK
  5
A
  8
0
  0
BLOCK
 67
     1
  8
0
  2
$PAPER_SPACE
 70
     0
 10
0.0
 20
0.0
 30
0.0
  3
$PAPER_SPACE
  1

  0
ENDBLK
  5
10
 67
     1
  8
0
  0
BLOCK
  8
0
  2
*D0
 70
     1
 10
0.0
 20
0.0
 30
0.0
  3
*D0
  1

  0
LINE
  5
D24
  8
DIMENSION
 62
     0
 10
391.25
 20
0.0
 30
0.0
 11
687.559331
 21
0.0
 31
0.0
  0
LINE
  5
D25
  8
DIMENSION
 62
     0
 10
125.625
 20
748.0
 30
0.0
 11
687.559331
 21
748.0
 31
0.0
  0
LINE
  5
D26
  8
DIMENSION
 62
     0
 10
686.309331
 20
25.0
 30
0.0
 11
686.309331
 21
723.0
 31
0.0
  0
SOLID
  5
D27
  8
DIMENSION
 62
     0
 10
682.142664
 20
25.0
 30
0.0
 11
690.475997
 21
25.0
 31
0.0
 12
686.309331
 22
0.0
 32
0.0
 13
686.309331
 23
0.0
 33
0.0
  0
SOLID
  5
D28
  8
DIMENSION
 62
     0
 10
682.142664
 20
723.0
 30
0.0
 11
690.475997
 21
723.0
 31
0.0
 12
686.309331
 22
748.0
 32
0.0
 13
686.309331
 23
748.0
 33
0.0
  0
TEXT
  5
D29
  8
0
 62
     0
 10
673.309331
 20
341.857143
 30
0.0
 40
25.0
  1
748
 50
90.0
  0
POINT
  5
D2A
  8
DEFPOINTS
 62
     0
 10
390.625
 20
0.0
 30
0.0
  0
POINT
  5
D2B
  8
DEFPOINTS
 62
     0
 10
125.0
 20
748.0
 30
0.0
  0
POINT
  5
D2C
  8
DEFPOINTS
 62
     0
 10
686.309331
 20
748.0
 30
0.0
  0
ENDBLK
  5
ED
  8
0
  0
BLOCK
  8
0
  2
*D1
 70
     1
 10
0.0
 20
0.0
 30
0.0
  3
*D1
  1

  0
LINE
  5
B18
  8
DIMENSION
 62
     0
 10
-390.0
 20
-0.625
 30
0.0
 11
-390.0
 21
-104.392602
 31
0.0
  0
LINE
  5
B19
  8
DIMENSION
 62
     0
 10
390.0
 20
-0.625
 30
0.0
 11
390.0
 21
-104.392602
 31
0.0
  0
LINE
  5
B1A
  8
DIMENSION
 62
     0
 10
-365.0
 20
-103.142602
 30
0.0
 11
365.0
 21
-103.142602
 31
0.0
  0
SOLID
  5
B1B
  8
DIMENSION
 62
     0
 10
-365.0
 20
-98.975935
 30
0.0
 11
-365.0
 21
-107.309269
 31
0.0
 12
-390.0
 22
-103.142602
 32
0.0
 13
-390.0
 23
-103.142602
 33
0.0
  0
SOLID
  5
B1C
  8
DIMENSION
 62
     0
 10
365.0
 20
-98.975935
 30
0.0
 11
365.0
 21
-107.309269
 31
0.0
 12
390.0
 22
-103.142602
 32
0.0
 13
390.0
 23
-103.142602
 33
0.0
  0
TEXT
  5
B1D
  8
0
 62
     0
 10
-32.142857
 20
-90.142602
 30
0.0
 40
25.0
  1
780
  0
POINT
  5
B1E
  8
DEFPOINTS
 62
     0
 10
-390.0
 20
0.0
 30
0.0
  0
POINT
  5
B1F
  8
DEFPOINTS
 62
     0
 10
390.0
 20
0.0
 30
0.0
  0
POINT
  5
B20
  8
DEFPOINTS
 62
     0
 10
390.0
 20
-103.142602
 30
0.0
  0
ENDBLK
  5
4A5
  8
0
  0
BLOCK
  8
0
  2
*D2
 70
     1
 10
0.0
 20
0.0
 30
0.0
  3
*D2
  1

  0
LINE
  5
CDF
  8
DIMENSION
 62
     0
 10
-445.0
 20
1352.625
 30
0.0
 11
-445.0
 21
1658.994227
 31
0.0
  0
LINE
  5
CE0
  8
DIMENSION
 62
     0
 10
445.0
 20
1352.625
 30
0.0
 11
445.0
 21
1658.994227
 31
0.0
  0
LINE
  5
CE1
  8
DIMENSION
 62
     0
 10
-420.0
 20
1657.744227
 30
0.0
 11
420.0
 21
1657.744227
 31
0.0
  0
SOLID
  5
CE2
  8
DIMENSION
 62
     0
 10
-420.0
 20
1661.910893
 30
0.0
 11
-420.0
 21
1653.57756
 31
0.0
 12
-445.0
 22
1657.744227
 32
0.0
 13
-445.0
 23
1657.744227
 33
0.0
  0
SOLID
  5
CE3
  8
DIMENSION
 62
     0
 10
420.0
 20
1661.910893
 30
0.0
 11
420.0
 21
1653.57756
 31
0.0
 12
445.0
 22
1657.744227
 32
0.0
 13
445.0
 23
1657.744227
 33
0.0
  0
TEXT
  5
CE4
  8
0
 62
     0
 10
-31.830357
 20
1670.744227
 30
0.0
 40
25.0
  1
890
  0
POINT
  5
CE5
  8
DEFPOINTS
 62
     0
 10
-445.0
 20
1352.0
 30
0.0
  0
POINT
  5
CE6
  8
DEFPOINTS
 62
     0
 10
445.0
 20
1352.0
 30
0.0
  0
POINT
  5
CE7
  8
DEFPOINTS
 62
     0
 10
445.0
 20
1657.744227
 30
0.0
  0
ENDBLK
  5
4B1
  8
0
  0
BLOCK
  8
0
  2
*D3
 70
     1
 10
0.0
 20
0.0
 30
0.0
  3
*D3
  1

  0
LINE
  5
D2D
  8
DIMENSION
 62
     0
 10
390.625
 20
0.0
 30
0.0
 11
761.575786
 21
0.0
 31
0.0
  0
LINE
  5
D2E
  8
DIMENSION
 62
     0
 10
445.625
 20
1352.0
 30
0.0
 11
761.575786
 21
1352.0
 31
0.0
  0
LINE
  5
D2F
  8
DIMENSION
 62
     0
 10
760.325786
 20
25.0
 30
0.0
 11
760.325786
 21
1327.0
 31
0.0
  0
SOLID
  5
D30
  8
DIMENSION
 62
     0
 10
756.15912
 20
25.0
 30
0.0
 11
764.492453
 21
25.0
 31
0.0
 12
760.325786
 22
0.0
 32
0.0
 13
760.325786
 23
0.0
 33
0.0
  0
SOLID
  5
D31
  8
DIMENSION
 62
     0
 10
756.15912
 20
1327.0
 30
0.0
 11
764.492453
 21
1327.0
 31
0.0
 12
760.325786
 22
1352.0
 32
0.0
 13
760.325786
 23
1352.0
 33
0.0
  0
TEXT
  5
D32
  8
0
 62
     0
 10
747.325786
 20
769.960833
 30
0.0
 40
25.0
  1
1352
 50
90.0
  0
POINT
  5
D33
  8
DEFPOINTS
 62
     0
 10
390.0
 20
0.0
 30
0.0
  0
POINT
  5
D34
  8
DEFPOINTS
 62
     0
 10
445.0
 20
1352.0
 30
0.0
  0
POINT
  5
D35
  8
DEFPOINTS
 62
     0
 10
760.325786
 20
1352.0
 30
0.0
  0
ENDBLK
  5
4C6
  8
0
  0
BLOCK
  8
0
  2
*D4
 70
     1
 10
0.0
 20
0.0
 30
0.0
  3
*D4
  1

  0
LINE
  5
D36
  8
DIMENSION
 62
     0
 10
390.625
 20
0.0
 30
0.0
 11
608.646118
 21
0.0
 31
0.0
  0
LINE
  5
D37
  8
DIMENSION
 62
     0
 10
125.625
 20
440.0
 30
0.0
 11
608.646118
 21
440.0
 31
0.0
  0
LINE
  5
D38
  8
DIMENSION
 62
     0
 10
607.396118
 20
25.0
 30
0.0
 11
607.396118
 21
415.0
 31
0.0
  0
SOLID
  5
D39
  8
DIMENSION
 62
     0
 10
603.229451
 20
25.0
 30
0.0
 11
611.562784
 21
25.0
 31
0.0
 12
607.396118
 22
0.0
 32
0.0
 13
607.396118
 23
0.0
 33
0.0
  0
SOLID
  5
D3A
  8
DIMENSION
 62
     0
 10
603.229451
 20
415.0
 30
0.0
 11
611.562784
 21
415.0
 31
0.0
 12
607.396118
 22
440.0
 32
0.0
 13
607.396118
 23
440.0
 33
0.0
  0
TEXT
  5
D3B
  8
0
 62
     0
 10
594.396118
 20
157.857143
 30
0.0
 40
25.0
  1
440
 50
90.0
  0
POINT
  5
D3C
  8
DEFPOINTS
 62
     0
 10
390.0
 20
0.0
 30
0.0
  0
POINT
  5
D3D
  8
DEFPOINTS
 62
     0
 10
125.0
 20
440.0
 30
0.0
  0
POINT
  5
D3E
  8
DEFPOINTS
 62
     0
 10
607.396118
 20
440.0
 30
0.0
  0
ENDBLK
  5
4D2
  8
0
  0
BLOCK
  8
0
  2
*D5
 70
     1
 10
0.0
 20
0.0
 30
0.0
  3
*D5
  1

  0
LINE
  5
D3F
  8
DIMENSION
 62
     0
 10
445.625
 20
1352.0
 30
0.0
 11
761.575786
 21
1352.0
 31
0.0
  0
LINE
  5
D40
  8
DIMENSION
 62
     0
 10
188.835503
 20
1542.0
 30
0.0
 11
761.575786
 21
1542.0
 31
0.0
  0
LINE
  5
D41
  8
DIMENSION
 62
     0
 10
760.325786
 20
1377.0
 30
0.0
 11
760.325786
 21
1517.0
 31
0.0
  0
SOLID
  5
D42
  8
DIMENSION
 62
     0
 10
756.15912
 20
1377.0
 30
0.0
 11
764.492453
 21
1377.0
 31
0.0
 12
760.325786
 22
1352.0
 32
0.0
 13
760.325786
 23
1352.0
 33
0.0
  0
SOLID
  5
D43
  8
DIMENSION
 62
     0
 10
756.15912
 20
1517.0
 30
0.0
 11
764.492453
 21
1517.0
 31
0.0
 12
760.325786
 22
1542.0
 32
0.0
 13
760.325786
 23
1542.0
 33
0.0
  0
TEXT
  5
D44
  8
0
 62
     0
 10
747.325786
 20
1417.238095
 30
0.0
 40
25.0
  1
190
 50
90.0
  0
POINT
  5
D45
  8
DEFPOINTS
 62
     0
 10
445.0
 20
1352.0
 30
0.0
  0
POINT
  5
D46
  8
DEFPOINTS
 62
     0
 10
188.210503
 20
1542.0
 30
0.0
  0
POINT
  5
D47
  8
DEFPOINTS
 62
     0
 10
760.325786
 20
1542.0
 30
0.0
  0
ENDBLK
  5
4DE
  8
0
  0
BLOCK
  8
0
  2
*D6
 70
     1
 10
0.0
 20
0.0
 30
0.0
  3
*D6
  1

  0
LINE
  5
C76
  8
DIMENSION
 62
     0
 10
391.875
 20
0.0
 30
0.0
 11
504.162493
 21
0.0
 31
0.0
  0
LINE
  5
C77
  8
DIMENSION
 62
     0
 10
10.125
 20
125.0
 30
0.0
 11
504.162493
 21
125.0
 31
0.0
  0
LINE
  5
C78
  8
DIMENSION
 62
     0
 10
502.912493
 20
25.0
 30
0.0
 11
502.912493
 21
100.0
 31
0.0
  0
SOLID
  5
C79
  8
DIMENSION
 62
     0
 10
498.745826
 20
25.0
 30
0.0
 11
507.079159
 21
25.0
 31
0.0
 12
502.912493
 22
0.0
 32
0.0
 13
502.912493
 23
0.0
 33
0.0
  0
SOLID
  5
C7A
  8
DIMENSION
 62
     0
 10
498.745826
 20
100.0
 30
0.0
 11
507.079159
 21
100.0
 31
0.0
 12
502.912493
 22
125.0
 32
0.0
 13
502.912493
 23
125.0
 33
0.0
  0
TEXT
  5
C7B
  8
0
 62
     0
 10
489.912493
 20
32.738095
 30
0.0
 40
25.0
  1
125
 50
90.0
  0
POINT
  5
C7C
  8
DEFPOINTS
 62
     0
 10
391.25
 20
0.0
 30
0.0
  0
POINT
  5
C7D
  8
DEFPOINTS
 62
     0
 10
9.5
 20
125.0
 30
0.0
  0
POINT
  5
C7E
  8
DEFPOINTS
 62
     0
 10
502.912493
 20
125.0
 30
0.0
  0
ENDBLK
  5
BB4
  8
0
  0
ENDSEC
  0
SECTION
  2
ENTITIES
  0
POLYLINE
  5
26
  8
DETAIL
 66
     1
 10
0.0
 20
0.0
 30
0.0
 70
     1
  0
VERTEX
  5
E07
  8
DETAIL
 10
51.663536
 20
1449.770543
 30
0.0
  0
VERTEX
  5
E08
  8
DETAIL
 10
190.250472
 20
1449.770543
 30
0.0
  0
VERTEX
  5
E09
  8
DETAIL
 10
190.250472
 20
1383.409549
 30
0.0
  0
VERTEX
  5
E0A
  8
DETAIL
 10
51.663536
 20
1383.409549
 30
0.0
  0
SEQEND
  5
E0B
  8
DETAIL
  0
LINE
  5
28
  8
CENTER
  6
CENTER
 10
125.0
 20
748.0
 30
0.0
 11
-125.0
 21
748.0
 31
0.0
  0
LINE
  5
2B
  8
DETAIL
 10
125.0
 20
565.0
 30
0.0
 11
-125.0
 21
565.0
 31
0.0
  0
CIRCLE
  5
2C
  8
DETAIL
  6
DASHED
 10
0.0
 20
748.0
 30
0.0
 40
125.0
  0
LINE
  5
2D
  8
CENTER
  6
CENTER
 10
100.0
 20
440.0
 30
0.0
 11
-100.0
 21
440.0
 31
0.0
  0
LINE
  5
2E
  8
DETAIL
 10
125.0
 20
315.0
 30
0.0
 11
-125.0
 21
315.0
 31
0.0
  0
ATTDEF
  5
2F
  8
STELATT
 10
-93.333333
 20
-400.986484
 30
0.0
 40
40.0
  1
420
 72
     4
 11
0.0
 21
-380.986484
 31
0.0
  3

  2
MODEL
 70
     2
  0
CIRCLE
  5
31
  8
DETAIL
 10
0.0
 20
440.0
 30
0.0
 40
75.0
  0
CIRCLE
  5
32
  8
DETAIL
 10
0.0
 20
440.0
 30
0.0
 40
100.0
  0
ATTDEF
  5
33
  8
STELATT
 10
-233.333333
 20
-270.986484
 30
0.0
 40
40.0
  1
IDEAL
 72
     4
 11
0.0
 21
-250.986484
 31
0.0
  3

  2
MANUFACTURER
 70
     2
  0
POLYLINE
  5
34
  8
DETAIL
 66
     1
 10
0.0
 20
0.0
 30
0.0
 70
     1
  0
VERTEX
  5
E0C
  8
DETAIL
 10
-195.767652
 20
1373.426302
 30
0.0
 42
-0.434513
  0
VERTEX
  5
E0D
  8
DETAIL
 10
-203.748724
 20
1381.976304
 30
0.0
 42
-0.093472
  0
VERTEX
  5
E0E
  8
DETAIL
 10
-203.748724
 20
1526.449998
 30
0.0
 42
-0.434513
  0
VERTEX
  5
E0F
  8
DETAIL
 10
-195.767652
 20
1535.0
 30
0.0
  0
VERTEX
  5
E10
  8
DETAIL
 10
195.767652
 20
1535.0
 30
0.0
 42
-0.434513
  0
VERTEX
  5
E11
  8
DETAIL
 10
203.748724
 20
1526.449998
 30
0.0
 42
-0.093472
  0
VERTEX
  5
E12
  8
DETAIL
 10
203.748724
 20
1381.976304
 30
0.0
 42
-0.434513
  0
VERTEX
  5
E13
  8
DETAIL
 10
195.767652
 20
1373.426302
 30
0.0
  0
SEQEND
  5
E14
  8
DETAIL
  0
POLYLINE
  5
35
  8
DETAIL
 66
     1
 10
0.0
 20
0.0
 30
0.0
 70
     1
  0
VERTEX
  5
E15
  8
DETAIL
 10
-195.767652
 20
1366.426302
 30
0.0
 42
-0.414214
  0
VERTEX
  5
E16
  8
DETAIL
 10
-210.767652
 20
1381.426302
 30
0.0
 42
-0.092505
  0
VERTEX
  5
E17
  8
DETAIL
 10
-210.767652
 20
1527.0
 30
0.0
 42
-0.414214
  0
VERTEX
  5
E18
  8
DETAIL
 10
-195.767652
 20
1542.0
 30
0.0
  0
VERTEX
  5
E19
  8
DETAIL
 10
195.767652
 20
1542.0
 30
0.0
 42
-0.414214
  0
VERTEX
  5
E1A
  8
DETAIL
 10
210.767652
 20
1527.0
 30
0.0
 42
-0.092505
  0
VERTEX
  5
E1B
  8
DETAIL
 10
210.767652
 20
1381.426302
 30
0.0
 42
-0.414214
  0
VERTEX
  5
E1C
  8
DETAIL
 10
195.767652
 20
1366.426302
 30
0.0
  0
SEQEND
  5
E1D
  8
DETAIL
  0
DIMENSION
  5
36
  8
DIMENSION
  2
*D2
 10
445.0
 20
1657.744227
 30
0.0
 11
0.3125
 21
1657.744227
 31
0.0
 70
   128
 13
-445.0
 23
1352.0
 33
0.0
 14
445.0
 24
1352.0
 34
0.0
  0
LINE
  5
47
  8
DETAIL
 10
-445.0
 20
1352.0
 30
0.0
 11
445.0
 21
1352.0
 31
0.0
  0
LINE
  5
48
  8
DETAIL
 10
-388.0
 20
1277.0
 30
0.0
 11
388.0
 21
1277.0
 31
0.0
  0
LINE
  5
49
  8
PLANNING
 10
545.0
 20
1542.0
 30
0.0
 11
-645.0
 21
1542.0
 31
0.0
  0
LINE
  5
4C
  8
DETAIL
 10
390.0
 20
0.0
 30
0.0
 11
-390.0
 21
0.0
 31
0.0
  0
DIMENSION
  5
4D
  8
DIMENSION
  2
*D1
 10
390.0
 20
-103.142602
 30
0.0
 11
0.0
 21
-103.142602
 31
0.0
 70
   128
 13
-390.0
 23
0.0
 33
0.0
 14
390.0
 24
0.0
 34
0.0
  0
LINE
  5
5C
  8
DETAIL
 10
388.0
 20
75.0
 30
0.0
 11
-388.0
 21
75.0
 31
0.0
  0
LINE
  5
5D
  8
PLANNING
 10
-645.0
 20
0.0
 30
0.0
 11
545.0
 21
0.0
 31
0.0
  0
LINE
  5
5E
  8
CENTER
  6
CENTER
 10
0.0
 20
0.0
 30
0.0
 11
0.0
 21
1352.0
 31
0.0
  0
LINE
  5
5F
  8
DETAIL
 10
-445.0
 20
1352.0
 30
0.0
 11
-445.0
 21
40.0
 31
0.0
  0
LINE
  5
60
  8
DETAIL
 10
-390.0
 20
1302.0
 30
0.0
 11
-390.0
 21
40.0
 31
0.0
  0
LINE
  5
61
  8
DETAIL
 10
-388.0
 20
1277.0
 30
0.0
 11
-388.0
 21
75.0
 31
0.0
  0
LINE
  5
62
  8
PLANNING
 10
-645.0
 20
1542.0
 30
0.0
 11
-645.0
 21
0.0
 31
0.0
  0
TEXT
  5
63
  8
STELTXT
 10
-859.750622
 20
328.996306
 30
0.0
 40
25.0
  1
WITH GASKET
  0
TEXT
  5
65
  8
STELTXT
 10
-859.750622
 20
370.662972
 30
0.0
 40
25.0
  1
BURNER DOOR
  0
TEXT
  5
66
  8
STELTXT
 10
-854.229397
 20
483.772927
 30
0.0
 40
25.0
  1
WINDOW
  0
TEXT
  5
67
  8
STELTXT
 10
-854.229397
 20
526.594111
 30
0.0
 40
25.0
  1
FLAME INSPECTION
  0
POLYLINE
  5
68
  8
STELTXT
 66
     1
 10
0.0
 20
0.0
 30
0.0
1001
ACAD
1000
DSTYLE
1002
{
1070
     5
1000

1070
    77
1070
     0
1070
   147
1040
13.0
1002
}
  0
VERTEX
  5
E1E
  8
STELTXT
 10
-49.151621
 20
127.217306
 30
0.0
  0
VERTEX
  5
E1F
  8
STELTXT
 10
-737.455617
 20
127.217306
 30
0.0
  0
SEQEND
  5
E20
  8
STELTXT
  0
TEXT
  5
69
  8
STELTXT
 10
-854.229397
 20
114.717306
 30
0.0
 40
25.0
  1
DRAIN
  0
ATTDEF
  5
6A
  8
STELATT
 10
-68.571429
 20
-335.986484
 30
0.0
 40
40.0
  1
VANGUARD L
 72
     4
 11
0.0
 21
-315.986484
 31
0.0
  3

  2
TYPE
 70
     2
  0
POLYLINE
  5
6B
  8
STELTXT
 66
     1
 10
0.0
 20
0.0
 30
0.0
1001
ACAD
1000
DSTYLE
1002
{
1070
     5
1000

1070
    77
1070
     0
1070
   147
1040
13.0
1002
}
  0
VERTEX
  5
E21
  8
STELTXT
 10
-258.418659
 20
539.094111
 30
0.0
  0
VERTEX
  5
E22
  8
STELTXT
 10
-492.322735
 20
539.094111
 30
0.0
  0
SEQEND
  5
E23
  8
STELTXT
  0
POLYLINE
  5
6C
  8
STELTXT
 66
     1
 10
0.0
 20
0.0
 30
0.0
1001
ACAD
1000
DSTYLE
1002
{
1070
   147
1040
13.0
1070
    77
1070
     0
1002
}
  0
VERTEX
  5
E24
  8
STELTXT
 10
-115.970281
 20
362.14636
 30
0.0
  0
VERTEX
  5
E25
  8
STELTXT
 10
-573.049793
 20
361.975493
 30
0.0
  0
SEQEND
  5
E26
  8
STELTXT
  0
LINE
  5
6D
  8
DETAIL
 10
-445.0
 20
40.0
 30
0.0
 11
-390.0
 21
40.0
 31
0.0
  0
LINE
  5
6E
  8
DETAIL
 10
-390.0
 20
40.0
 30
0.0
 11
-390.0
 21
0.0
 31
0.0
  0
POLYLINE
  5
6F
  8
ORIGIN
 66
     1
 10
0.0
 20
0.0
 30
0.0
 70
     1
  0
VERTEX
  5
E27
  8
ORIGIN
 10
37.5
 20
-37.5
 30
0.0
  0
VERTEX
  5
E28
  8
ORIGIN
 10
-37.5
 20
37.5
 30
0.0
  0
VERTEX
  5
E29
  8
ORIGIN
 10
-37.5
 20
-37.5
 30
0.0
  0
VERTEX
  5
E2A
  8
ORIGIN
 10
37.5
 20
37.5
 30
0.0
  0
SEQEND
  5
E2B
  8
ORIGIN
  0
SOLID
  5
71
  8
STELTXT
 10
-49.151621
 20
131.383973
 30
0.0
 11
-24.151621
 21
127.217306
 31
0.0
 12
-49.151621
 22
123.050639
 32
0.0
 13
-49.151621
 23
123.050639
 33
0.0
1001
ACAD
1000
DSTYLE
1002
{
1070
     5
1000

1070
    77
1070
     0
1070
   147
1040
13.0
1002
}
  0
CIRCLE
  5
72
  8
DETAIL
  6
DASHED
 10
0.0
 20
125.0
 30
0.0
 40
9.5
  0
LINE
  5
73
  8
DETAIL
 10
-125.0
 20
315.0
 30
0.0
 11
-125.0
 21
565.0
 31
0.0
  0
SOLID
  5
74
  8
STELTXT
 10
-258.418659
 20
543.260778
 30
0.0
 11
-233.418659
 21
539.094111
 31
0.0
 12
-258.418659
 22
534.927445
 32
0.0
 13
-258.418659
 23
534.927445
 33
0.0
1001
ACAD
1000
DSTYLE
1002
{
1070
     5
1000

1070
    77
1070
     0
1070
   147
1040
13.0
1002
}
  0
CIRCLE
  5
76
  8
DETAIL
 10
-188.032462
 20
540.449405
 30
0.0
 40
40.0
  0
CIRCLE
  5
77
  8
DETAIL
 10
-188.032462
 20
540.449405
 30
0.0
 40
36.0
  0
CIRCLE
  5
79
  8
DETAIL
 10
-110.0
 20
330.0
 30
0.0
 40
8.0
  0
CIRCLE
  5
7A
  8
DETAIL
 10
-110.0
 20
330.0
 30
0.0
 40
6.0
  0
SOLID
  5
7B
  8
STELTXT
 10
-115.970281
 20
357.979693
 30
0.0
 11
-90.970281
 21
362.14636
 31
0.0
 12
-115.970281
 22
366.313027
 32
0.0
 13
-115.970281
 23
366.313027
 33
0.0
1001
ACAD
1000
DSTYLE
1002
{
1070
     5
1000

1070
    77
1070
     0
1070
   147
1040
13.0
1002
}
  0
CIRCLE
  5
7C
  8
DETAIL
 10
-110.0
 20
550.0
 30
0.0
 40
8.0
  0
CIRCLE
  5
7D
  8
DETAIL
 10
-110.0
 20
550.0
 30
0.0
 40
6.0
  0
LINE
  5
7E
  8
DETAIL
 10
-390.0
 20
1302.0
 30
0.0
 11
-445.0
 21
1302.0
 31
0.0
  0
LINE
  5
7F
  8
DETAIL
 10
-195.224968
 20
1366.426302
 30
0.0
 11
-195.224968
 21
1352.0
 31
0.0
  0
TEXT
  5
80
  8
STELTXT
 10
39.871112
 20
887.270589
 30
0.0
 40
25.0
  1
CENTRE LINE
 50
90.0
  0
TEXT
  5
81
  8
STELTXT
 10
-12.559787
 20
894.046334
 30
0.0
 40
25.0
  1
FLUE
 50
90.0
  0
POLYLINE
  5
82
  8
DETAIL
 66
     1
 10
0.0
 20
0.0
 30
0.0
 70
     1
  0
VERTEX
  5
E2C
  8
DETAIL
 10
-128.535043
 20
1432.364203
 30
0.0
  0
VERTEX
  5
E2D
  8
DETAIL
 10
-98.193023
 20
1432.364203
 30
0.0
  0
VERTEX
  5
E2E
  8
DETAIL
 10
-98.193023
 20
1409.664904
 30
0.0
  0
VERTEX
  5
E2F
  8
DETAIL
 10
-128.535043
 20
1409.664904
 30
0.0
  0
SEQEND
  5
E30
  8
DETAIL
  0
POLYLINE
  5
83
  8
DETAIL
 66
     1
 10
0.0
 20
0.0
 30
0.0
 70
     1
  0
VERTEX
  5
E31
  8
DETAIL
 10
-128.535043
 20
1402.859113
 30
0.0
  0
VERTEX
  5
E32
  8
DETAIL
 10
-98.193023
 20
1402.859113
 30
0.0
  0
VERTEX
  5
E33
  8
DETAIL
 10
-98.193023
 20
1380.1598
 30
0.0
  0
VERTEX
  5
E34
  8
DETAIL
 10
-128.535043
 20
1380.1598
 30
0.0
  0
SEQEND
  5
E35
  8
DETAIL
  0
POLYLINE
  5
84
  8
DETAIL
 66
     1
 10
0.0
 20
0.0
 30
0.0
 70
     1
  0
VERTEX
  5
E36
  8
DETAIL
 10
-128.535043
 20
1464.581742
 30
0.0
  0
VERTEX
  5
E37
  8
DETAIL
 10
-98.193023
 20
1464.581742
 30
0.0
  0
VERTEX
  5
E38
  8
DETAIL
 10
-98.193023
 20
1441.02611
 30
0.0
  0
VERTEX
  5
E39
  8
DETAIL
 10
-128.535043
 20
1441.02611
 30
0.0
  0
SEQEND
  5
E3A
  8
DETAIL
  0
POLYLINE
  5
85
  8
DETAIL
 66
     1
 10
0.0
 20
0.0
 30
0.0
 70
     1
  0
VERTEX
  5
E3B
  8
DETAIL
 10
-128.535043
 20
1499.605834
 30
0.0
  0
VERTEX
  5
E3C
  8
DETAIL
 10
-98.193023
 20
1499.605834
 30
0.0
  0
VERTEX
  5
E3D
  8
DETAIL
 10
-98.193023
 20
1472.624952
 30
0.0
  0
VERTEX
  5
E3E
  8
DETAIL
 10
-128.535043
 20
1472.624952
 30
0.0
  0
SEQEND
  5
E3F
  8
DETAIL
  0
LINE
  5
86
  8
DETAIL
 10
-228.130834
 20
1465.169187
 30
0.0
 11
-228.130834
 21
1442.087099
 31
0.0
  0
LINE
  5
87
  8
DETAIL
 10
-228.130834
 20
1465.169187
 30
0.0
 11
-217.349542
 21
1465.169187
 31
0.0
  0
LINE
  5
88
  8
DETAIL
 10
-228.130834
 20
1442.087099
 30
0.0
 11
-217.315496
 21
1442.087099
 31
0.0
  0
LINE
  5
89
  8
DETAIL
 10
-141.780744
 20
1535.0
 30
0.0
 11
-141.780744
 21
1373.426302
 31
0.0
  0
LINE
  5
8A
  8
DETAIL
 10
-26.291596
 20
1535.0
 30
0.0
 11
-26.291596
 21
1373.426302
 31
0.0
  0
LINE
  5
8B
  8
DETAIL
 10
-84.036191
 20
1535.0
 30
0.0
 11
-84.036191
 21
1373.426302
 31
0.0
  0
CIRCLE
  5
8C
  8
DETAIL
 10
-56.760781
 20
1487.196242
 30
0.0
 40
19.193013
  0
POLYLINE
  5
8D
  8
DETAIL
 66
     1
 10
0.0
 20
0.0
 30
0.0
 70
     1
  0
VERTEX
  5
E40
  8
DETAIL
 10
-79.049433
 20
1401.195858
 30
0.0
  0
VERTEX
  5
E41
  8
DETAIL
 10
-30.75733
 20
1401.195858
 30
0.0
  0
VERTEX
  5
E42
  8
DETAIL
 10
-30.75733
 20
1380.1598
 30
0.0
  0
VERTEX
  5
E43
  8
DETAIL
 10
-79.049433
 20
1380.1598
 30
0.0
  0
SEQEND
  5
E44
  8
DETAIL
  0
CIRCLE
  5
8E
  8
DETAIL
 10
-56.760781
 20
1443.267986
 30
0.0
 40
12.99286
  0
LINE
  5
8F
  8
DETAIL
 10
37.227414
 20
1535.0
 30
0.0
 11
37.227414
 21
1373.426302
 31
0.0
  0
CIRCLE
  5
90
  8
DETAIL
 10
5.467877
 20
1458.224173
 30
0.0
 40
21.547581
  0
CIRCLE
  5
91
  8
DETAIL
 10
5.467877
 20
1405.63401
 30
0.0
 40
21.761966
  0
LINE
  5
92
  8
PLANNING
 10
545.0
 20
1542.0
 30
0.0
 11
545.0
 21
0.0
 31
0.0
  0
LINE
  5
93
  8
DETAIL
 10
445.0
 20
1352.0
 30
0.0
 11
445.0
 21
40.0
 31
0.0
  0
LINE
  5
94
  8
DETAIL
 10
390.0
 20
1302.0
 30
0.0
 11
390.0
 21
40.0
 31
0.0
  0
LINE
  5
95
  8
DETAIL
 10
388.0
 20
1277.0
 30
0.0
 11
388.0
 21
75.0
 31
0.0
  0
DIMENSION
  5
96
  8
DIMENSION
  2
*D3
 10
760.325786
 20
1352.0
 30
0.0
 11
760.325786
 21
811.6275
 31
0.0
 70
   128
 13
390.0
 23
0.0
 33
0.0
 14
445.0
 24
1352.0
 34
0.0
 50
90.0
  0
DIMENSION
  5
A3
  8
DIMENSION
  2
*D0
 10
686.309331
 20
748.0
 30
0.0
 11
660.809331
 21
374.0
 31
0.0
 70
     0
 13
390.625
 23
0.0
 33
0.0
 14
125.0
 24
748.0
 34
0.0
 50
90.0
  0
DIMENSION
  5
B0
  8
DIMENSION
  2
*D4
 10
607.396118
 20
440.0
 30
0.0
 11
607.396118
 21
190.0
 31
0.0
 70
   128
 13
390.0
 23
0.0
 33
0.0
 14
125.0
 24
440.0
 34
0.0
 50
90.0
  0
LINE
  5
BF
  8
DETAIL
 10
390.0
 20
40.0
 30
0.0
 11
445.0
 21
40.0
 31
0.0
  0
LINE
  5
C0
  8
DETAIL
 10
390.0
 20
0.0
 30
0.0
 11
390.0
 21
40.0
 31
0.0
  0
LINE
  5
C1
  8
DETAIL
 10
125.0
 20
315.0
 30
0.0
 11
125.0
 21
565.0
 31
0.0
  0
CIRCLE
  5
C2
  8
DETAIL
 10
110.0
 20
330.0
 30
0.0
 40
8.0
  0
CIRCLE
  5
C3
  8
DETAIL
 10
110.0
 20
330.0
 30
0.0
 40
6.0
  0
CIRCLE
  5
C4
  8
DETAIL
 10
110.0
 20
550.0
 30
0.0
 40
8.0
  0
CIRCLE
  5
C5
  8
DETAIL
 10
110.0
 20
550.0
 30
0.0
 40
6.0
  0
POLYLINE
  5
C6
  8
STELTXT
 66
     1
 10
0.0
 20
0.0
 30
0.0
1001
ACAD
1000
DSTYLE
1002
{
1070
   147
1040
13.0
1070
    77
1070
     0
1002
}
  0
VERTEX
  5
E45
  8
STELTXT
 10
170.278382
 20
1509.695918
 30
0.0
  0
VERTEX
  5
E46
  8
STELTXT
 10
670.805688
 20
1655.204651
 30
0.0
  0
SEQEND
  5
E47
  8
STELTXT
  0
DIMENSION
  5
C7
  8
DIMENSION
  2
*D5
 10
760.325786
 20
1542.0
 30
0.0
 11
734.825786
 21
1447.0
 31
0.0
 70
     0
 13
445.0
 23
1352.0
 33
0.0
 14
188.210503
 24
1542.0
 34
0.0
 50
90.0
  0
LINE
  5
D4
  8
DETAIL
 10
195.224968
 20
1366.426302
 30
0.0
 11
195.224968
 21
1352.0
 31
0.0
  0
LINE
  5
D5
  8
DETAIL
 10
390.0
 20
1302.0
 30
0.0
 11
445.0
 21
1302.0
 31
0.0
  0
SOLID
  5
D6
  8
STELTXT
 10
172.129804
 20
1505.963178
 30
0.0
 11
129.800749
 21
1485.415927
 31
0.0
 12
168.42696
 22
1513.428658
 32
0.0
 13
168.42696
 23
1513.428658
 33
0.0
1001
ACAD
1000
DSTYLE
1002
{
1070
   147
1040
13.0
1070
    77
1070
     0
1002
}
  0
LINE
  5
D7
  8
DETAIL
 10
228.130834
 20
1465.169187
 30
0.0
 11
217.349542
 21
1465.169187
 31
0.0
  0
LINE
  5
D8
  8
DETAIL
 10
228.130834
 20
1442.087099
 30
0.0
 11
217.315496
 21
1442.087099
 31
0.0
  0
LINE
  5
D9
  8
DETAIL
 10
228.130834
 20
1465.169187
 30
0.0
 11
228.130834
 21
1442.087099
 31
0.0
  0
TEXT
  5
DA
  8
STELTXT
 10
683.805688
 20
1622.316287
 30
0.0
 40
25.0
  1
PANEL
  0
TEXT
  5
DB
  8
STELTXT
 10
683.805688
 20
1663.982954
 30
0.0
 40
25.0
  1
CONTROL
  0
DIMENSION
  5
BA8
  8
DIMENSION
  2
*D6
 10
502.912493
 20
125.0
 30
0.0
 11
477.412493
 21
62.5
 31
0.0
 70
     0
 13
391.25
 23
0.0
 33
0.0
 14
9.5
 24
125.0
 34
0.0
 50
90.0
  0
ENDSEC
  0
EOF
