  0
SECTION
  2
HEADER
  9
$ACADVER
  1
AC1009
  9
$INSBASE
 10
0.0
 20
0.0
 30
0.0
  9
$EXTMIN
 10
-871.234376
 20
-1962.257686
 30
0.0
  9
$EXTMAX
 10
1156.015749
 20
2061.233826
 30
0.0
  9
$LIMMIN
 10
0.0
 20
0.0
  9
$LIMMAX
 10
420.0
 20
297.0
  9
$ORTHOMODE
 70
     1
  9
$REGENMODE
 70
     1
  9
$FILLMODE
 70
     1
  9
$QTEXTMODE
 70
     0
  9
$MIRRTEXT
 70
     1
  9
$DRAGMODE
 70
     2
  9
$LTSCALE
 40
1.0
  9
$OSMODE
 70
     0
  9
$ATTMODE
 70
     2
  9
$TEXTSIZE
 40
25.0
  9
$TRACEWID
 40
1.0
  9
$TEXTSTYLE
  7
STANDARD
  9
$CLAYER
  8
0
  9
$CELTYPE
  6
BYLAYER
  9
$CECOLOR
 62
   256
  9
$DIMSCALE
 40
1.0
  9
$DIMASZ
 40
25.0
  9
$DIMEXO
 40
0.625
  9
$DIMDLI
 40
3.75
  9
$DIMRND
 40
0.0
  9
$DIMDLE
 40
0.0
  9
$DIMEXE
 40
1.25
  9
$DIMTP
 40
0.0
  9
$DIMTM
 40
0.0
  9
$DIMTXT
 40
25.0
  9
$DIMCEN
 40
2.5
  9
$DIMTSZ
 40
0.0
  9
$DIMTOL
 70
     0
  9
$DIMLIM
 70
     0
  9
$DIMTIH
 70
     0
  9
$DIMTOH
 70
     0
  9
$DIMSE1
 70
     0
  9
$DIMSE2
 70
     0
  9
$DIMTAD
 70
     1
  9
$DIMZIN
 70
     8
  9
$DIMBLK
  1

  9
$DIMASO
 70
     1
  9
$DIMSHO
 70
     1
  9
$DIMPOST
  1

  9
$DIMAPOST
  1

  9
$DIMALT
 70
     0
  9
$DIMALTD
 70
     3
  9
$DIMALTF
 40
0.03937
  9
$DIMLFAC
 40
1.0
  9
$DIMTOFL
 70
     1
  9
$DIMTVP
 40
0.0
  9
$DIMTIX
 70
     0
  9
$DIMSOXD
 70
     0
  9
$DIMSAH
 70
     0
  9
$DIMBLK1
  1

  9
$DIMBLK2
  1

  9
$DIMSTYLE
  2
ISO-25
  9
$DIMCLRD
 70
     0
  9
$DIMCLRE
 70
     0
  9
$DIMCLRT
 70
     0
  9
$DIMTFAC
 40
1.0
  9
$DIMGAP
 40
13.0
  9
$LUNITS
 70
     2
  9
$LUPREC
 70
     4
  9
$SKETCHINC
 40
1.0
  9
$FILLETRAD
 40
10.0
  9
$AUNITS
 70
     0
  9
$AUPREC
 70
     0
  9
$MENU
  1
.
  9
$ELEVATION
 40
0.0
  9
$PELEVATION
 40
0.0
  9
$THICKNESS
 40
0.0
  9
$LIMCHECK
 70
     0
  9
$BLIPMODE
 70
     0
  9
$CHAMFERA
 40
10.0
  9
$CHAMFERB
 40
10.0
  9
$SKPOLY
 70
     0
  9
$TDCREATE
 40
2452706.626866
  9
$TDUPDATE
 40
2453073.534573
  9
$TDINDWG
 40
0.256203
  9
$TDUSRTIMER
 40
0.256203
  9
$USRTIMER
 70
     1
  9
$ANGBASE
 50
0.0
  9
$ANGDIR
 70
     0
  9
$PDMODE
 70
     0
  9
$PDSIZE
 40
0.0
  9
$PLINEWID
 40
0.0
  9
$COORDS
 70
     1
  9
$SPLFRAME
 70
     0
  9
$SPLINETYPE
 70
     6
  9
$SPLINESEGS
 70
     8
  9
$ATTDIA
 70
     0
  9
$ATTREQ
 70
     1
  9
$HANDLING
 70
 22529
  9
$HANDSEED
  5
2EF
  9
$SURFTAB1
 70
     6
  9
$SURFTAB2
 70
     6
  9
$SURFTYPE
 70
     6
  9
$SURFU
 70
     6
  9
$SURFV
 70
     6
  9
$UCSNAME
  2

  9
$UCSORG
 10
0.0
 20
0.0
 30
0.0
  9
$UCSXDIR
 10
1.0
 20
0.0
 30
0.0
  9
$UCSYDIR
 10
0.0
 20
1.0
 30
0.0
  9
$PUCSNAME
  2

  9
$PUCSORG
 10
0.0
 20
0.0
 30
0.0
  9
$PUCSXDIR
 10
1.0
 20
0.0
 30
0.0
  9
$PUCSYDIR
 10
0.0
 20
1.0
 30
0.0
  9
$USERI1
 70
     0
  9
$USERI2
 70
     0
  9
$USERI3
 70
     0
  9
$USERI4
 70
     0
  9
$USERI5
 70
     0
  9
$USERR1
 40
0.0
  9
$USERR2
 40
0.0
  9
$USERR3
 40
0.0
  9
$USERR4
 40
0.0
  9
$USERR5
 40
0.0
  9
$WORLDVIEW
 70
     1
  9
$SHADEDGE
 70
     3
  9
$SHADEDIF
 70
    70
  9
$TILEMODE
 70
     1
  9
$MAXACTVP
 70
    48
  9
$PLIMCHECK
 70
     0
  9
$PEXTMIN
 10
1.000000E+020
 20
1.000000E+020
 30
1.000000E+020
  9
$PEXTMAX
 10
-1.000000E+020
 20
-1.000000E+020
 30
-1.000000E+020
  9
$PLIMMIN
 10
0.0
 20
0.0
  9
$PLIMMAX
 10
420.0
 20
297.0
  9
$UNITMODE
 70
     0
  9
$VISRETAIN
 70
     1
  9
$PLINEGEN
 70
     0
  9
$PSLTSCALE
 70
     1
  0
ENDSEC
  0
SECTION
  2
TABLES
  0
TABLE
  2
VPORT
 70
     2
  0
VPORT
  2
*ACTIVE
 70
     0
 10
0.0
 20
0.0
 11
1.0
 21
1.0
 12
142.390687
 22
49.48807
 13
0.0
 23
0.0
 14
10.0
 24
10.0
 15
10.0
 25
10.0
 16
0.0
 26
0.0
 36
1.0
 17
0.0
 27
0.0
 37
0.0
 40
4069.827307
 41
1.825
 42
50.0
 43
0.0
 44
0.0
 50
0.0
 51
0.0
 71
     0
 72
   100
 73
     1
 74
     3
 75
     0
 76
     0
 77
     0
 78
     0
  0
ENDTAB
  0
TABLE
  2
LTYPE
 70
     3
  0
LTYPE
  2
CONTINUOUS
 70
     0
  3
Solid line
 72
    65
 73
     0
 40
0.0
  0
LTYPE
  2
CENTER
 70
     0
  3
____ _ ____ _ ____ _ ____ _ ____ _ ____ _ ____
 72
    65
 73
     4
 40
2.0
 49
1.25
 49
-0.25
 49
0.25
 49
-0.25
  0
LTYPE
  2
DASHED
 70
     0
  3
__ __ __ __ __ __ __ __ __ __ __ __ __ __ __
 72
    65
 73
     2
 40
0.75
 49
0.5
 49
-0.25
  0
ENDTAB
  0
TABLE
  2
LAYER
 70
     9
  0
LAYER
  2
0
 70
     0
 62
     7
  6
CONTINUOUS
  0
LAYER
  2
ORIGIN
 70
     0
 62
     6
  6
CONTINUOUS
  0
LAYER
  2
DETAIL
 70
     0
 62
     2
  6
CONTINUOUS
  0
LAYER
  2
DIMENSION
 70
     0
 62
     7
  6
CONTINUOUS
  0
LAYER
  2
PLANNING
 70
     0
 62
     1
  6
DASHED
  0
LAYER
  2
STELTXT
 70
     0
 62
     4
  6
CONTINUOUS
  0
LAYER
  2
STELATT
 70
     0
 62
     7
  6
CONTINUOUS
  0
LAYER
  2
CENTER
 70
     0
 62
     4
  6
CENTER
  0
LAYER
  2
DEFPOINTS
 70
     0
 62
     7
  6
CONTINUOUS
  0
ENDTAB
  0
TABLE
  2
STYLE
 70
     1
  0
STYLE
  2
STANDARD
 70
     0
 40
0.0
 41
1.0
 50
0.0
 71
     0
 42
25.0
  3
simplex.shx
  4

  0
ENDTAB
  0
TABLE
  2
VIEW
 70
     0
  0
ENDTAB
  0
TABLE
  2
UCS
 70
     0
  0
ENDTAB
  0
TABLE
  2
APPID
 70
     1
  0
APPID
  2
ACAD
 70
     0
  0
ENDTAB
  0
TABLE
  2
DIMSTYLE
 70
     1
  0
DIMSTYLE
  2
ISO-25
 70
     0
  3

  4

  5

  6

  7

 40
1.0
 41
25.0
 42
0.625
 43
3.75
 44
1.25
 45
0.0
 46
0.0
 47
0.0
 48
0.0
140
25.0
141
2.5
142
0.0
143
0.03937
144
1.0
145
0.0
146
1.0
147
13.0
 71
     0
 72
     0
 73
     0
 74
     0
 75
     0
 76
     0
 77
     1
 78
     8
170
     0
171
     3
172
     1
173
     0
174
     0
175
     0
176
     0
177
     0
178
     0
  0
ENDTAB
  0
ENDSEC
  0
SECTION
  2
BLOCKS
  0
BLOCK
  8
0
  2
$MODEL_SPACE
 70
     2
 10
0.0
 20
0.0
 30
0.0
  3
$MODEL_SPACE
  1

  0
ENDBLK
  5
A
  8
0
  0
BLOCK
 67
     1
  8
0
  2
$PAPER_SPACE
 70
     0
 10
0.0
 20
0.0
 30
0.0
  3
$PAPER_SPACE
  1

  0
ENDBLK
  5
10
 67
     1
  8
0
  0
BLOCK
  8
0
  2
*D0
 70
     1
 10
0.0
 20
0.0
 30
0.0
  3
*D0
  1

  0
LINE
  5
1EE
  8
DIMENSION
 62
     0
 10
-126.25
 20
1561.0
 30
0.0
 11
-724.975879
 21
1561.0
 31
0.0
  0
LINE
  5
1EF
  8
DIMENSION
 62
     0
 10
-445.625
 20
1416.0
 30
0.0
 11
-724.975879
 21
1416.0
 31
0.0
  0
LINE
  5
1F0
  8
DIMENSION
 62
     0
 10
-723.725879
 20
1536.0
 30
0.0
 11
-723.725879
 21
1441.0
 31
0.0
  0
SOLID
  5
1F1
  8
DIMENSION
 62
     0
 10
-727.892546
 20
1536.0
 30
0.0
 11
-719.559213
 21
1536.0
 31
0.0
 12
-723.725879
 22
1561.0
 32
0.0
 13
-723.725879
 23
1561.0
 33
0.0
  0
SOLID
  5
1F2
  8
DIMENSION
 62
     0
 10
-727.892546
 20
1441.0
 30
0.0
 11
-719.559213
 21
1441.0
 31
0.0
 12
-723.725879
 22
1416.0
 32
0.0
 13
-723.725879
 23
1416.0
 33
0.0
  0
TEXT
  5
1F3
  8
0
 62
     0
 10
-736.725879
 20
1458.738095
 30
0.0
 40
25.0
  1
145
 50
90.0
  0
POINT
  5
1F4
  8
DEFPOINTS
 62
     0
 10
-125.625
 20
1561.0
 30
0.0
  0
POINT
  5
1F5
  8
DEFPOINTS
 62
     0
 10
-445.0
 20
1416.0
 30
0.0
  0
POINT
  5
1F6
  8
DEFPOINTS
 62
     0
 10
-723.725879
 20
1416.0
 30
0.0
  0
ENDBLK
  5
E3
  8
0
  0
BLOCK
  8
0
  2
*D1
 70
     1
 10
0.0
 20
0.0
 30
0.0
  3
*D1
  1

  0
LINE
  5
1F7
  8
DIMENSION
 62
     0
 10
-50.625
 20
1161.0
 30
0.0
 11
-723.725879
 21
1161.0
 31
0.0
  0
LINE
  5
1F8
  8
DIMENSION
 62
     0
 10
-26.125
 20
876.0
 30
0.0
 11
-723.725879
 21
876.0
 31
0.0
  0
LINE
  5
1F9
  8
DIMENSION
 62
     0
 10
-722.475879
 20
1136.0
 30
0.0
 11
-722.475879
 21
901.0
 31
0.0
  0
SOLID
  5
1FA
  8
DIMENSION
 62
     0
 10
-726.642546
 20
1136.0
 30
0.0
 11
-718.309213
 21
1136.0
 31
0.0
 12
-722.475879
 22
1161.0
 32
0.0
 13
-722.475879
 23
1161.0
 33
0.0
  0
SOLID
  5
1FB
  8
DIMENSION
 62
     0
 10
-726.642546
 20
901.0
 30
0.0
 11
-718.309213
 21
901.0
 31
0.0
 12
-722.475879
 22
876.0
 32
0.0
 13
-722.475879
 23
876.0
 33
0.0
  0
TEXT
  5
1FC
  8
0
 62
     0
 10
-735.475879
 20
986.357143
 30
0.0
 40
25.0
  1
285
 50
90.0
  0
POINT
  5
1FD
  8
DEFPOINTS
 62
     0
 10
-50.0
 20
1161.0
 30
0.0
  0
POINT
  5
1FE
  8
DEFPOINTS
 62
     0
 10
-25.5
 20
876.0
 30
0.0
  0
POINT
  5
1FF
  8
DEFPOINTS
 62
     0
 10
-722.475879
 20
876.0
 30
0.0
  0
ENDBLK
  5
EF
  8
0
  0
BLOCK
  8
0
  2
*D2
 70
     1
 10
0.0
 20
0.0
 30
0.0
  3
*D2
  1

  0
LINE
  5
200
  8
DIMENSION
 62
     0
 10
-26.125
 20
876.0
 30
0.0
 11
-723.725879
 21
876.0
 31
0.0
  0
LINE
  5
201
  8
DIMENSION
 62
     0
 10
-50.625
 20
561.0
 30
0.0
 11
-723.725879
 21
561.0
 31
0.0
  0
LINE
  5
202
  8
DIMENSION
 62
     0
 10
-722.475879
 20
851.0
 30
0.0
 11
-722.475879
 21
586.0
 31
0.0
  0
SOLID
  5
203
  8
DIMENSION
 62
     0
 10
-726.642546
 20
851.0
 30
0.0
 11
-718.309213
 21
851.0
 31
0.0
 12
-722.475879
 22
876.0
 32
0.0
 13
-722.475879
 23
876.0
 33
0.0
  0
SOLID
  5
204
  8
DIMENSION
 62
     0
 10
-726.642546
 20
586.0
 30
0.0
 11
-718.309213
 21
586.0
 31
0.0
 12
-722.475879
 22
561.0
 32
0.0
 13
-722.475879
 23
561.0
 33
0.0
  0
TEXT
  5
205
  8
0
 62
     0
 10
-735.475879
 20
688.738095
 30
0.0
 40
25.0
  1
315
 50
90.0
  0
POINT
  5
206
  8
DEFPOINTS
 62
     0
 10
-25.5
 20
876.0
 30
0.0
  0
POINT
  5
207
  8
DEFPOINTS
 62
     0
 10
-50.0
 20
561.0
 30
0.0
  0
POINT
  5
208
  8
DEFPOINTS
 62
     0
 10
-722.475879
 20
561.0
 30
0.0
  0
ENDBLK
  5
FB
  8
0
  0
BLOCK
  8
0
  2
*D3
 70
     1
 10
0.0
 20
0.0
 30
0.0
  3
*D3
  1

  0
LINE
  5
209
  8
DIMENSION
 62
     0
 10
-445.625
 20
1416.0
 30
0.0
 11
-723.725879
 21
1416.0
 31
0.0
  0
LINE
  5
20A
  8
DIMENSION
 62
     0
 10
-50.625
 20
1161.0
 30
0.0
 11
-723.725879
 21
1161.0
 31
0.0
  0
LINE
  5
20B
  8
DIMENSION
 62
     0
 10
-722.475879
 20
1391.0
 30
0.0
 11
-722.475879
 21
1186.0
 31
0.0
  0
SOLID
  5
20C
  8
DIMENSION
 62
     0
 10
-726.642546
 20
1391.0
 30
0.0
 11
-718.309213
 21
1391.0
 31
0.0
 12
-722.475879
 22
1416.0
 32
0.0
 13
-722.475879
 23
1416.0
 33
0.0
  0
SOLID
  5
20D
  8
DIMENSION
 62
     0
 10
-726.642546
 20
1186.0
 30
0.0
 11
-718.309213
 21
1186.0
 31
0.0
 12
-722.475879
 22
1161.0
 32
0.0
 13
-722.475879
 23
1161.0
 33
0.0
  0
TEXT
  5
20E
  8
0
 62
     0
 10
-735.475879
 20
1256.357143
 30
0.0
 40
25.0
  1
255
 50
90.0
  0
POINT
  5
20F
  8
DEFPOINTS
 62
     0
 10
-445.0
 20
1416.0
 30
0.0
  0
POINT
  5
210
  8
DEFPOINTS
 62
     0
 10
-50.0
 20
1161.0
 30
0.0
  0
POINT
  5
211
  8
DEFPOINTS
 62
     0
 10
-722.475879
 20
1161.0
 30
0.0
  0
ENDBLK
  5
107
  8
0
  0
BLOCK
  8
0
  2
*D4
 70
     1
 10
0.0
 20
0.0
 30
0.0
  3
*D4
  1

  0
LINE
  5
17A
  8
DIMENSION
 62
     0
 10
-445.0
 20
1416.625
 30
0.0
 11
-445.0
 21
1738.939525
 31
0.0
  0
LINE
  5
17B
  8
DIMENSION
 62
     0
 10
445.0
 20
1416.625
 30
0.0
 11
445.0
 21
1738.939525
 31
0.0
  0
LINE
  5
17C
  8
DIMENSION
 62
     0
 10
-420.0
 20
1737.689525
 30
0.0
 11
420.0
 21
1737.689525
 31
0.0
  0
SOLID
  5
17D
  8
DIMENSION
 62
     0
 10
-420.0
 20
1741.856192
 30
0.0
 11
-420.0
 21
1733.522859
 31
0.0
 12
-445.0
 22
1737.689525
 32
0.0
 13
-445.0
 23
1737.689525
 33
0.0
  0
SOLID
  5
17E
  8
DIMENSION
 62
     0
 10
420.0
 20
1741.856192
 30
0.0
 11
420.0
 21
1733.522859
 31
0.0
 12
445.0
 22
1737.689525
 32
0.0
 13
445.0
 23
1737.689525
 33
0.0
  0
TEXT
  5
17F
  8
0
 62
     0
 10
-32.455357
 20
1750.689525
 30
0.0
 40
25.0
  1
890
  0
POINT
  5
180
  8
DEFPOINTS
 62
     0
 10
-445.0
 20
1416.0
 30
0.0
  0
POINT
  5
181
  8
DEFPOINTS
 62
     0
 10
445.0
 20
1416.0
 30
0.0
  0
POINT
  5
182
  8
DEFPOINTS
 62
     0
 10
445.0
 20
1737.689525
 30
0.0
  0
ENDBLK
  5
113
  8
0
  0
BLOCK
  8
0
  2
*D5
 70
     1
 10
0.0
 20
0.0
 30
0.0
  3
*D5
  1

  0
LINE
  5
1E5
  8
DIMENSION
 62
     0
 10
-445.625
 20
139.0
 30
0.0
 11
-727.660145
 21
139.0
 31
0.0
  0
LINE
  5
1E6
  8
DIMENSION
 62
     0
 10
-388.625
 20
0.0
 30
0.0
 11
-727.660145
 21
0.0
 31
0.0
  0
LINE
  5
1E7
  8
DIMENSION
 62
     0
 10
-726.410145
 20
114.0
 30
0.0
 11
-726.410145
 21
25.0
 31
0.0
  0
SOLID
  5
1E8
  8
DIMENSION
 62
     0
 10
-730.576811
 20
114.0
 30
0.0
 11
-722.243478
 21
114.0
 31
0.0
 12
-726.410145
 22
139.0
 32
0.0
 13
-726.410145
 23
139.0
 33
0.0
  0
SOLID
  5
1E9
  8
DIMENSION
 62
     0
 10
-730.576811
 20
25.0
 30
0.0
 11
-722.243478
 21
25.0
 31
0.0
 12
-726.410145
 22
0.0
 32
0.0
 13
-726.410145
 23
0.0
 33
0.0
  0
TEXT
  5
1EA
  8
0
 62
     0
 10
-739.410145
 20
40.333333
 30
0.0
 40
25.0
  1
139
 50
90.0
  0
POINT
  5
1EB
  8
DEFPOINTS
 62
     0
 10
-445.0
 20
139.0
 30
0.0
  0
POINT
  5
1EC
  8
DEFPOINTS
 62
     0
 10
-388.0
 20
0.0
 30
0.0
  0
POINT
  5
1ED
  8
DEFPOINTS
 62
     0
 10
-726.410145
 20
0.0
 30
0.0
  0
ENDBLK
  5
11F
  8
0
  0
BLOCK
  8
0
  2
*D6
 70
     1
 10
0.0
 20
0.0
 30
0.0
  3
*D6
  1

  0
LINE
  5
1DC
  8
DIMENSION
 62
     0
 10
-125.625
 20
1561.0
 30
0.0
 11
-834.36338
 21
1561.0
 31
0.0
  0
LINE
  5
1DD
  8
DIMENSION
 62
     0
 10
-388.625
 20
0.0
 30
0.0
 11
-834.36338
 21
0.0
 31
0.0
  0
LINE
  5
1DE
  8
DIMENSION
 62
     0
 10
-833.11338
 20
1536.0
 30
0.0
 11
-833.11338
 21
25.0
 31
0.0
  0
SOLID
  5
1DF
  8
DIMENSION
 62
     0
 10
-837.280046
 20
1536.0
 30
0.0
 11
-828.946713
 21
1536.0
 31
0.0
 12
-833.11338
 22
1561.0
 32
0.0
 13
-833.11338
 23
1561.0
 33
0.0
  0
SOLID
  5
1E0
  8
DIMENSION
 62
     0
 10
-837.280046
 20
25.0
 30
0.0
 11
-828.946713
 21
25.0
 31
0.0
 12
-833.11338
 22
0.0
 32
0.0
 13
-833.11338
 23
0.0
 33
0.0
  0
TEXT
  5
1E1
  8
0
 62
     0
 10
-846.11338
 20
931.690476
 30
0.0
 40
25.0
  1
1561
 50
90.0
  0
POINT
  5
1E2
  8
DEFPOINTS
 62
     0
 10
-125.0
 20
1561.0
 30
0.0
  0
POINT
  5
1E3
  8
DEFPOINTS
 62
     0
 10
-388.0
 20
0.0
 30
0.0
  0
POINT
  5
1E4
  8
DEFPOINTS
 62
     0
 10
-833.11338
 20
0.0
 30
0.0
  0
ENDBLK
  5
12B
  8
0
  0
ENDSEC
  0
SECTION
  2
ENTITIES
  0
DIMENSION
  5
26
  8
DIMENSION
  2
*D6
 10
-833.11338
 20
0.0
 30
0.0
 11
-833.11338
 21
968.0
 31
0.0
 70
   128
 13
-125.0
 23
1561.0
 33
0.0
 14
-388.0
 24
0.0
 34
0.0
 50
90.0
  0
LINE
  5
37
  8
PLANNING
 10
-645.0
 20
2061.0
 30
0.0
 11
-645.0
 21
-1561.0
 31
0.0
  0
LINE
  5
3A
  8
DETAIL
 10
-445.0
 20
1416.0
 30
0.0
 11
-445.0
 21
139.0
 31
0.0
  0
LINE
  5
3C
  8
PLANNING
 10
545.0
 20
2061.0
 30
0.0
 11
545.0
 21
-1561.0
 31
0.0
  0
LINE
  5
3D
  8
DETAIL
 10
445.0
 20
1416.0
 30
0.0
 11
445.0
 21
139.0
 31
0.0
  0
ARC
  5
3E
  8
DETAIL
 10
-179.285162
 20
261.783929
 30
0.0
 40
406.785992
 50
349.544172
 51
10.455828
  0
LINE
  5
3F
  8
CENTER
  6
CENTER
 10
0.0
 20
1561.0
 30
0.0
 11
0.0
 21
0.0
 31
0.0
  0
ARC
  5
42
  8
DETAIL
 10
179.285162
 20
261.783929
 30
0.0
 40
406.785992
 50
169.544172
 51
190.455828
  0
POLYLINE
  5
43
  8
DETAIL
 66
     1
 10
0.0
 20
0.0
 30
0.0
 70
     1
  0
VERTEX
  5
2D1
  8
DETAIL
 10
-195.767652
 20
173.99708
 30
0.0
 42
-0.414214
  0
VERTEX
  5
2D2
  8
DETAIL
 10
-210.767652
 20
188.99708
 30
0.0
 42
-0.092505
  0
VERTEX
  5
2D3
  8
DETAIL
 10
-210.767652
 20
334.570778
 30
0.0
 42
-0.414214
  0
VERTEX
  5
2D4
  8
DETAIL
 10
-195.767652
 20
349.570778
 30
0.0
  0
VERTEX
  5
2D5
  8
DETAIL
 10
195.767652
 20
349.570778
 30
0.0
 42
-0.414214
  0
VERTEX
  5
2D6
  8
DETAIL
 10
210.767652
 20
334.570778
 30
0.0
 42
-0.092505
  0
VERTEX
  5
2D7
  8
DETAIL
 10
210.767652
 20
188.99708
 30
0.0
 42
-0.414214
  0
VERTEX
  5
2D8
  8
DETAIL
 10
195.767652
 20
173.99708
 30
0.0
  0
SEQEND
  5
2D9
  8
DETAIL
  0
LINE
  5
44
  8
STELTXT
 10
159.76462
 20
-4.982537
 30
0.0
 11
633.444267
 21
-4.982537
 31
0.0
1001
ACAD
1000
R13OBJECT
1002
{
1005
0
1002
}
  0
SOLID
  5
46
  8
STELTXT
  6
CONTINUOUS
 10
-159.76462
 20
-9.14919
 30
0.0
 11
-134.76462
 21
-4.982523
 31
0.0
 12
-159.76462
 22
-0.815857
 32
0.0
 13
-159.76462
 23
-0.815857
 33
0.0
210
-0.0
220
0.0
230
-1.0
  0
LINE
  5
47
  8
DETAIL
 10
388.0
 20
0.0
 30
0.0
 11
-388.0
 21
0.0
 31
0.0
  0
LINE
  5
48
  8
DETAIL
 10
388.0
 20
69.5
 30
0.0
 11
-388.0
 21
69.5
 31
0.0
  0
LINE
  5
49
  8
DETAIL
 10
-445.0
 20
139.0
 30
0.0
 11
445.0
 21
139.0
 31
0.0
  0
LINE
  5
4A
  8
PLANNING
 10
545.0
 20
-1561.0
 30
0.0
 11
-645.0
 21
-1561.0
 31
0.0
  0
ATTDEF
  5
4B
  8
STELATT
 10
-93.333333
 20
-1961.986484
 30
0.0
 40
40.0
  1
420
 72
     4
 11
0.0
 21
-1941.986484
 31
0.0
  3

  2
MODEL
 70
     2
  0
ATTDEF
  5
4D
  8
STELATT
 10
-68.571429
 20
-1896.986484
 30
0.0
 40
40.0
  1
VANGUARD L
 72
     4
 11
0.0
 21
-1876.986484
 31
0.0
  3

  2
TYPE
 70
     2
  0
ATTDEF
  5
4E
  8
STELATT
 10
-233.333333
 20
-1831.986484
 30
0.0
 40
40.0
  1
IDEAL
 72
     4
 11
0.0
 21
-1811.986484
 31
0.0
  3

  2
MANUFACTURER
 70
     2
  0
DIMENSION
  5
4F
  8
DIMENSION
  2
*D5
 10
-726.410145
 20
0.0
 30
0.0
 11
-751.910145
 21
69.5
 31
0.0
 70
     0
 13
-445.0
 23
139.0
 33
0.0
 14
-388.0
 24
0.0
 34
0.0
 50
90.0
  0
LINE
  5
5C
  8
DETAIL
 10
-368.0
 20
69.5
 30
0.0
 11
-368.0
 21
139.0
 31
0.0
  0
LINE
  5
5D
  8
DETAIL
 10
-388.0
 20
69.5
 30
0.0
 11
-388.0
 21
0.0
 31
0.0
  0
LINE
  5
5E
  8
DETAIL
 10
125.0
 20
-5.0
 30
0.0
 11
-125.0
 21
-5.0
 31
0.0
  0
POLYLINE
  5
5F
  8
ORIGIN
 66
     1
 10
0.0
 20
0.0
 30
0.0
 70
     1
  0
VERTEX
  5
2DA
  8
ORIGIN
 10
37.5
 20
-37.5
 30
0.0
  0
VERTEX
  5
2DB
  8
ORIGIN
 10
-37.5
 20
37.5
 30
0.0
  0
VERTEX
  5
2DC
  8
ORIGIN
 10
-37.5
 20
-37.5
 30
0.0
  0
VERTEX
  5
2DD
  8
ORIGIN
 10
37.5
 20
37.5
 30
0.0
  0
SEQEND
  5
2DE
  8
ORIGIN
  0
ARC
  5
61
  8
DETAIL
 10
-195.767652
 20
188.99708
 30
0.0
 40
25.0
 50
182.374172
 51
216.869898
  0
LINE
  5
62
  8
DETAIL
 10
-195.767652
 20
173.99708
 30
0.0
 11
-215.767652
 21
173.99708
 31
0.0
  0
LINE
  5
63
  8
DETAIL
 10
-125.0
 20
-5.0
 30
0.0
 11
-125.0
 21
0.0
 31
0.0
  0
LINE
  5
64
  8
DETAIL
 10
125.0
 20
-5.0
 30
0.0
 11
125.0
 21
0.0
 31
0.0
  0
ARC
  5
65
  8
DETAIL
 10
195.767652
 20
188.99708
 30
0.0
 40
25.0
 50
323.130102
 51
357.625828
  0
LINE
  5
66
  8
DETAIL
 10
195.767652
 20
173.99708
 30
0.0
 11
215.767652
 21
173.99708
 31
0.0
  0
TEXT
  5
67
  8
STELTXT
 10
653.622128
 20
-18.02139
 30
0.0
 40
25.0
  1
BURNER CONNECTION
  0
LINE
  5
68
  8
DETAIL
 10
368.0
 20
69.5
 30
0.0
 11
368.0
 21
139.0
 31
0.0
  0
LINE
  5
69
  8
DETAIL
 10
388.0
 20
69.5
 30
0.0
 11
388.0
 21
0.0
 31
0.0
  0
DIMENSION
  5
6A
  8
DIMENSION
  2
*D4
 10
445.0
 20
1737.689525
 30
0.0
 11
-0.3125
 21
1737.689525
 31
0.0
 70
   128
 13
-445.0
 23
1416.0
 33
0.0
 14
445.0
 24
1416.0
 34
0.0
  0
LINE
  5
79
  8
PLANNING
 10
-645.0
 20
2061.0
 30
0.0
 11
545.0
 21
2061.0
 31
0.0
  0
LINE
  5
7A
  8
DETAIL
 10
-445.0
 20
1416.0
 30
0.0
 11
445.0
 21
1416.0
 31
0.0
  0
LINE
  5
7B
  8
DETAIL
 10
-335.315
 20
1541.0
 30
0.0
 11
335.315
 21
1541.0
 31
0.0
  0
POLYLINE
  5
7C
  8
STELTXT
 66
     1
 10
0.0
 20
0.0
 30
0.0
 70
   128
1001
ACAD
1000
R13OBJECT
1002
{
1005
0
1002
}
  0
VERTEX
  5
2DF
  8
STELTXT
 10
63.312922
 20
883.116864
 30
0.0
  0
VERTEX
  5
2E0
  8
STELTXT
 10
490.720661
 20
986.471679
 30
0.0
  0
VERTEX
  5
2E1
  8
STELTXT
 10
634.54573
 20
986.471679
 30
0.0
  0
SEQEND
  5
2E2
  8
STELTXT
  0
POLYLINE
  5
7D
  8
STELTXT
 66
     1
 10
0.0
 20
0.0
 30
0.0
 70
   128
1001
ACAD
1000
R13OBJECT
1002
{
1005
0
1002
}
  0
VERTEX
  5
2E3
  8
STELTXT
 10
64.771859
 20
568.102231
 30
0.0
  0
VERTEX
  5
2E4
  8
STELTXT
 10
492.179598
 20
671.457045
 30
0.0
  0
VERTEX
  5
2E5
  8
STELTXT
 10
636.004667
 20
671.457045
 30
0.0
  0
SEQEND
  5
2E6
  8
STELTXT
  0
POLYLINE
  5
7E
  8
STELTXT
 66
     1
 10
0.0
 20
0.0
 30
0.0
 70
   128
1001
ACAD
1000
R13OBJECT
1002
{
1005
0
1002
}
  0
VERTEX
  5
2E7
  8
STELTXT
 10
152.626217
 20
1562.669573
 30
0.0
  0
VERTEX
  5
2E8
  8
STELTXT
 10
585.228586
 20
1672.817984
 30
0.0
  0
VERTEX
  5
2E9
  8
STELTXT
 10
633.444267
 20
1672.817984
 30
0.0
  0
SEQEND
  5
2EA
  8
STELTXT
  0
POLYLINE
  5
7F
  8
STELTXT
 66
     1
 10
0.0
 20
0.0
 30
0.0
 70
   128
1001
ACAD
1000
R13OBJECT
1002
{
1005
0
1002
}
  0
VERTEX
  5
2EB
  8
STELTXT
 10
64.771859
 20
1189.471594
 30
0.0
  0
VERTEX
  5
2EC
  8
STELTXT
 10
492.179598
 20
1292.826409
 30
0.0
  0
VERTEX
  5
2ED
  8
STELTXT
 10
636.004667
 20
1292.826409
 30
0.0
  0
SEQEND
  5
2EE
  8
STELTXT
  0
DIMENSION
  5
80
  8
DIMENSION
  2
*D3
 10
-722.475879
 20
1161.0
 30
0.0
 11
-747.975879
 21
1288.5
 31
0.0
 70
     0
 13
-445.0
 23
1416.0
 33
0.0
 14
-50.0
 24
1161.0
 34
0.0
 50
90.0
  0
DIMENSION
  5
8F
  8
DIMENSION
  2
*D2
 10
-722.475879
 20
561.0
 30
0.0
 11
-747.975879
 21
718.5
 31
0.0
 70
     0
 13
-25.5
 23
876.0
 33
0.0
 14
-50.0
 24
561.0
 34
0.0
 50
90.0
  0
DIMENSION
  5
9E
  8
DIMENSION
  2
*D1
 10
-722.475879
 20
876.0
 30
0.0
 11
-747.975879
 21
1018.5
 31
0.0
 70
     0
 13
-50.0
 23
1161.0
 33
0.0
 14
-25.5
 24
876.0
 34
0.0
 50
90.0
  0
CIRCLE
  5
AD
  8
DETAIL
 10
0.0
 20
561.0
 30
0.0
 40
50.0
  0
LINE
  5
AE
  8
DETAIL
 10
-195.767652
 20
359.570778
 30
0.0
 11
195.767652
 21
359.570778
 31
0.0
  0
ARC
  5
AF
  8
DETAIL
 10
-195.767652
 20
334.570778
 30
0.0
 40
25.0
 50
90.0
 51
177.625828
  0
ARC
  5
B0
  8
DETAIL
 10
195.767652
 20
334.570778
 30
0.0
 40
25.0
 50
2.374172
 51
90.0
  0
SOLID
  5
B1
  8
STELTXT
  6
CONTINUOUS
 10
-65.708131
 20
564.042119
 30
0.0
 11
-40.41119
 21
562.484598
 31
0.0
 12
-63.835587
 22
572.162342
 32
0.0
 13
-63.835587
 23
572.162342
 33
0.0
210
0.0
220
0.0
230
-1.0
  0
CIRCLE
  5
B2
  8
DETAIL
 10
0.0
 20
1161.0
 30
0.0
 40
50.0
  0
CIRCLE
  5
B3
  8
DETAIL
 10
0.0
 20
876.0
 30
0.0
 40
25.5
  0
SOLID
  5
B4
  8
STELTXT
  6
CONTINUOUS
 10
-64.249194
 20
879.056753
 30
0.0
 11
-38.952253
 21
877.499232
 31
0.0
 12
-62.37665
 22
887.176976
 32
0.0
 13
-62.37665
 23
887.176976
 33
0.0
210
0.0
220
0.0
230
-1.0
  0
SOLID
  5
B5
  8
STELTXT
  6
CONTINUOUS
 10
-65.708131
 20
1185.411483
 30
0.0
 11
-40.41119
 21
1183.853962
 31
0.0
 12
-63.835587
 22
1193.531706
 32
0.0
 13
-63.835587
 23
1193.531706
 33
0.0
210
0.0
220
0.0
230
-1.0
  0
DIMENSION
  5
B6
  8
DIMENSION
  2
*D0
 10
-723.725879
 20
1416.0
 30
0.0
 11
-749.225879
 21
1488.5
 31
0.0
 70
     0
 13
-125.625
 23
1561.0
 33
0.0
 14
-445.0
 24
1416.0
 34
0.0
 50
90.0
  0
LINE
  5
C5
  8
DETAIL
 10
-335.315
 20
1541.0
 30
0.0
 11
-335.315
 21
1416.0
 31
0.0
  0
LINE
  5
C6
  8
DETAIL
 10
-125.0
 20
1561.0
 30
0.0
 11
125.0
 21
1561.0
 31
0.0
  0
LINE
  5
C7
  8
DETAIL
 10
-125.0
 20
1561.0
 30
0.0
 11
-125.0
 21
1541.0
 31
0.0
  0
LINE
  5
C8
  8
DETAIL
 10
125.0
 20
1561.0
 30
0.0
 11
125.0
 21
1541.0
 31
0.0
  0
SOLID
  5
C9
  8
STELTXT
  6
CONTINUOUS
 10
-153.286937
 20
1558.555626
 30
0.0
 11
-127.942535
 21
1558.705256
 31
0.0
 12
-151.965498
 22
1566.78352
 32
0.0
 13
-151.965498
 23
1566.78352
 33
0.0
210
0.0
220
0.0
230
-1.0
  0
TEXT
  5
CA
  8
STELTXT
 10
645.170287
 20
931.988811
 30
0.0
 40
25.0
  1
& EXPANSION CONNECTION
  0
TEXT
  5
CB
  8
STELTXT
 10
646.392268
 20
618.026403
 30
0.0
 40
25.0
  1
CONNECTION
  0
TEXT
  5
CC
  8
STELTXT
 10
646.392268
 20
660.883546
 30
0.0
 40
25.0
  1
100mm RETURN
  0
TEXT
  5
CD
  8
STELTXT
 10
646.392268
 20
1239.395767
 30
0.0
 40
25.0
  1
CONNECTION
  0
TEXT
  5
CE
  8
STELTXT
 10
645.170287
 20
974.845954
 30
0.0
 40
25.0
  1
2" SAFETY VALVE
  0
TEXT
  5
CF
  8
STELTXT
 10
646.392268
 20
1282.25291
 30
0.0
 40
25.0
  1
100mm FLOW
  0
TEXT
  5
D0
  8
STELTXT
 10
646.083811
 20
1660.224425
 30
0.0
 40
25.0
  1
250mm FLUE OUTLET
  0
LINE
  5
D1
  8
DETAIL
 10
335.315
 20
1541.0
 30
0.0
 11
335.315
 21
1416.0
 31
0.0
  0
ENDSEC
  0
EOF
