  0
SECTION
  2
HEADER
  9
$ACADVER
  1
AC1009
  9
$INSBASE
 10
0.0
 20
0.0
 30
0.0
  9
$EXTMIN
 10
-871.262183
 20
-2467.151451
 30
0.0
  9
$EXTMAX
 10
1156.033424
 20
2566.317216
 30
0.0
  9
$LIMMIN
 10
0.0
 20
0.0
  9
$LIMMAX
 10
420.0
 20
297.0
  9
$ORTHOMODE
 70
     1
  9
$REGENMODE
 70
     1
  9
$FILLMODE
 70
     1
  9
$QTEXTMODE
 70
     0
  9
$MIRRTEXT
 70
     1
  9
$DRAGMODE
 70
     2
  9
$LTSCALE
 40
1.0
  9
$OSMODE
 70
     0
  9
$ATTMODE
 70
     2
  9
$TEXTSIZE
 40
25.0
  9
$TRACEWID
 40
1.0
  9
$TEXTSTYLE
  7
STANDARD
  9
$CLAYER
  8
0
  9
$CELTYPE
  6
BYLAYER
  9
$CECOLOR
 62
   256
  9
$DIMSCALE
 40
1.0
  9
$DIMASZ
 40
25.0
  9
$DIMEXO
 40
0.625
  9
$DIMDLI
 40
3.75
  9
$DIMRND
 40
0.0
  9
$DIMDLE
 40
0.0
  9
$DIMEXE
 40
1.25
  9
$DIMTP
 40
0.0
  9
$DIMTM
 40
0.0
  9
$DIMTXT
 40
25.0
  9
$DIMCEN
 40
2.5
  9
$DIMTSZ
 40
0.0
  9
$DIMTOL
 70
     0
  9
$DIMLIM
 70
     0
  9
$DIMTIH
 70
     0
  9
$DIMTOH
 70
     0
  9
$DIMSE1
 70
     0
  9
$DIMSE2
 70
     0
  9
$DIMTAD
 70
     1
  9
$DIMZIN
 70
     8
  9
$DIMBLK
  1

  9
$DIMASO
 70
     1
  9
$DIMSHO
 70
     1
  9
$DIMPOST
  1

  9
$DIMAPOST
  1

  9
$DIMALT
 70
     0
  9
$DIMALTD
 70
     3
  9
$DIMALTF
 40
0.03937
  9
$DIMLFAC
 40
1.0
  9
$DIMTOFL
 70
     1
  9
$DIMTVP
 40
0.0
  9
$DIMTIX
 70
     0
  9
$DIMSOXD
 70
     0
  9
$DIMSAH
 70
     0
  9
$DIMBLK1
  1

  9
$DIMBLK2
  1

  9
$DIMSTYLE
  2
ISO-25
  9
$DIMCLRD
 70
     0
  9
$DIMCLRE
 70
     0
  9
$DIMCLRT
 70
     0
  9
$DIMTFAC
 40
1.0
  9
$DIMGAP
 40
13.0
  9
$LUNITS
 70
     2
  9
$LUPREC
 70
     4
  9
$SKETCHINC
 40
1.0
  9
$FILLETRAD
 40
10.0
  9
$AUNITS
 70
     0
  9
$AUPREC
 70
     0
  9
$MENU
  1
.
  9
$ELEVATION
 40
0.0
  9
$PELEVATION
 40
0.0
  9
$THICKNESS
 40
0.0
  9
$LIMCHECK
 70
     0
  9
$BLIPMODE
 70
     0
  9
$CHAMFERA
 40
10.0
  9
$CHAMFERB
 40
10.0
  9
$SKPOLY
 70
     0
  9
$TDCREATE
 40
2452706.626866
  9
$TDUPDATE
 40
2453073.534627
  9
$TDINDWG
 40
0.276504
  9
$TDUSRTIMER
 40
0.276504
  9
$USRTIMER
 70
     1
  9
$ANGBASE
 50
0.0
  9
$ANGDIR
 70
     0
  9
$PDMODE
 70
     0
  9
$PDSIZE
 40
0.0
  9
$PLINEWID
 40
0.0
  9
$COORDS
 70
     1
  9
$SPLFRAME
 70
     0
  9
$SPLINETYPE
 70
     6
  9
$SPLINESEGS
 70
     8
  9
$ATTDIA
 70
     0
  9
$ATTREQ
 70
     1
  9
$HANDLING
 70
 22529
  9
$HANDSEED
  5
329
  9
$SURFTAB1
 70
     6
  9
$SURFTAB2
 70
     6
  9
$SURFTYPE
 70
     6
  9
$SURFU
 70
     6
  9
$SURFV
 70
     6
  9
$UCSNAME
  2

  9
$UCSORG
 10
0.0
 20
0.0
 30
0.0
  9
$UCSXDIR
 10
1.0
 20
0.0
 30
0.0
  9
$UCSYDIR
 10
0.0
 20
1.0
 30
0.0
  9
$PUCSNAME
  2

  9
$PUCSORG
 10
0.0
 20
0.0
 30
0.0
  9
$PUCSXDIR
 10
1.0
 20
0.0
 30
0.0
  9
$PUCSYDIR
 10
0.0
 20
1.0
 30
0.0
  9
$USERI1
 70
     0
  9
$USERI2
 70
     0
  9
$USERI3
 70
     0
  9
$USERI4
 70
     0
  9
$USERI5
 70
     0
  9
$USERR1
 40
0.0
  9
$USERR2
 40
0.0
  9
$USERR3
 40
0.0
  9
$USERR4
 40
0.0
  9
$USERR5
 40
0.0
  9
$WORLDVIEW
 70
     1
  9
$SHADEDGE
 70
     3
  9
$SHADEDIF
 70
    70
  9
$TILEMODE
 70
     1
  9
$MAXACTVP
 70
    48
  9
$PLIMCHECK
 70
     0
  9
$PEXTMIN
 10
1.000000E+020
 20
1.000000E+020
 30
1.000000E+020
  9
$PEXTMAX
 10
-1.000000E+020
 20
-1.000000E+020
 30
-1.000000E+020
  9
$PLIMMIN
 10
0.0
 20
0.0
  9
$PLIMMAX
 10
420.0
 20
297.0
  9
$UNITMODE
 70
     0
  9
$VISRETAIN
 70
     1
  9
$PLINEGEN
 70
     0
  9
$PSLTSCALE
 70
     1
  0
ENDSEC
  0
SECTION
  2
TABLES
  0
TABLE
  2
VPORT
 70
     2
  0
VPORT
  2
*ACTIVE
 70
     0
 10
0.0
 20
0.0
 11
1.0
 21
1.0
 12
142.38562
 22
49.582883
 13
0.0
 23
0.0
 14
10.0
 24
10.0
 15
10.0
 25
10.0
 16
0.0
 26
0.0
 36
1.0
 17
0.0
 27
0.0
 37
0.0
 40
5091.435676
 41
1.825
 42
50.0
 43
0.0
 44
0.0
 50
0.0
 51
0.0
 71
     0
 72
   100
 73
     1
 74
     3
 75
     0
 76
     0
 77
     0
 78
     0
  0
ENDTAB
  0
TABLE
  2
LTYPE
 70
     3
  0
LTYPE
  2
CONTINUOUS
 70
     0
  3
Solid line
 72
    65
 73
     0
 40
0.0
  0
LTYPE
  2
CENTER
 70
     0
  3
____ _ ____ _ ____ _ ____ _ ____ _ ____ _ ____
 72
    65
 73
     4
 40
2.0
 49
1.25
 49
-0.25
 49
0.25
 49
-0.25
  0
LTYPE
  2
DASHED
 70
     0
  3
__ __ __ __ __ __ __ __ __ __ __ __ __ __ __
 72
    65
 73
     2
 40
0.75
 49
0.5
 49
-0.25
  0
ENDTAB
  0
TABLE
  2
LAYER
 70
     9
  0
LAYER
  2
0
 70
     0
 62
     7
  6
CONTINUOUS
  0
LAYER
  2
ORIGIN
 70
     0
 62
     6
  6
CONTINUOUS
  0
LAYER
  2
DETAIL
 70
     0
 62
     2
  6
CONTINUOUS
  0
LAYER
  2
DIMENSION
 70
     0
 62
     7
  6
CONTINUOUS
  0
LAYER
  2
PLANNING
 70
     0
 62
     1
  6
DASHED
  0
LAYER
  2
STELTXT
 70
     0
 62
     4
  6
CONTINUOUS
  0
LAYER
  2
STELATT
 70
     0
 62
     7
  6
CONTINUOUS
  0
LAYER
  2
CENTER
 70
     0
 62
     4
  6
CENTER
  0
LAYER
  2
DEFPOINTS
 70
     0
 62
     7
  6
CONTINUOUS
  0
ENDTAB
  0
TABLE
  2
STYLE
 70
     1
  0
STYLE
  2
STANDARD
 70
     0
 40
0.0
 41
1.0
 50
0.0
 71
     0
 42
25.0
  3
simplex.shx
  4

  0
ENDTAB
  0
TABLE
  2
VIEW
 70
     0
  0
ENDTAB
  0
TABLE
  2
UCS
 70
     0
  0
ENDTAB
  0
TABLE
  2
APPID
 70
     1
  0
APPID
  2
ACAD
 70
     0
  0
ENDTAB
  0
TABLE
  2
DIMSTYLE
 70
     1
  0
DIMSTYLE
  2
ISO-25
 70
     0
  3

  4

  5

  6

  7

 40
1.0
 41
25.0
 42
0.625
 43
3.75
 44
1.25
 45
0.0
 46
0.0
 47
0.0
 48
0.0
140
25.0
141
2.5
142
0.0
143
0.03937
144
1.0
145
0.0
146
1.0
147
13.0
 71
     0
 72
     0
 73
     0
 74
     0
 75
     0
 76
     0
 77
     1
 78
     8
170
     0
171
     3
172
     1
173
     0
174
     0
175
     0
176
     0
177
     0
178
     0
  0
ENDTAB
  0
ENDSEC
  0
SECTION
  2
BLOCKS
  0
BLOCK
  8
0
  2
$MODEL_SPACE
 70
     2
 10
0.0
 20
0.0
 30
0.0
  3
$MODEL_SPACE
  1

  0
ENDBLK
  5
B
  8
0
  0
BLOCK
 67
     1
  8
0
  2
$PAPER_SPACE
 70
     0
 10
0.0
 20
0.0
 30
0.0
  3
$PAPER_SPACE
  1

  0
ENDBLK
  5
12
 67
     1
  8
0
  0
BLOCK
  8
0
  2
*D0
 70
     1
 10
0.0
 20
0.0
 30
0.0
  3
*D0
  1

  0
LINE
  5
228
  8
DIMENSION
 62
     0
 10
-126.25
 20
2066.0
 30
0.0
 11
-724.975879
 21
2066.0
 31
0.0
  0
LINE
  5
229
  8
DIMENSION
 62
     0
 10
-445.625
 20
1921.0
 30
0.0
 11
-724.975879
 21
1921.0
 31
0.0
  0
LINE
  5
22A
  8
DIMENSION
 62
     0
 10
-723.725879
 20
2041.0
 30
0.0
 11
-723.725879
 21
1946.0
 31
0.0
  0
SOLID
  5
22B
  8
DIMENSION
 62
     0
 10
-727.892546
 20
2041.0
 30
0.0
 11
-719.559213
 21
2041.0
 31
0.0
 12
-723.725879
 22
2066.0
 32
0.0
 13
-723.725879
 23
2066.0
 33
0.0
  0
SOLID
  5
22C
  8
DIMENSION
 62
     0
 10
-727.892546
 20
1946.0
 30
0.0
 11
-719.559213
 21
1946.0
 31
0.0
 12
-723.725879
 22
1921.0
 32
0.0
 13
-723.725879
 23
1921.0
 33
0.0
  0
TEXT
  5
22D
  8
0
 62
     0
 10
-736.725879
 20
1963.738095
 30
0.0
 40
25.0
  1
145
 50
90.0
  0
POINT
  5
22E
  8
DEFPOINTS
 62
     0
 10
-125.625
 20
2066.0
 30
0.0
  0
POINT
  5
22F
  8
DEFPOINTS
 62
     0
 10
-445.0
 20
1921.0
 30
0.0
  0
POINT
  5
230
  8
DEFPOINTS
 62
     0
 10
-723.725879
 20
1921.0
 30
0.0
  0
ENDBLK
  5
E5
  8
0
  0
BLOCK
  8
0
  2
*D1
 70
     1
 10
0.0
 20
0.0
 30
0.0
  3
*D1
  1

  0
LINE
  5
231
  8
DIMENSION
 62
     0
 10
-50.625
 20
1666.0
 30
0.0
 11
-723.725879
 21
1666.0
 31
0.0
  0
LINE
  5
232
  8
DIMENSION
 62
     0
 10
-26.125
 20
876.0
 30
0.0
 11
-723.725879
 21
876.0
 31
0.0
  0
LINE
  5
233
  8
DIMENSION
 62
     0
 10
-722.475879
 20
1641.0
 30
0.0
 11
-722.475879
 21
901.0
 31
0.0
  0
SOLID
  5
234
  8
DIMENSION
 62
     0
 10
-726.642546
 20
1641.0
 30
0.0
 11
-718.309213
 21
1641.0
 31
0.0
 12
-722.475879
 22
1666.0
 32
0.0
 13
-722.475879
 23
1666.0
 33
0.0
  0
SOLID
  5
235
  8
DIMENSION
 62
     0
 10
-726.642546
 20
901.0
 30
0.0
 11
-718.309213
 21
901.0
 31
0.0
 12
-722.475879
 22
876.0
 32
0.0
 13
-722.475879
 23
876.0
 33
0.0
  0
TEXT
  5
236
  8
0
 62
     0
 10
-735.475879
 20
1238.857143
 30
0.0
 40
25.0
  1
790
 50
90.0
  0
POINT
  5
237
  8
DEFPOINTS
 62
     0
 10
-50.0
 20
1666.0
 30
0.0
  0
POINT
  5
238
  8
DEFPOINTS
 62
     0
 10
-25.5
 20
876.0
 30
0.0
  0
POINT
  5
239
  8
DEFPOINTS
 62
     0
 10
-722.475879
 20
876.0
 30
0.0
  0
ENDBLK
  5
F1
  8
0
  0
BLOCK
  8
0
  2
*D2
 70
     1
 10
0.0
 20
0.0
 30
0.0
  3
*D2
  1

  0
LINE
  5
23A
  8
DIMENSION
 62
     0
 10
-26.125
 20
876.0
 30
0.0
 11
-723.725879
 21
876.0
 31
0.0
  0
LINE
  5
23B
  8
DIMENSION
 62
     0
 10
-50.625
 20
561.0
 30
0.0
 11
-723.725879
 21
561.0
 31
0.0
  0
LINE
  5
23C
  8
DIMENSION
 62
     0
 10
-722.475879
 20
851.0
 30
0.0
 11
-722.475879
 21
586.0
 31
0.0
  0
SOLID
  5
23D
  8
DIMENSION
 62
     0
 10
-726.642546
 20
851.0
 30
0.0
 11
-718.309213
 21
851.0
 31
0.0
 12
-722.475879
 22
876.0
 32
0.0
 13
-722.475879
 23
876.0
 33
0.0
  0
SOLID
  5
23E
  8
DIMENSION
 62
     0
 10
-726.642546
 20
586.0
 30
0.0
 11
-718.309213
 21
586.0
 31
0.0
 12
-722.475879
 22
561.0
 32
0.0
 13
-722.475879
 23
561.0
 33
0.0
  0
TEXT
  5
23F
  8
0
 62
     0
 10
-735.475879
 20
688.738095
 30
0.0
 40
25.0
  1
315
 50
90.0
  0
POINT
  5
240
  8
DEFPOINTS
 62
     0
 10
-25.5
 20
876.0
 30
0.0
  0
POINT
  5
241
  8
DEFPOINTS
 62
     0
 10
-50.0
 20
561.0
 30
0.0
  0
POINT
  5
242
  8
DEFPOINTS
 62
     0
 10
-722.475879
 20
561.0
 30
0.0
  0
ENDBLK
  5
FD
  8
0
  0
BLOCK
  8
0
  2
*D3
 70
     1
 10
0.0
 20
0.0
 30
0.0
  3
*D3
  1

  0
LINE
  5
243
  8
DIMENSION
 62
     0
 10
-445.625
 20
1921.0
 30
0.0
 11
-723.725879
 21
1921.0
 31
0.0
  0
LINE
  5
244
  8
DIMENSION
 62
     0
 10
-50.625
 20
1666.0
 30
0.0
 11
-723.725879
 21
1666.0
 31
0.0
  0
LINE
  5
245
  8
DIMENSION
 62
     0
 10
-722.475879
 20
1896.0
 30
0.0
 11
-722.475879
 21
1691.0
 31
0.0
  0
SOLID
  5
246
  8
DIMENSION
 62
     0
 10
-726.642546
 20
1896.0
 30
0.0
 11
-718.309213
 21
1896.0
 31
0.0
 12
-722.475879
 22
1921.0
 32
0.0
 13
-722.475879
 23
1921.0
 33
0.0
  0
SOLID
  5
247
  8
DIMENSION
 62
     0
 10
-726.642546
 20
1691.0
 30
0.0
 11
-718.309213
 21
1691.0
 31
0.0
 12
-722.475879
 22
1666.0
 32
0.0
 13
-722.475879
 23
1666.0
 33
0.0
  0
TEXT
  5
248
  8
0
 62
     0
 10
-735.475879
 20
1761.357143
 30
0.0
 40
25.0
  1
255
 50
90.0
  0
POINT
  5
249
  8
DEFPOINTS
 62
     0
 10
-445.0
 20
1921.0
 30
0.0
  0
POINT
  5
24A
  8
DEFPOINTS
 62
     0
 10
-50.0
 20
1666.0
 30
0.0
  0
POINT
  5
24B
  8
DEFPOINTS
 62
     0
 10
-722.475879
 20
1666.0
 30
0.0
  0
ENDBLK
  5
109
  8
0
  0
BLOCK
  8
0
  2
*D4
 70
     1
 10
0.0
 20
0.0
 30
0.0
  3
*D4
  1

  0
LINE
  5
1A4
  8
DIMENSION
 62
     0
 10
-445.0
 20
1921.625
 30
0.0
 11
-445.0
 21
2243.939525
 31
0.0
  0
LINE
  5
1A5
  8
DIMENSION
 62
     0
 10
445.0
 20
1921.625
 30
0.0
 11
445.0
 21
2243.939525
 31
0.0
  0
LINE
  5
1A6
  8
DIMENSION
 62
     0
 10
-420.0
 20
2242.689525
 30
0.0
 11
420.0
 21
2242.689525
 31
0.0
  0
SOLID
  5
1A7
  8
DIMENSION
 62
     0
 10
-420.0
 20
2246.856192
 30
0.0
 11
-420.0
 21
2238.522859
 31
0.0
 12
-445.0
 22
2242.689525
 32
0.0
 13
-445.0
 23
2242.689525
 33
0.0
  0
SOLID
  5
1A8
  8
DIMENSION
 62
     0
 10
420.0
 20
2246.856192
 30
0.0
 11
420.0
 21
2238.522859
 31
0.0
 12
445.0
 22
2242.689525
 32
0.0
 13
445.0
 23
2242.689525
 33
0.0
  0
TEXT
  5
1A9
  8
0
 62
     0
 10
-32.455357
 20
2255.689525
 30
0.0
 40
25.0
  1
890
  0
POINT
  5
1AA
  8
DEFPOINTS
 62
     0
 10
-445.0
 20
1921.0
 30
0.0
  0
POINT
  5
1AB
  8
DEFPOINTS
 62
     0
 10
445.0
 20
1921.0
 30
0.0
  0
POINT
  5
1AC
  8
DEFPOINTS
 62
     0
 10
445.0
 20
2242.689525
 30
0.0
  0
ENDBLK
  5
115
  8
0
  0
BLOCK
  8
0
  2
*D5
 70
     1
 10
0.0
 20
0.0
 30
0.0
  3
*D5
  1

  0
LINE
  5
21F
  8
DIMENSION
 62
     0
 10
-445.625
 20
139.0
 30
0.0
 11
-727.660145
 21
139.0
 31
0.0
  0
LINE
  5
220
  8
DIMENSION
 62
     0
 10
-388.625
 20
0.0
 30
0.0
 11
-727.660145
 21
0.0
 31
0.0
  0
LINE
  5
221
  8
DIMENSION
 62
     0
 10
-726.410145
 20
114.0
 30
0.0
 11
-726.410145
 21
25.0
 31
0.0
  0
SOLID
  5
222
  8
DIMENSION
 62
     0
 10
-730.576811
 20
114.0
 30
0.0
 11
-722.243478
 21
114.0
 31
0.0
 12
-726.410145
 22
139.0
 32
0.0
 13
-726.410145
 23
139.0
 33
0.0
  0
SOLID
  5
223
  8
DIMENSION
 62
     0
 10
-730.576811
 20
25.0
 30
0.0
 11
-722.243478
 21
25.0
 31
0.0
 12
-726.410145
 22
0.0
 32
0.0
 13
-726.410145
 23
0.0
 33
0.0
  0
TEXT
  5
224
  8
0
 62
     0
 10
-739.410145
 20
40.333333
 30
0.0
 40
25.0
  1
139
 50
90.0
  0
POINT
  5
225
  8
DEFPOINTS
 62
     0
 10
-445.0
 20
139.0
 30
0.0
  0
POINT
  5
226
  8
DEFPOINTS
 62
     0
 10
-388.0
 20
0.0
 30
0.0
  0
POINT
  5
227
  8
DEFPOINTS
 62
     0
 10
-726.410145
 20
0.0
 30
0.0
  0
ENDBLK
  5
121
  8
0
  0
BLOCK
  8
0
  2
*D6
 70
     1
 10
0.0
 20
0.0
 30
0.0
  3
*D6
  1

  0
LINE
  5
216
  8
DIMENSION
 62
     0
 10
-125.625
 20
2066.0
 30
0.0
 11
-834.36338
 21
2066.0
 31
0.0
  0
LINE
  5
217
  8
DIMENSION
 62
     0
 10
-388.625
 20
0.0
 30
0.0
 11
-834.36338
 21
0.0
 31
0.0
  0
LINE
  5
218
  8
DIMENSION
 62
     0
 10
-833.11338
 20
2041.0
 30
0.0
 11
-833.11338
 21
25.0
 31
0.0
  0
SOLID
  5
219
  8
DIMENSION
 62
     0
 10
-837.280046
 20
2041.0
 30
0.0
 11
-828.946713
 21
2041.0
 31
0.0
 12
-833.11338
 22
2066.0
 32
0.0
 13
-833.11338
 23
2066.0
 33
0.0
  0
SOLID
  5
21A
  8
DIMENSION
 62
     0
 10
-837.280046
 20
25.0
 30
0.0
 11
-828.946713
 21
25.0
 31
0.0
 12
-833.11338
 22
0.0
 32
0.0
 13
-833.11338
 23
0.0
 33
0.0
  0
TEXT
  5
21B
  8
0
 62
     0
 10
-846.11338
 20
989.547619
 30
0.0
 40
25.0
  1
2066
 50
90.0
  0
POINT
  5
21C
  8
DEFPOINTS
 62
     0
 10
-125.0
 20
2066.0
 30
0.0
  0
POINT
  5
21D
  8
DEFPOINTS
 62
     0
 10
-388.0
 20
0.0
 30
0.0
  0
POINT
  5
21E
  8
DEFPOINTS
 62
     0
 10
-833.11338
 20
0.0
 30
0.0
  0
ENDBLK
  5
12D
  8
0
  0
ENDSEC
  0
SECTION
  2
ENTITIES
  0
DIMENSION
  5
28
  8
DIMENSION
  2
*D6
 10
-833.11338
 20
0.0
 30
0.0
 11
-833.11338
 21
1033.0
 31
0.0
 70
   128
 13
-125.0
 23
2066.0
 33
0.0
 14
-388.0
 24
0.0
 34
0.0
 50
90.0
  0
LINE
  5
39
  8
PLANNING
 10
-645.0
 20
2566.0
 30
0.0
 11
-645.0
 21
-2066.0
 31
0.0
  0
LINE
  5
3C
  8
PLANNING
 10
545.0
 20
2566.0
 30
0.0
 11
545.0
 21
-2066.0
 31
0.0
  0
LINE
  5
3D
  8
CENTER
  6
CENTER
 10
0.0
 20
2066.0
 30
0.0
 11
0.0
 21
0.0
 31
0.0
  0
LINE
  5
40
  8
DETAIL
 10
445.0
 20
1921.0
 30
0.0
 11
445.0
 21
139.0
 31
0.0
  0
LINE
  5
42
  8
DETAIL
 10
-445.0
 20
1921.0
 30
0.0
 11
-445.0
 21
139.0
 31
0.0
  0
POLYLINE
  5
43
  8
DETAIL
 66
     1
 10
0.0
 20
0.0
 30
0.0
 70
     1
  0
VERTEX
  5
30B
  8
DETAIL
 10
-195.767652
 20
173.99708
 30
0.0
 42
-0.414214
  0
VERTEX
  5
30C
  8
DETAIL
 10
-210.767652
 20
188.99708
 30
0.0
 42
-0.092505
  0
VERTEX
  5
30D
  8
DETAIL
 10
-210.767652
 20
334.570778
 30
0.0
 42
-0.414214
  0
VERTEX
  5
30E
  8
DETAIL
 10
-195.767652
 20
349.570778
 30
0.0
  0
VERTEX
  5
30F
  8
DETAIL
 10
195.767652
 20
349.570778
 30
0.0
 42
-0.414214
  0
VERTEX
  5
310
  8
DETAIL
 10
210.767652
 20
334.570778
 30
0.0
 42
-0.092505
  0
VERTEX
  5
311
  8
DETAIL
 10
210.767652
 20
188.99708
 30
0.0
 42
-0.414214
  0
VERTEX
  5
312
  8
DETAIL
 10
195.767652
 20
173.99708
 30
0.0
  0
SEQEND
  5
313
  8
DETAIL
  0
ARC
  5
44
  8
DETAIL
 10
179.285162
 20
261.783929
 30
0.0
 40
406.785992
 50
169.544172
 51
190.455828
  0
ARC
  5
45
  8
DETAIL
 10
-179.285162
 20
261.783929
 30
0.0
 40
406.785992
 50
349.544172
 51
10.455828
  0
SOLID
  5
46
  8
STELTXT
  6
CONTINUOUS
 10
-159.76462
 20
-9.14919
 30
0.0
 11
-134.76462
 21
-4.982523
 31
0.0
 12
-159.76462
 22
-0.815857
 32
0.0
 13
-159.76462
 23
-0.815857
 33
0.0
210
-0.0
220
0.0
230
-1.0
  0
LINE
  5
48
  8
STELTXT
 10
159.76462
 20
-4.982537
 30
0.0
 11
633.444267
 21
-4.982537
 31
0.0
1001
ACAD
1000
R13OBJECT
1002
{
1005
0
1002
}
  0
ATTDEF
  5
49
  8
STELATT
 10
-93.333333
 20
-2466.986484
 30
0.0
 40
40.0
  1
630
 72
     4
 11
0.0
 21
-2446.986484
 31
0.0
  3

  2
MODEL
 70
     2
  0
LINE
  5
4B
  8
DETAIL
 10
-445.0
 20
139.0
 30
0.0
 11
445.0
 21
139.0
 31
0.0
  0
LINE
  5
4C
  8
DETAIL
 10
125.0
 20
-5.0
 30
0.0
 11
-125.0
 21
-5.0
 31
0.0
  0
ATTDEF
  5
4D
  8
STELATT
 10
-233.333333
 20
-2336.986484
 30
0.0
 40
40.0
  1
IDEAL
 72
     4
 11
0.0
 21
-2316.986484
 31
0.0
  3

  2
MANUFACTURER
 70
     2
  0
LINE
  5
4E
  8
PLANNING
 10
545.0
 20
-2066.0
 30
0.0
 11
-645.0
 21
-2066.0
 31
0.0
  0
LINE
  5
4F
  8
DETAIL
 10
388.0
 20
69.5
 30
0.0
 11
-388.0
 21
69.5
 31
0.0
  0
LINE
  5
50
  8
DETAIL
 10
388.0
 20
0.0
 30
0.0
 11
-388.0
 21
0.0
 31
0.0
  0
ATTDEF
  5
51
  8
STELATT
 10
-68.571429
 20
-2401.986484
 30
0.0
 40
40.0
  1
VANGUARD L
 72
     4
 11
0.0
 21
-2381.986484
 31
0.0
  3

  2
TYPE
 70
     2
  0
DIMENSION
  5
52
  8
DIMENSION
  2
*D5
 10
-726.410145
 20
0.0
 30
0.0
 11
-751.910145
 21
69.5
 31
0.0
 70
     0
 13
-445.0
 23
139.0
 33
0.0
 14
-388.0
 24
0.0
 34
0.0
 50
90.0
  0
LINE
  5
5F
  8
DETAIL
 10
-368.0
 20
69.5
 30
0.0
 11
-368.0
 21
139.0
 31
0.0
  0
LINE
  5
60
  8
DETAIL
 10
-388.0
 20
69.5
 30
0.0
 11
-388.0
 21
0.0
 31
0.0
  0
ARC
  5
61
  8
DETAIL
 10
-195.767652
 20
188.99708
 30
0.0
 40
25.0
 50
182.374172
 51
216.869898
  0
LINE
  5
62
  8
DETAIL
 10
-195.767652
 20
173.99708
 30
0.0
 11
-215.767652
 21
173.99708
 31
0.0
  0
POLYLINE
  5
63
  8
ORIGIN
 66
     1
 10
0.0
 20
0.0
 30
0.0
 70
     1
  0
VERTEX
  5
314
  8
ORIGIN
 10
37.5
 20
-37.5
 30
0.0
  0
VERTEX
  5
315
  8
ORIGIN
 10
-37.5
 20
37.5
 30
0.0
  0
VERTEX
  5
316
  8
ORIGIN
 10
-37.5
 20
-37.5
 30
0.0
  0
VERTEX
  5
317
  8
ORIGIN
 10
37.5
 20
37.5
 30
0.0
  0
SEQEND
  5
318
  8
ORIGIN
  0
LINE
  5
65
  8
DETAIL
 10
-125.0
 20
-5.0
 30
0.0
 11
-125.0
 21
0.0
 31
0.0
  0
TEXT
  5
66
  8
STELTXT
 10
653.622128
 20
-18.02139
 30
0.0
 40
25.0
  1
BURNER CONNECTION
  0
LINE
  5
67
  8
DETAIL
 10
125.0
 20
-5.0
 30
0.0
 11
125.0
 21
0.0
 31
0.0
  0
ARC
  5
68
  8
DETAIL
 10
195.767652
 20
188.99708
 30
0.0
 40
25.0
 50
323.130102
 51
357.625828
  0
LINE
  5
69
  8
DETAIL
 10
195.767652
 20
173.99708
 30
0.0
 11
215.767652
 21
173.99708
 31
0.0
  0
LINE
  5
6A
  8
DETAIL
 10
368.0
 20
69.5
 30
0.0
 11
368.0
 21
139.0
 31
0.0
  0
LINE
  5
6B
  8
DETAIL
 10
388.0
 20
69.5
 30
0.0
 11
388.0
 21
0.0
 31
0.0
  0
POLYLINE
  5
6C
  8
STELTXT
 66
     1
 10
0.0
 20
0.0
 30
0.0
 70
   128
1001
ACAD
1000
R13OBJECT
1002
{
1005
0
1002
}
  0
VERTEX
  5
319
  8
STELTXT
 10
64.771859
 20
1694.471594
 30
0.0
  0
VERTEX
  5
31A
  8
STELTXT
 10
492.494598
 20
1797.826409
 30
0.0
  0
VERTEX
  5
31B
  8
STELTXT
 10
636.004667
 20
1797.826409
 30
0.0
  0
SEQEND
  5
31C
  8
STELTXT
  0
DIMENSION
  5
6D
  8
DIMENSION
  2
*D4
 10
445.0
 20
2242.689525
 30
0.0
 11
-0.3125
 21
2242.689525
 31
0.0
 70
   128
 13
-445.0
 23
1921.0
 33
0.0
 14
445.0
 24
1921.0
 34
0.0
  0
LINE
  5
7C
  8
PLANNING
 10
-645.0
 20
2566.0
 30
0.0
 11
545.0
 21
2566.0
 31
0.0
  0
LINE
  5
7D
  8
DETAIL
 10
-335.315
 20
2046.0
 30
0.0
 11
335.315
 21
2046.0
 31
0.0
  0
LINE
  5
7E
  8
DETAIL
 10
-125.0
 20
2066.0
 30
0.0
 11
125.0
 21
2066.0
 31
0.0
  0
LINE
  5
7F
  8
DETAIL
 10
-445.0
 20
1921.0
 30
0.0
 11
445.0
 21
1921.0
 31
0.0
  0
POLYLINE
  5
80
  8
STELTXT
 66
     1
 10
0.0
 20
0.0
 30
0.0
 70
   128
1001
ACAD
1000
R13OBJECT
1002
{
1005
0
1002
}
  0
VERTEX
  5
31D
  8
STELTXT
 10
64.771859
 20
568.102231
 30
0.0
  0
VERTEX
  5
31E
  8
STELTXT
 10
492.494598
 20
671.457045
 30
0.0
  0
VERTEX
  5
31F
  8
STELTXT
 10
636.004667
 20
671.457045
 30
0.0
  0
SEQEND
  5
320
  8
STELTXT
  0
POLYLINE
  5
81
  8
STELTXT
 66
     1
 10
0.0
 20
0.0
 30
0.0
 70
   128
1001
ACAD
1000
R13OBJECT
1002
{
1005
0
1002
}
  0
VERTEX
  5
321
  8
STELTXT
 10
63.312922
 20
883.116864
 30
0.0
  0
VERTEX
  5
322
  8
STELTXT
 10
491.035661
 20
986.471679
 30
0.0
  0
VERTEX
  5
323
  8
STELTXT
 10
634.54573
 20
986.471679
 30
0.0
  0
SEQEND
  5
324
  8
STELTXT
  0
LINE
  5
82
  8
DETAIL
 10
-195.767652
 20
359.570778
 30
0.0
 11
195.767652
 21
359.570778
 31
0.0
  0
DIMENSION
  5
83
  8
DIMENSION
  2
*D3
 10
-722.475879
 20
1666.0
 30
0.0
 11
-747.975879
 21
1793.5
 31
0.0
 70
     0
 13
-445.0
 23
1921.0
 33
0.0
 14
-50.0
 24
1666.0
 34
0.0
 50
90.0
  0
SOLID
  5
92
  8
STELTXT
  6
CONTINUOUS
 10
-65.708131
 20
1690.411483
 30
0.0
 11
-40.41119
 21
1688.853962
 31
0.0
 12
-63.835587
 22
1698.531706
 32
0.0
 13
-63.835587
 23
1698.531706
 33
0.0
210
0.0
220
0.0
230
-1.0
  0
CIRCLE
  5
93
  8
DETAIL
 10
0.0
 20
1666.0
 30
0.0
 40
50.0
  0
DIMENSION
  5
94
  8
DIMENSION
  2
*D2
 10
-722.475879
 20
561.0
 30
0.0
 11
-747.975879
 21
718.5
 31
0.0
 70
     0
 13
-25.5
 23
876.0
 33
0.0
 14
-50.0
 24
561.0
 34
0.0
 50
90.0
  0
CIRCLE
  5
A3
  8
DETAIL
 10
0.0
 20
561.0
 30
0.0
 40
50.0
  0
ARC
  5
A4
  8
DETAIL
 10
-195.767652
 20
334.570778
 30
0.0
 40
25.0
 50
90.0
 51
177.625828
  0
SOLID
  5
A5
  8
STELTXT
  6
CONTINUOUS
 10
-65.708131
 20
564.042119
 30
0.0
 11
-40.41119
 21
562.484598
 31
0.0
 12
-63.835587
 22
572.162342
 32
0.0
 13
-63.835587
 23
572.162342
 33
0.0
210
0.0
220
0.0
230
-1.0
  0
DIMENSION
  5
A6
  8
DIMENSION
  2
*D1
 10
-722.475879
 20
876.0
 30
0.0
 11
-747.975879
 21
1271.0
 31
0.0
 70
     0
 13
-50.0
 23
1666.0
 33
0.0
 14
-25.5
 24
876.0
 34
0.0
 50
90.0
  0
SOLID
  5
B5
  8
STELTXT
  6
CONTINUOUS
 10
-64.249194
 20
879.056753
 30
0.0
 11
-38.952253
 21
877.499232
 31
0.0
 12
-62.37665
 22
887.176976
 32
0.0
 13
-62.37665
 23
887.176976
 33
0.0
210
0.0
220
0.0
230
-1.0
  0
CIRCLE
  5
B6
  8
DETAIL
 10
0.0
 20
876.0
 30
0.0
 40
25.5
  0
DIMENSION
  5
B7
  8
DIMENSION
  2
*D0
 10
-723.725879
 20
1921.0
 30
0.0
 11
-749.225879
 21
1993.5
 31
0.0
 70
     0
 13
-125.625
 23
2066.0
 33
0.0
 14
-445.0
 24
1921.0
 34
0.0
 50
90.0
  0
LINE
  5
C6
  8
DETAIL
 10
-335.315
 20
2046.0
 30
0.0
 11
-335.315
 21
1921.0
 31
0.0
  0
LINE
  5
C7
  8
DETAIL
 10
-125.0
 20
2066.0
 30
0.0
 11
-125.0
 21
2046.0
 31
0.0
  0
TEXT
  5
C8
  8
STELTXT
 10
645.170287
 20
974.845954
 30
0.0
 40
25.0
  1
2" SAFETY VALVE
  0
TEXT
  5
C9
  8
STELTXT
 10
645.170287
 20
931.988811
 30
0.0
 40
25.0
  1
& EXPANSION CONNECTION
  0
ARC
  5
CA
  8
DETAIL
 10
195.767652
 20
334.570778
 30
0.0
 40
25.0
 50
2.374172
 51
90.0
  0
TEXT
  5
CB
  8
STELTXT
 10
646.392268
 20
660.883546
 30
0.0
 40
25.0
  1
100mm RETURN
  0
TEXT
  5
CC
  8
STELTXT
 10
646.392268
 20
618.026403
 30
0.0
 40
25.0
  1
CONNECTION
  0
TEXT
  5
CD
  8
STELTXT
 10
646.083811
 20
2165.224425
 30
0.0
 40
25.0
  1
250mm FLUE OUTLET
  0
POLYLINE
  5
CE
  8
STELTXT
 66
     1
 10
0.0
 20
0.0
 30
0.0
 70
   128
1001
ACAD
1000
R13OBJECT
1002
{
1005
0
1002
}
  0
VERTEX
  5
325
  8
STELTXT
 10
152.626217
 20
2067.669573
 30
0.0
  0
VERTEX
  5
326
  8
STELTXT
 10
585.228586
 20
2177.817984
 30
0.0
  0
VERTEX
  5
327
  8
STELTXT
 10
633.444267
 20
2177.817984
 30
0.0
  0
SEQEND
  5
328
  8
STELTXT
  0
LINE
  5
CF
  8
DETAIL
 10
335.315
 20
2046.0
 30
0.0
 11
335.315
 21
1921.0
 31
0.0
  0
SOLID
  5
D0
  8
STELTXT
  6
CONTINUOUS
 10
-153.286937
 20
2063.555626
 30
0.0
 11
-127.942535
 21
2063.705256
 31
0.0
 12
-151.965498
 22
2071.78352
 32
0.0
 13
-151.965498
 23
2071.78352
 33
0.0
210
0.0
220
0.0
230
-1.0
  0
LINE
  5
D1
  8
DETAIL
 10
125.0
 20
2066.0
 30
0.0
 11
125.0
 21
2046.0
 31
0.0
  0
TEXT
  5
D2
  8
STELTXT
 10
646.392268
 20
1744.395767
 30
0.0
 40
25.0
  1
CONNECTION
  0
TEXT
  5
D3
  8
STELTXT
 10
646.392268
 20
1787.25291
 30
0.0
 40
25.0
  1
100mm FLOW
  0
ENDSEC
  0
EOF
