  0
SECTION
  2
HEADER
  9
$ACADVER
  1
AC1009
  9
$INSBASE
 10
0.0
 20
0.0
 30
0.0
  9
$EXTMIN
 10
-987.162382
 20
-2735.326373
 30
0.0
  9
$EXTMAX
 10
1271.894811
 20
2834.33994
 30
0.0
  9
$LIMMIN
 10
0.0
 20
0.0
  9
$LIMMAX
 10
420.0
 20
297.0
  9
$ORTHOMODE
 70
     1
  9
$REGENMODE
 70
     1
  9
$FILLMODE
 70
     1
  9
$QTEXTMODE
 70
     0
  9
$MIRRTEXT
 70
     1
  9
$DRAGMODE
 70
     2
  9
$LTSCALE
 40
1.0
  9
$OSMODE
 70
     0
  9
$ATTMODE
 70
     2
  9
$TEXTSIZE
 40
25.0
  9
$TRACEWID
 40
1.0
  9
$TEXTSTYLE
  7
STANDARD
  9
$CLAYER
  8
0
  9
$CELTYPE
  6
BYLAYER
  9
$CECOLOR
 62
   256
  9
$DIMSCALE
 40
1.0
  9
$DIMASZ
 40
25.0
  9
$DIMEXO
 40
0.625
  9
$DIMDLI
 40
3.75
  9
$DIMRND
 40
0.0
  9
$DIMDLE
 40
0.0
  9
$DIMEXE
 40
1.25
  9
$DIMTP
 40
0.0
  9
$DIMTM
 40
0.0
  9
$DIMTXT
 40
25.0
  9
$DIMCEN
 40
2.5
  9
$DIMTSZ
 40
0.0
  9
$DIMTOL
 70
     0
  9
$DIMLIM
 70
     0
  9
$DIMTIH
 70
     0
  9
$DIMTOH
 70
     0
  9
$DIMSE1
 70
     0
  9
$DIMSE2
 70
     0
  9
$DIMTAD
 70
     1
  9
$DIMZIN
 70
     8
  9
$DIMBLK
  1

  9
$DIMASO
 70
     1
  9
$DIMSHO
 70
     1
  9
$DIMPOST
  1

  9
$DIMAPOST
  1

  9
$DIMALT
 70
     0
  9
$DIMALTD
 70
     3
  9
$DIMALTF
 40
0.03937
  9
$DIMLFAC
 40
1.0
  9
$DIMTOFL
 70
     1
  9
$DIMTVP
 40
0.0
  9
$DIMTIX
 70
     0
  9
$DIMSOXD
 70
     0
  9
$DIMSAH
 70
     0
  9
$DIMBLK1
  1

  9
$DIMBLK2
  1

  9
$DIMSTYLE
  2
ISO-25
  9
$DIMCLRD
 70
     0
  9
$DIMCLRE
 70
     0
  9
$DIMCLRT
 70
     0
  9
$DIMTFAC
 40
1.0
  9
$DIMGAP
 40
13.0
  9
$LUNITS
 70
     2
  9
$LUPREC
 70
     4
  9
$SKETCHINC
 40
1.0
  9
$FILLETRAD
 40
10.0
  9
$AUNITS
 70
     0
  9
$AUPREC
 70
     0
  9
$MENU
  1
.
  9
$ELEVATION
 40
0.0
  9
$PELEVATION
 40
0.0
  9
$THICKNESS
 40
0.0
  9
$LIMCHECK
 70
     0
  9
$BLIPMODE
 70
     0
  9
$CHAMFERA
 40
10.0
  9
$CHAMFERB
 40
10.0
  9
$SKPOLY
 70
     0
  9
$TDCREATE
 40
2452706.626866
  9
$TDUPDATE
 40
2453073.534704
  9
$TDINDWG
 40
0.310645
  9
$TDUSRTIMER
 40
0.310645
  9
$USRTIMER
 70
     1
  9
$ANGBASE
 50
0.0
  9
$ANGDIR
 70
     0
  9
$PDMODE
 70
     0
  9
$PDSIZE
 40
0.0
  9
$PLINEWID
 40
0.0
  9
$COORDS
 70
     1
  9
$SPLFRAME
 70
     0
  9
$SPLINETYPE
 70
     6
  9
$SPLINESEGS
 70
     8
  9
$ATTDIA
 70
     0
  9
$ATTREQ
 70
     1
  9
$HANDLING
 70
 22529
  9
$HANDSEED
  5
3E9
  9
$SURFTAB1
 70
     6
  9
$SURFTAB2
 70
     6
  9
$SURFTYPE
 70
     6
  9
$SURFU
 70
     6
  9
$SURFV
 70
     6
  9
$UCSNAME
  2

  9
$UCSORG
 10
0.0
 20
0.0
 30
0.0
  9
$UCSXDIR
 10
1.0
 20
0.0
 30
0.0
  9
$UCSYDIR
 10
0.0
 20
1.0
 30
0.0
  9
$PUCSNAME
  2

  9
$PUCSORG
 10
0.0
 20
0.0
 30
0.0
  9
$PUCSXDIR
 10
1.0
 20
0.0
 30
0.0
  9
$PUCSYDIR
 10
0.0
 20
1.0
 30
0.0
  9
$USERI1
 70
     0
  9
$USERI2
 70
     0
  9
$USERI3
 70
     0
  9
$USERI4
 70
     0
  9
$USERI5
 70
     0
  9
$USERR1
 40
0.0
  9
$USERR2
 40
0.0
  9
$USERR3
 40
0.0
  9
$USERR4
 40
0.0
  9
$USERR5
 40
0.0
  9
$WORLDVIEW
 70
     1
  9
$SHADEDGE
 70
     3
  9
$SHADEDIF
 70
    70
  9
$TILEMODE
 70
     1
  9
$MAXACTVP
 70
    48
  9
$PLIMCHECK
 70
     0
  9
$PEXTMIN
 10
1.000000E+020
 20
1.000000E+020
 30
1.000000E+020
  9
$PEXTMAX
 10
-1.000000E+020
 20
-1.000000E+020
 30
-1.000000E+020
  9
$PLIMMIN
 10
0.0
 20
0.0
  9
$PLIMMAX
 10
420.0
 20
297.0
  9
$UNITMODE
 70
     0
  9
$VISRETAIN
 70
     1
  9
$PLINEGEN
 70
     0
  9
$PSLTSCALE
 70
     1
  0
ENDSEC
  0
SECTION
  2
TABLES
  0
TABLE
  2
VPORT
 70
     2
  0
VPORT
  2
*ACTIVE
 70
     0
 10
0.0
 20
0.0
 11
1.0
 21
1.0
 12
142.366215
 22
49.506784
 13
0.0
 23
0.0
 14
10.0
 24
10.0
 15
10.0
 25
10.0
 16
0.0
 26
0.0
 36
1.0
 17
0.0
 27
0.0
 37
0.0
 40
5633.808344
 41
1.825
 42
50.0
 43
0.0
 44
0.0
 50
0.0
 51
0.0
 71
     0
 72
   100
 73
     1
 74
     3
 75
     0
 76
     0
 77
     0
 78
     0
  0
ENDTAB
  0
TABLE
  2
LTYPE
 70
     3
  0
LTYPE
  2
CONTINUOUS
 70
     0
  3
Solid line
 72
    65
 73
     0
 40
0.0
  0
LTYPE
  2
CENTER
 70
     0
  3
____ _ ____ _ ____ _ ____ _ ____ _ ____ _ ____
 72
    65
 73
     4
 40
2.0
 49
1.25
 49
-0.25
 49
0.25
 49
-0.25
  0
LTYPE
  2
DASHED
 70
     0
  3
__ __ __ __ __ __ __ __ __ __ __ __ __ __ __
 72
    65
 73
     2
 40
0.75
 49
0.5
 49
-0.25
  0
ENDTAB
  0
TABLE
  2
LAYER
 70
     9
  0
LAYER
  2
0
 70
     0
 62
     7
  6
CONTINUOUS
  0
LAYER
  2
ORIGIN
 70
     0
 62
     6
  6
CONTINUOUS
  0
LAYER
  2
DETAIL
 70
     0
 62
     2
  6
CONTINUOUS
  0
LAYER
  2
DIMENSION
 70
     0
 62
     7
  6
CONTINUOUS
  0
LAYER
  2
PLANNING
 70
     0
 62
     1
  6
DASHED
  0
LAYER
  2
STELTXT
 70
     0
 62
     4
  6
CONTINUOUS
  0
LAYER
  2
STELATT
 70
     0
 62
     7
  6
CONTINUOUS
  0
LAYER
  2
CENTER
 70
     0
 62
     4
  6
CENTER
  0
LAYER
  2
DEFPOINTS
 70
     0
 62
     7
  6
CONTINUOUS
  0
ENDTAB
  0
TABLE
  2
STYLE
 70
     1
  0
STYLE
  2
STANDARD
 70
     0
 40
0.0
 41
1.0
 50
0.0
 71
     0
 42
25.0
  3
simplex.shx
  4

  0
ENDTAB
  0
TABLE
  2
VIEW
 70
     0
  0
ENDTAB
  0
TABLE
  2
UCS
 70
     0
  0
ENDTAB
  0
TABLE
  2
APPID
 70
     1
  0
APPID
  2
ACAD
 70
     0
  0
ENDTAB
  0
TABLE
  2
DIMSTYLE
 70
     1
  0
DIMSTYLE
  2
ISO-25
 70
     0
  3

  4

  5

  6

  7

 40
1.0
 41
25.0
 42
0.625
 43
3.75
 44
1.25
 45
0.0
 46
0.0
 47
0.0
 48
0.0
140
25.0
141
2.5
142
0.0
143
0.03937
144
1.0
145
0.0
146
1.0
147
13.0
 71
     0
 72
     0
 73
     0
 74
     0
 75
     0
 76
     0
 77
     1
 78
     8
170
     0
171
     3
172
     1
173
     0
174
     0
175
     0
176
     0
177
     0
178
     0
  0
ENDTAB
  0
ENDSEC
  0
SECTION
  2
BLOCKS
  0
BLOCK
  8
0
  2
$MODEL_SPACE
 70
     2
 10
0.0
 20
0.0
 30
0.0
  3
$MODEL_SPACE
  1

  0
ENDBLK
  5
A
  8
0
  0
BLOCK
 67
     1
  8
0
  2
$PAPER_SPACE
 70
     0
 10
0.0
 20
0.0
 30
0.0
  3
$PAPER_SPACE
  1

  0
ENDBLK
  5
10
 67
     1
  8
0
  0
BLOCK
  8
0
  2
*D0
 70
     1
 10
0.0
 20
0.0
 30
0.0
  3
*D0
  1

  0
LINE
  5
262
  8
DIMENSION
 62
     0
 10
-561.0
 20
2189.625
 30
0.0
 11
-561.0
 21
2511.939525
 31
0.0
  0
LINE
  5
263
  8
DIMENSION
 62
     0
 10
561.0
 20
2189.625
 30
0.0
 11
561.0
 21
2511.939525
 31
0.0
  0
LINE
  5
264
  8
DIMENSION
 62
     0
 10
-536.0
 20
2510.689525
 30
0.0
 11
536.0
 21
2510.689525
 31
0.0
  0
SOLID
  5
265
  8
DIMENSION
 62
     0
 10
-536.0
 20
2514.856192
 30
0.0
 11
-536.0
 21
2506.522859
 31
0.0
 12
-561.0
 22
2510.689525
 32
0.0
 13
-561.0
 23
2510.689525
 33
0.0
  0
SOLID
  5
266
  8
DIMENSION
 62
     0
 10
536.0
 20
2514.856192
 30
0.0
 11
536.0
 21
2506.522859
 31
0.0
 12
561.0
 22
2510.689525
 32
0.0
 13
561.0
 23
2510.689525
 33
0.0
  0
TEXT
  5
267
  8
0
 62
     0
 10
-39.598214
 20
2523.689525
 30
0.0
 40
25.0
  1
1122
  0
POINT
  5
268
  8
DEFPOINTS
 62
     0
 10
-561.0
 20
2189.0
 30
0.0
  0
POINT
  5
269
  8
DEFPOINTS
 62
     0
 10
561.0
 20
2189.0
 30
0.0
  0
POINT
  5
26A
  8
DEFPOINTS
 62
     0
 10
561.0
 20
2510.689525
 30
0.0
  0
ENDBLK
  5
F2
  8
0
  0
BLOCK
  8
0
  2
*D1
 70
     1
 10
0.0
 20
0.0
 30
0.0
  3
*D1
  1

  0
LINE
  5
2AC
  8
DIMENSION
 62
     0
 10
-561.625
 20
2189.0
 30
0.0
 11
-839.725879
 21
2189.0
 31
0.0
  0
LINE
  5
2AD
  8
DIMENSION
 62
     0
 10
-63.125
 20
1891.0
 30
0.0
 11
-839.725879
 21
1891.0
 31
0.0
  0
LINE
  5
2AE
  8
DIMENSION
 62
     0
 10
-838.475879
 20
2164.0
 30
0.0
 11
-838.475879
 21
1916.0
 31
0.0
  0
SOLID
  5
2AF
  8
DIMENSION
 62
     0
 10
-842.642546
 20
2164.0
 30
0.0
 11
-834.309213
 21
2164.0
 31
0.0
 12
-838.475879
 22
2189.0
 32
0.0
 13
-838.475879
 23
2189.0
 33
0.0
  0
SOLID
  5
2B0
  8
DIMENSION
 62
     0
 10
-842.642546
 20
1916.0
 30
0.0
 11
-834.309213
 21
1916.0
 31
0.0
 12
-838.475879
 22
1891.0
 32
0.0
 13
-838.475879
 23
1891.0
 33
0.0
  0
TEXT
  5
2B1
  8
0
 62
     0
 10
-851.475879
 20
2007.857143
 30
0.0
 40
25.0
  1
298
 50
90.0
  0
POINT
  5
2B2
  8
DEFPOINTS
 62
     0
 10
-561.0
 20
2189.0
 30
0.0
  0
POINT
  5
2B3
  8
DEFPOINTS
 62
     0
 10
-62.5
 20
1891.0
 30
0.0
  0
POINT
  5
2B4
  8
DEFPOINTS
 62
     0
 10
-838.475879
 20
1891.0
 30
0.0
  0
ENDBLK
  5
FE
  8
0
  0
BLOCK
  8
0
  2
*D2
 70
     1
 10
0.0
 20
0.0
 30
0.0
  3
*D2
  1

  0
LINE
  5
2B5
  8
DIMENSION
 62
     0
 10
-63.125
 20
1891.0
 30
0.0
 11
-839.725879
 21
1891.0
 31
0.0
  0
LINE
  5
2B6
  8
DIMENSION
 62
     0
 10
-33.125
 20
1066.0
 30
0.0
 11
-839.725879
 21
1066.0
 31
0.0
  0
LINE
  5
2B7
  8
DIMENSION
 62
     0
 10
-838.475879
 20
1866.0
 30
0.0
 11
-838.475879
 21
1091.0
 31
0.0
  0
SOLID
  5
2B8
  8
DIMENSION
 62
     0
 10
-842.642546
 20
1866.0
 30
0.0
 11
-834.309213
 21
1866.0
 31
0.0
 12
-838.475879
 22
1891.0
 32
0.0
 13
-838.475879
 23
1891.0
 33
0.0
  0
SOLID
  5
2B9
  8
DIMENSION
 62
     0
 10
-842.642546
 20
1091.0
 30
0.0
 11
-834.309213
 21
1091.0
 31
0.0
 12
-838.475879
 22
1066.0
 32
0.0
 13
-838.475879
 23
1066.0
 33
0.0
  0
TEXT
  5
2BA
  8
0
 62
     0
 10
-851.475879
 20
1446.357143
 30
0.0
 40
25.0
  1
825
 50
90.0
  0
POINT
  5
2BB
  8
DEFPOINTS
 62
     0
 10
-62.5
 20
1891.0
 30
0.0
  0
POINT
  5
2BC
  8
DEFPOINTS
 62
     0
 10
-32.5
 20
1066.0
 30
0.0
  0
POINT
  5
2BD
  8
DEFPOINTS
 62
     0
 10
-838.475879
 20
1066.0
 30
0.0
  0
ENDBLK
  5
10A
  8
0
  0
BLOCK
  8
0
  2
*D3
 70
     1
 10
0.0
 20
0.0
 30
0.0
  3
*D3
  1

  0
LINE
  5
2BE
  8
DIMENSION
 62
     0
 10
-176.25
 20
2334.0
 30
0.0
 11
-839.725879
 21
2334.0
 31
0.0
  0
LINE
  5
2BF
  8
DIMENSION
 62
     0
 10
-561.625
 20
2189.0
 30
0.0
 11
-839.725879
 21
2189.0
 31
0.0
  0
LINE
  5
2C0
  8
DIMENSION
 62
     0
 10
-838.475879
 20
2309.0
 30
0.0
 11
-838.475879
 21
2214.0
 31
0.0
  0
SOLID
  5
2C1
  8
DIMENSION
 62
     0
 10
-842.642546
 20
2309.0
 30
0.0
 11
-834.309213
 21
2309.0
 31
0.0
 12
-838.475879
 22
2334.0
 32
0.0
 13
-838.475879
 23
2334.0
 33
0.0
  0
SOLID
  5
2C2
  8
DIMENSION
 62
     0
 10
-842.642546
 20
2214.0
 30
0.0
 11
-834.309213
 21
2214.0
 31
0.0
 12
-838.475879
 22
2189.0
 32
0.0
 13
-838.475879
 23
2189.0
 33
0.0
  0
TEXT
  5
2C3
  8
0
 62
     0
 10
-851.475879
 20
2231.738095
 30
0.0
 40
25.0
  1
145
 50
90.0
  0
POINT
  5
2C4
  8
DEFPOINTS
 62
     0
 10
-175.625
 20
2334.0
 30
0.0
  0
POINT
  5
2C5
  8
DEFPOINTS
 62
     0
 10
-561.0
 20
2189.0
 30
0.0
  0
POINT
  5
2C6
  8
DEFPOINTS
 62
     0
 10
-838.475879
 20
2189.0
 30
0.0
  0
ENDBLK
  5
116
  8
0
  0
BLOCK
  8
0
  2
*D4
 70
     1
 10
0.0
 20
0.0
 30
0.0
  3
*D4
  1

  0
LINE
  5
118
  8
0
 62
     0
 10
-510.0
 20
-0.625
 30
0.0
 11
-510.0
 21
-105.707394
 31
0.0
  0
LINE
  5
119
  8
0
 62
     0
 10
510.0
 20
-0.625
 30
0.0
 11
510.0
 21
-105.707394
 31
0.0
  0
LINE
  5
11A
  8
0
 62
     0
 10
-485.0
 20
-104.457394
 30
0.0
 11
485.0
 21
-104.457394
 31
0.0
  0
SOLID
  5
11B
  8
0
 62
     0
 10
-485.0
 20
-100.290728
 30
0.0
 11
-485.0
 21
-108.624061
 31
0.0
 12
-510.0
 22
-104.457394
 32
0.0
 13
-510.0
 23
-104.457394
 33
0.0
  0
SOLID
  5
11C
  8
0
 62
     0
 10
485.0
 20
-100.290728
 30
0.0
 11
485.0
 21
-108.624061
 31
0.0
 12
510.0
 22
-104.457394
 32
0.0
 13
510.0
 23
-104.457394
 33
0.0
  0
TEXT
  5
11D
  8
0
 62
     0
 10
-41.666667
 20
-91.457394
 30
0.0
 40
25.0
  1
1020
  0
POINT
  5
11E
  8
DEFPOINTS
 62
     0
 10
-510.0
 20
0.0
 30
0.0
  0
POINT
  5
11F
  8
DEFPOINTS
 62
     0
 10
510.0
 20
0.0
 30
0.0
  0
POINT
  5
120
  8
DEFPOINTS
 62
     0
 10
510.0
 20
-104.457394
 30
0.0
  0
ENDBLK
  5
122
  8
0
  0
BLOCK
  8
0
  2
*D5
 70
     1
 10
0.0
 20
0.0
 30
0.0
  3
*D5
  1

  0
LINE
  5
2A3
  8
DIMENSION
 62
     0
 10
-561.625
 20
195.0
 30
0.0
 11
-843.660145
 21
195.0
 31
0.0
  0
LINE
  5
2A4
  8
DIMENSION
 62
     0
 10
-510.625
 20
0.0
 30
0.0
 11
-843.660145
 21
0.0
 31
0.0
  0
LINE
  5
2A5
  8
DIMENSION
 62
     0
 10
-842.410145
 20
170.0
 30
0.0
 11
-842.410145
 21
25.0
 31
0.0
  0
SOLID
  5
2A6
  8
DIMENSION
 62
     0
 10
-846.576811
 20
170.0
 30
0.0
 11
-838.243478
 21
170.0
 31
0.0
 12
-842.410145
 22
195.0
 32
0.0
 13
-842.410145
 23
195.0
 33
0.0
  0
SOLID
  5
2A7
  8
DIMENSION
 62
     0
 10
-846.576811
 20
25.0
 30
0.0
 11
-838.243478
 21
25.0
 31
0.0
 12
-842.410145
 22
0.0
 32
0.0
 13
-842.410145
 23
0.0
 33
0.0
  0
TEXT
  5
2A8
  8
0
 62
     0
 10
-855.410145
 20
67.738095
 30
0.0
 40
25.0
  1
195
 50
90.0
  0
POINT
  5
2A9
  8
DEFPOINTS
 62
     0
 10
-561.0
 20
195.0
 30
0.0
  0
POINT
  5
2AA
  8
DEFPOINTS
 62
     0
 10
-510.0
 20
0.0
 30
0.0
  0
POINT
  5
2AB
  8
DEFPOINTS
 62
     0
 10
-842.410145
 20
0.0
 30
0.0
  0
ENDBLK
  5
12E
  8
0
  0
BLOCK
  8
0
  2
*D6
 70
     1
 10
0.0
 20
0.0
 30
0.0
  3
*D6
  1

  0
LINE
  5
2C7
  8
DIMENSION
 62
     0
 10
-33.125
 20
1066.0
 30
0.0
 11
-839.725879
 21
1066.0
 31
0.0
  0
LINE
  5
2C8
  8
DIMENSION
 62
     0
 10
-63.125
 20
626.0
 30
0.0
 11
-839.725879
 21
626.0
 31
0.0
  0
LINE
  5
2C9
  8
DIMENSION
 62
     0
 10
-838.475879
 20
1041.0
 30
0.0
 11
-838.475879
 21
651.0
 31
0.0
  0
SOLID
  5
2CA
  8
DIMENSION
 62
     0
 10
-842.642546
 20
1041.0
 30
0.0
 11
-834.309213
 21
1041.0
 31
0.0
 12
-838.475879
 22
1066.0
 32
0.0
 13
-838.475879
 23
1066.0
 33
0.0
  0
SOLID
  5
2CB
  8
DIMENSION
 62
     0
 10
-842.642546
 20
651.0
 30
0.0
 11
-834.309213
 21
651.0
 31
0.0
 12
-838.475879
 22
626.0
 32
0.0
 13
-838.475879
 23
626.0
 33
0.0
  0
TEXT
  5
2CC
  8
0
 62
     0
 10
-851.475879
 20
813.857143
 30
0.0
 40
25.0
  1
440
 50
90.0
  0
POINT
  5
2CD
  8
DEFPOINTS
 62
     0
 10
-32.5
 20
1066.0
 30
0.0
  0
POINT
  5
2CE
  8
DEFPOINTS
 62
     0
 10
-62.5
 20
626.0
 30
0.0
  0
POINT
  5
2CF
  8
DEFPOINTS
 62
     0
 10
-838.475879
 20
626.0
 30
0.0
  0
ENDBLK
  5
13A
  8
0
  0
BLOCK
  8
0
  2
*D7
 70
     1
 10
0.0
 20
0.0
 30
0.0
  3
*D7
  1

  0
LINE
  5
29A
  8
DIMENSION
 62
     0
 10
-175.625
 20
2334.0
 30
0.0
 11
-950.36338
 21
2334.0
 31
0.0
  0
LINE
  5
29B
  8
DIMENSION
 62
     0
 10
-510.625
 20
0.0
 30
0.0
 11
-950.36338
 21
0.0
 31
0.0
  0
LINE
  5
29C
  8
DIMENSION
 62
     0
 10
-949.11338
 20
2309.0
 30
0.0
 11
-949.11338
 21
25.0
 31
0.0
  0
SOLID
  5
29D
  8
DIMENSION
 62
     0
 10
-953.280046
 20
2309.0
 30
0.0
 11
-944.946713
 21
2309.0
 31
0.0
 12
-949.11338
 22
2334.0
 32
0.0
 13
-949.11338
 23
2334.0
 33
0.0
  0
SOLID
  5
29E
  8
DIMENSION
 62
     0
 10
-953.280046
 20
25.0
 30
0.0
 11
-944.946713
 21
25.0
 31
0.0
 12
-949.11338
 22
0.0
 32
0.0
 13
-949.11338
 23
0.0
 33
0.0
  0
TEXT
  5
29F
  8
0
 62
     0
 10
-962.11338
 20
1122.357143
 30
0.0
 40
25.0
  1
2334
 50
90.0
  0
POINT
  5
2A0
  8
DEFPOINTS
 62
     0
 10
-175.0
 20
2334.0
 30
0.0
  0
POINT
  5
2A1
  8
DEFPOINTS
 62
     0
 10
-510.0
 20
0.0
 30
0.0
  0
POINT
  5
2A2
  8
DEFPOINTS
 62
     0
 10
-949.11338
 20
0.0
 30
0.0
  0
ENDBLK
  5
146
  8
0
  0
ENDSEC
  0
SECTION
  2
ENTITIES
  0
LINE
  5
26
  8
PLANNING
 10
661.0
 20
2834.0
 30
0.0
 11
661.0
 21
-2334.0
 31
0.0
  0
LINE
  5
29
  8
PLANNING
 10
-761.0
 20
2834.0
 30
0.0
 11
-761.0
 21
-2334.0
 31
0.0
  0
DIMENSION
  5
2A
  8
DIMENSION
  2
*D7
 10
-949.11338
 20
0.0
 30
0.0
 11
-949.11338
 21
1167.0
 31
0.0
 70
   128
 13
-175.0
 23
2334.0
 33
0.0
 14
-510.0
 24
0.0
 34
0.0
 50
90.0
  0
DIMENSION
  5
3B
  8
DIMENSION
  2
*D6
 10
-838.475879
 20
626.0
 30
0.0
 11
-863.975879
 21
846.0
 31
0.0
 70
     0
 13
-32.5
 23
1066.0
 33
0.0
 14
-62.5
 24
626.0
 34
0.0
 50
90.0
  0
LINE
  5
4A
  8
DETAIL
 10
-561.0
 20
2189.0
 30
0.0
 11
-561.0
 21
195.0
 31
0.0
  0
LINE
  5
4C
  8
DETAIL
 10
561.0
 20
2189.0
 30
0.0
 11
561.0
 21
195.0
 31
0.0
  0
LINE
  5
4D
  8
CENTER
  6
CENTER
 10
0.0
 20
2334.0
 30
0.0
 11
0.0
 21
0.0
 31
0.0
  0
LINE
  5
50
  8
STELTXT
 10
159.76462
 20
-4.982537
 30
0.0
 11
749.444267
 21
-4.982537
 31
0.0
1001
ACAD
1000
R13OBJECT
1002
{
1005
0
1002
}
  0
SOLID
  5
52
  8
STELTXT
  6
CONTINUOUS
 10
-159.76462
 20
-9.14919
 30
0.0
 11
-134.76462
 21
-4.982523
 31
0.0
 12
-159.76462
 22
-0.815857
 32
0.0
 13
-159.76462
 23
-0.815857
 33
0.0
210
-0.0
220
0.0
230
-1.0
  0
LINE
  5
53
  8
PLANNING
 10
661.0
 20
-2334.0
 30
0.0
 11
-761.0
 21
-2334.0
 31
0.0
  0
DIMENSION
  5
54
  8
DIMENSION
  2
*D5
 10
-842.410145
 20
0.0
 30
0.0
 11
-867.910145
 21
97.5
 31
0.0
 70
     0
 13
-561.0
 23
195.0
 33
0.0
 14
-510.0
 24
0.0
 34
0.0
 50
90.0
  0
ATTDEF
  5
61
  8
STELATT
 10
-233.333333
 20
-2604.986484
 30
0.0
 40
40.0
  1
IDEAL
 72
     4
 11
0.0
 21
-2584.986484
 31
0.0
  3

  2
MANUFACTURER
 70
     2
  0
ATTDEF
  5
63
  8
STELATT
 10
-68.571429
 20
-2669.986484
 30
0.0
 40
40.0
  1
VANGUARD L
 72
     4
 11
0.0
 21
-2649.986484
 31
0.0
  3

  2
TYPE
 70
     2
  0
ATTDEF
  5
64
  8
STELATT
 10
-93.333333
 20
-2734.986484
 30
0.0
 40
40.0
  1
970
 72
     4
 11
0.0
 21
-2714.986484
 31
0.0
  3

  2
MODEL
 70
     2
  0
DIMENSION
  5
65
  8
0
  2
*D4
 10
510.0
 20
-104.457394
 30
0.0
 11
0.0
 21
-78.957394
 31
0.0
 70
     0
 13
-510.0
 23
0.0
 33
0.0
 14
510.0
 24
0.0
 34
0.0
  0
LINE
  5
74
  8
DETAIL
 10
510.0
 20
0.0
 30
0.0
 11
-510.0
 21
0.0
 31
0.0
  0
LINE
  5
75
  8
DETAIL
 10
510.0
 20
69.5
 30
0.0
 11
-510.0
 21
69.5
 31
0.0
  0
LINE
  5
76
  8
DETAIL
 10
-561.0
 20
195.0
 30
0.0
 11
561.0
 21
195.0
 31
0.0
  0
POLYLINE
  5
77
  8
STELTXT
 66
     1
 10
0.0
 20
0.0
 30
0.0
 70
   128
1001
ACAD
1000
R13OBJECT
1002
{
1005
0
1002
}
  0
VERTEX
  5
3CB
  8
STELTXT
 10
64.771859
 20
633.102231
 30
0.0
  0
VERTEX
  5
3CC
  8
STELTXT
 10
608.179598
 20
736.457045
 30
0.0
  0
VERTEX
  5
3CD
  8
STELTXT
 10
752.004667
 20
736.457045
 30
0.0
  0
SEQEND
  5
3CE
  8
STELTXT
  0
LINE
  5
78
  8
DETAIL
 10
-195.767652
 20
415.570778
 30
0.0
 11
195.767652
 21
415.570778
 31
0.0
  0
POLYLINE
  5
79
  8
DETAIL
 66
     1
 10
0.0
 20
0.0
 30
0.0
 70
     1
  0
VERTEX
  5
3CF
  8
DETAIL
 10
-195.767652
 20
229.99708
 30
0.0
 42
-0.414214
  0
VERTEX
  5
3D0
  8
DETAIL
 10
-210.767652
 20
244.99708
 30
0.0
 42
-0.092505
  0
VERTEX
  5
3D1
  8
DETAIL
 10
-210.767652
 20
390.570778
 30
0.0
 42
-0.414214
  0
VERTEX
  5
3D2
  8
DETAIL
 10
-195.767652
 20
405.570778
 30
0.0
  0
VERTEX
  5
3D3
  8
DETAIL
 10
195.767652
 20
405.570778
 30
0.0
 42
-0.414214
  0
VERTEX
  5
3D4
  8
DETAIL
 10
210.767652
 20
390.570778
 30
0.0
 42
-0.092505
  0
VERTEX
  5
3D5
  8
DETAIL
 10
210.767652
 20
244.99708
 30
0.0
 42
-0.414214
  0
VERTEX
  5
3D6
  8
DETAIL
 10
195.767652
 20
229.99708
 30
0.0
  0
SEQEND
  5
3D7
  8
DETAIL
  0
ARC
  5
7A
  8
DETAIL
 10
179.285162
 20
317.783929
 30
0.0
 40
406.785992
 50
169.544172
 51
190.455828
  0
LINE
  5
7B
  8
DETAIL
 10
-510.0
 20
69.5
 30
0.0
 11
-510.0
 21
0.0
 31
0.0
  0
LINE
  5
7C
  8
DETAIL
 10
-510.0
 20
69.5
 30
0.0
 11
-510.0
 21
195.0
 31
0.0
  0
LINE
  5
7D
  8
DETAIL
 10
-195.767652
 20
229.99708
 30
0.0
 11
-215.767652
 21
229.99708
 31
0.0
  0
ARC
  5
7E
  8
DETAIL
 10
-195.767652
 20
244.99708
 30
0.0
 40
25.0
 50
182.374172
 51
216.869898
  0
ARC
  5
7F
  8
DETAIL
 10
-195.767652
 20
390.570778
 30
0.0
 40
25.0
 50
90.0
 51
177.625828
  0
ARC
  5
80
  8
DETAIL
 10
-179.285162
 20
317.783929
 30
0.0
 40
406.785992
 50
349.544172
 51
10.455828
  0
LINE
  5
81
  8
DETAIL
 10
125.0
 20
-5.0
 30
0.0
 11
-125.0
 21
-5.0
 31
0.0
  0
POLYLINE
  5
82
  8
ORIGIN
 66
     1
 10
0.0
 20
0.0
 30
0.0
 70
     1
  0
VERTEX
  5
3D8
  8
ORIGIN
 10
37.5
 20
-37.5
 30
0.0
  0
VERTEX
  5
3D9
  8
ORIGIN
 10
-37.5
 20
37.5
 30
0.0
  0
VERTEX
  5
3DA
  8
ORIGIN
 10
-37.5
 20
-37.5
 30
0.0
  0
VERTEX
  5
3DB
  8
ORIGIN
 10
37.5
 20
37.5
 30
0.0
  0
SEQEND
  5
3DC
  8
ORIGIN
  0
LINE
  5
84
  8
DETAIL
 10
-125.0
 20
-5.0
 30
0.0
 11
-125.0
 21
0.0
 31
0.0
  0
LINE
  5
85
  8
DETAIL
 10
125.0
 20
-5.0
 30
0.0
 11
125.0
 21
0.0
 31
0.0
  0
LINE
  5
86
  8
DETAIL
 10
195.767652
 20
229.99708
 30
0.0
 11
215.767652
 21
229.99708
 31
0.0
  0
ARC
  5
87
  8
DETAIL
 10
195.767652
 20
244.99708
 30
0.0
 40
25.0
 50
323.130102
 51
357.625828
  0
CIRCLE
  5
88
  8
DETAIL
 10
0.0
 20
626.0
 30
0.0
 40
62.5
  0
SOLID
  5
89
  8
STELTXT
  6
CONTINUOUS
 10
-65.708131
 20
629.042119
 30
0.0
 11
-40.41119
 21
627.484598
 31
0.0
 12
-63.835587
 22
637.162342
 32
0.0
 13
-63.835587
 23
637.162342
 33
0.0
210
0.0
220
0.0
230
-1.0
  0
ARC
  5
8A
  8
DETAIL
 10
195.767652
 20
390.570778
 30
0.0
 40
25.0
 50
2.374172
 51
90.0
  0
TEXT
  5
8B
  8
STELTXT
 10
762.392268
 20
683.026403
 30
0.0
 40
25.0
  1
CONNECTION
  0
TEXT
  5
8C
  8
STELTXT
 10
769.622128
 20
-18.02139
 30
0.0
 40
25.0
  1
BURNER CONNECTION
  0
TEXT
  5
8D
  8
STELTXT
 10
762.392268
 20
725.883546
 30
0.0
 40
25.0
  1
125mm RETURN
  0
LINE
  5
8E
  8
DETAIL
 10
510.0
 20
69.5
 30
0.0
 11
510.0
 21
0.0
 31
0.0
  0
LINE
  5
8F
  8
DETAIL
 10
510.0
 20
69.5
 30
0.0
 11
510.0
 21
195.0
 31
0.0
  0
DIMENSION
  5
90
  8
DIMENSION
  2
*D3
 10
-838.475879
 20
2189.0
 30
0.0
 11
-863.975879
 21
2261.5
 31
0.0
 70
     0
 13
-175.625
 23
2334.0
 33
0.0
 14
-561.0
 24
2189.0
 34
0.0
 50
90.0
  0
DIMENSION
  5
9F
  8
DIMENSION
  2
*D2
 10
-838.475879
 20
1066.0
 30
0.0
 11
-863.975879
 21
1478.5
 31
0.0
 70
     0
 13
-62.5
 23
1891.0
 33
0.0
 14
-32.5
 24
1066.0
 34
0.0
 50
90.0
  0
DIMENSION
  5
AE
  8
DIMENSION
  2
*D1
 10
-838.475879
 20
1891.0
 30
0.0
 11
-863.975879
 21
2040.0
 31
0.0
 70
     0
 13
-561.0
 23
2189.0
 33
0.0
 14
-62.5
 24
1891.0
 34
0.0
 50
90.0
  0
LINE
  5
BD
  8
PLANNING
 10
-761.0
 20
2834.0
 30
0.0
 11
661.0
 21
2834.0
 31
0.0
  0
POLYLINE
  5
BE
  8
STELTXT
 66
     1
 10
0.0
 20
0.0
 30
0.0
 70
   128
1001
ACAD
1000
R13OBJECT
1002
{
1005
0
1002
}
  0
VERTEX
  5
3DD
  8
STELTXT
 10
202.626217
 20
2335.669573
 30
0.0
  0
VERTEX
  5
3DE
  8
STELTXT
 10
701.228586
 20
2445.817984
 30
0.0
  0
VERTEX
  5
3DF
  8
STELTXT
 10
749.444267
 20
2445.817984
 30
0.0
  0
SEQEND
  5
3E0
  8
STELTXT
  0
DIMENSION
  5
BF
  8
DIMENSION
  2
*D0
 10
561.0
 20
2510.689525
 30
0.0
 11
-0.3125
 21
2510.689525
 31
0.0
 70
   128
 13
-561.0
 23
2189.0
 33
0.0
 14
561.0
 24
2189.0
 34
0.0
  0
LINE
  5
CE
  8
DETAIL
 10
-561.0
 20
2189.0
 30
0.0
 11
561.0
 21
2189.0
 31
0.0
  0
LINE
  5
CF
  8
DETAIL
 10
-451.315
 20
2314.0
 30
0.0
 11
451.315
 21
2314.0
 31
0.0
  0
POLYLINE
  5
D0
  8
STELTXT
 66
     1
 10
0.0
 20
0.0
 30
0.0
 70
   128
1001
ACAD
1000
R13OBJECT
1002
{
1005
0
1002
}
  0
VERTEX
  5
3E1
  8
STELTXT
 10
63.312922
 20
1073.116864
 30
0.0
  0
VERTEX
  5
3E2
  8
STELTXT
 10
606.720661
 20
1176.471679
 30
0.0
  0
VERTEX
  5
3E3
  8
STELTXT
 10
750.54573
 20
1176.471679
 30
0.0
  0
SEQEND
  5
3E4
  8
STELTXT
  0
POLYLINE
  5
D1
  8
STELTXT
 66
     1
 10
0.0
 20
0.0
 30
0.0
 70
   128
1001
ACAD
1000
R13OBJECT
1002
{
1005
0
1002
}
  0
VERTEX
  5
3E5
  8
STELTXT
 10
64.771859
 20
1919.471594
 30
0.0
  0
VERTEX
  5
3E6
  8
STELTXT
 10
608.179598
 20
2022.826409
 30
0.0
  0
VERTEX
  5
3E7
  8
STELTXT
 10
752.004667
 20
2022.826409
 30
0.0
  0
SEQEND
  5
3E8
  8
STELTXT
  0
LINE
  5
D2
  8
DETAIL
 10
-175.0
 20
2334.0
 30
0.0
 11
175.0
 21
2334.0
 31
0.0
  0
LINE
  5
D3
  8
DETAIL
 10
-451.315
 20
2314.0
 30
0.0
 11
-451.315
 21
2189.0
 31
0.0
  0
LINE
  5
D4
  8
DETAIL
 10
-175.0
 20
2334.0
 30
0.0
 11
-175.0
 21
2314.0
 31
0.0
  0
CIRCLE
  5
D5
  8
DETAIL
 10
0.0
 20
1066.0
 30
0.0
 40
32.5
  0
SOLID
  5
D6
  8
STELTXT
  6
CONTINUOUS
 10
-64.249194
 20
1069.056753
 30
0.0
 11
-38.952253
 21
1067.499232
 31
0.0
 12
-62.37665
 22
1077.176976
 32
0.0
 13
-62.37665
 23
1077.176976
 33
0.0
210
0.0
220
0.0
230
-1.0
  0
CIRCLE
  5
D7
  8
DETAIL
 10
0.0
 20
1891.0
 30
0.0
 40
62.5
  0
SOLID
  5
D8
  8
STELTXT
  6
CONTINUOUS
 10
-65.708131
 20
1915.411483
 30
0.0
 11
-40.41119
 21
1913.853962
 31
0.0
 12
-63.835587
 22
1923.531706
 32
0.0
 13
-63.835587
 23
1923.531706
 33
0.0
210
0.0
220
0.0
230
-1.0
  0
SOLID
  5
D9
  8
STELTXT
  6
CONTINUOUS
 10
-203.286937
 20
2331.555626
 30
0.0
 11
-177.942535
 21
2331.705256
 31
0.0
 12
-201.965498
 22
2339.78352
 32
0.0
 13
-201.965498
 23
2339.78352
 33
0.0
210
0.0
220
0.0
230
-1.0
  0
LINE
  5
DA
  8
DETAIL
 10
175.0
 20
2334.0
 30
0.0
 11
175.0
 21
2314.0
 31
0.0
  0
TEXT
  5
DB
  8
STELTXT
 10
762.083811
 20
2433.224425
 30
0.0
 40
25.0
  1
350mm FLUE OUTLET
  0
TEXT
  5
DC
  8
STELTXT
 10
762.392268
 20
1969.395767
 30
0.0
 40
25.0
  1
CONNECTION
  0
TEXT
  5
DD
  8
STELTXT
 10
762.392268
 20
2012.25291
 30
0.0
 40
25.0
  1
125mm FLOW
  0
TEXT
  5
DE
  8
STELTXT
 10
761.170287
 20
1121.988811
 30
0.0
 40
25.0
  1
& EXPANSION CONNECTION
  0
TEXT
  5
DF
  8
STELTXT
 10
761.170287
 20
1164.845954
 30
0.0
 40
25.0
  1
65mm SAFETY VALVE
  0
LINE
  5
E0
  8
DETAIL
 10
451.315
 20
2314.0
 30
0.0
 11
451.315
 21
2189.0
 31
0.0
  0
ENDSEC
  0
EOF
