  0
SECTION
  2
HEADER
  9
$ACADVER
  1
AC1009
  9
$INSBASE
 10
0.0
 20
0.0
 30
0.0
  9
$EXTMIN
 10
-1090.900244
 20
-400.992745
 30
0.0
  9
$EXTMAX
 10
1069.548451
 20
1775.745776
 30
0.0
  9
$LIMMIN
 10
0.0
 20
0.0
  9
$LIMMAX
 10
420.0
 20
297.0
  9
$ORTHOMODE
 70
     1
  9
$REGENMODE
 70
     1
  9
$FILLMODE
 70
     1
  9
$QTEXTMODE
 70
     0
  9
$MIRRTEXT
 70
     1
  9
$DRAGMODE
 70
     2
  9
$LTSCALE
 40
1.0
  9
$OSMODE
 70
     0
  9
$ATTMODE
 70
     2
  9
$TEXTSIZE
 40
25.0
  9
$TRACEWID
 40
1.0
  9
$TEXTSTYLE
  7
STANDARD
  9
$CLAYER
  8
0
  9
$CELTYPE
  6
BYLAYER
  9
$CECOLOR
 62
   256
  9
$DIMSCALE
 40
1.0
  9
$DIMASZ
 40
25.0
  9
$DIMEXO
 40
0.625
  9
$DIMDLI
 40
3.75
  9
$DIMRND
 40
0.0
  9
$DIMDLE
 40
0.0
  9
$DIMEXE
 40
1.25
  9
$DIMTP
 40
0.0
  9
$DIMTM
 40
0.0
  9
$DIMTXT
 40
25.0
  9
$DIMCEN
 40
2.5
  9
$DIMTSZ
 40
0.0
  9
$DIMTOL
 70
     0
  9
$DIMLIM
 70
     0
  9
$DIMTIH
 70
     0
  9
$DIMTOH
 70
     0
  9
$DIMSE1
 70
     0
  9
$DIMSE2
 70
     0
  9
$DIMTAD
 70
     1
  9
$DIMZIN
 70
     8
  9
$DIMBLK
  1

  9
$DIMASO
 70
     1
  9
$DIMSHO
 70
     1
  9
$DIMPOST
  1

  9
$DIMAPOST
  1

  9
$DIMALT
 70
     0
  9
$DIMALTD
 70
     3
  9
$DIMALTF
 40
0.03937
  9
$DIMLFAC
 40
1.0
  9
$DIMTOFL
 70
     1
  9
$DIMTVP
 40
0.0
  9
$DIMTIX
 70
     0
  9
$DIMSOXD
 70
     0
  9
$DIMSAH
 70
     0
  9
$DIMBLK1
  1

  9
$DIMBLK2
  1

  9
$DIMSTYLE
  2
ISO-25
  9
$DIMCLRD
 70
     0
  9
$DIMCLRE
 70
     0
  9
$DIMCLRT
 70
     0
  9
$DIMTFAC
 40
1.0
  9
$DIMGAP
 40
13.0
  9
$LUNITS
 70
     2
  9
$LUPREC
 70
     4
  9
$SKETCHINC
 40
1.0
  9
$FILLETRAD
 40
10.0
  9
$AUNITS
 70
     0
  9
$AUPREC
 70
     0
  9
$MENU
  1
.
  9
$ELEVATION
 40
0.0
  9
$PELEVATION
 40
0.0
  9
$THICKNESS
 40
0.0
  9
$LIMCHECK
 70
     0
  9
$BLIPMODE
 70
     0
  9
$CHAMFERA
 40
10.0
  9
$CHAMFERB
 40
10.0
  9
$SKPOLY
 70
     0
  9
$TDCREATE
 40
2452706.626866
  9
$TDUPDATE
 40
2453073.534299
  9
$TDINDWG
 40
0.328256
  9
$TDUSRTIMER
 40
0.328256
  9
$USRTIMER
 70
     1
  9
$ANGBASE
 50
0.0
  9
$ANGDIR
 70
     0
  9
$PDMODE
 70
     0
  9
$PDSIZE
 40
0.0
  9
$PLINEWID
 40
0.0
  9
$COORDS
 70
     1
  9
$SPLFRAME
 70
     0
  9
$SPLINETYPE
 70
     6
  9
$SPLINESEGS
 70
     8
  9
$ATTDIA
 70
     0
  9
$ATTREQ
 70
     1
  9
$HANDLING
 70
 22529
  9
$HANDSEED
  5
1A31
  9
$SURFTAB1
 70
     6
  9
$SURFTAB2
 70
     6
  9
$SURFTYPE
 70
     6
  9
$SURFU
 70
     6
  9
$SURFV
 70
     6
  9
$UCSNAME
  2

  9
$UCSORG
 10
0.0
 20
0.0
 30
0.0
  9
$UCSXDIR
 10
1.0
 20
0.0
 30
0.0
  9
$UCSYDIR
 10
0.0
 20
1.0
 30
0.0
  9
$PUCSNAME
  2

  9
$PUCSORG
 10
0.0
 20
0.0
 30
0.0
  9
$PUCSXDIR
 10
1.0
 20
0.0
 30
0.0
  9
$PUCSYDIR
 10
0.0
 20
1.0
 30
0.0
  9
$USERI1
 70
     0
  9
$USERI2
 70
     0
  9
$USERI3
 70
     0
  9
$USERI4
 70
     0
  9
$USERI5
 70
     0
  9
$USERR1
 40
0.0
  9
$USERR2
 40
0.0
  9
$USERR3
 40
0.0
  9
$USERR4
 40
0.0
  9
$USERR5
 40
0.0
  9
$WORLDVIEW
 70
     1
  9
$SHADEDGE
 70
     3
  9
$SHADEDIF
 70
    70
  9
$TILEMODE
 70
     1
  9
$MAXACTVP
 70
    48
  9
$PLIMCHECK
 70
     0
  9
$PEXTMIN
 10
1.000000E+020
 20
1.000000E+020
 30
1.000000E+020
  9
$PEXTMAX
 10
-1.000000E+020
 20
-1.000000E+020
 30
-1.000000E+020
  9
$PLIMMIN
 10
0.0
 20
0.0
  9
$PLIMMAX
 10
420.0
 20
297.0
  9
$UNITMODE
 70
     0
  9
$VISRETAIN
 70
     1
  9
$PLINEGEN
 70
     0
  9
$PSLTSCALE
 70
     1
  0
ENDSEC
  0
SECTION
  2
TABLES
  0
TABLE
  2
VPORT
 70
     2
  0
VPORT
  2
*ACTIVE
 70
     0
 10
0.0
 20
0.0
 11
1.0
 21
1.0
 12
-10.675897
 22
687.376516
 13
0.0
 23
0.0
 14
10.0
 24
10.0
 15
10.0
 25
10.0
 16
0.0
 26
0.0
 36
1.0
 17
0.0
 27
0.0
 37
0.0
 40
2201.806528
 41
1.825
 42
50.0
 43
0.0
 44
0.0
 50
0.0
 51
0.0
 71
     0
 72
   100
 73
     1
 74
     3
 75
     0
 76
     0
 77
     0
 78
     0
  0
ENDTAB
  0
TABLE
  2
LTYPE
 70
     3
  0
LTYPE
  2
CONTINUOUS
 70
     0
  3
Solid line
 72
    65
 73
     0
 40
0.0
  0
LTYPE
  2
CENTER
 70
     0
  3
____ _ ____ _ ____ _ ____ _ ____ _ ____ _ ____
 72
    65
 73
     4
 40
2.0
 49
1.25
 49
-0.25
 49
0.25
 49
-0.25
  0
LTYPE
  2
DASHED
 70
     0
  3
__ __ __ __ __ __ __ __ __ __ __ __ __ __ __
 72
    65
 73
     2
 40
0.75
 49
0.5
 49
-0.25
  0
ENDTAB
  0
TABLE
  2
LAYER
 70
     9
  0
LAYER
  2
0
 70
     0
 62
     7
  6
CONTINUOUS
  0
LAYER
  2
ORIGIN
 70
     0
 62
     6
  6
CONTINUOUS
  0
LAYER
  2
DETAIL
 70
     0
 62
     2
  6
CONTINUOUS
  0
LAYER
  2
DIMENSION
 70
     0
 62
     7
  6
CONTINUOUS
  0
LAYER
  2
PLANNING
 70
     0
 62
     1
  6
DASHED
  0
LAYER
  2
STELTXT
 70
     0
 62
     4
  6
CONTINUOUS
  0
LAYER
  2
STELATT
 70
     0
 62
     7
  6
CONTINUOUS
  0
LAYER
  2
CENTER
 70
     0
 62
     4
  6
CENTER
  0
LAYER
  2
DEFPOINTS
 70
     0
 62
     7
  6
CONTINUOUS
  0
ENDTAB
  0
TABLE
  2
STYLE
 70
     1
  0
STYLE
  2
STANDARD
 70
     0
 40
0.0
 41
1.0
 50
0.0
 71
     0
 42
25.0
  3
simplex.shx
  4

  0
ENDTAB
  0
TABLE
  2
VIEW
 70
     0
  0
ENDTAB
  0
TABLE
  2
UCS
 70
     0
  0
ENDTAB
  0
TABLE
  2
APPID
 70
     1
  0
APPID
  2
ACAD
 70
     0
  0
ENDTAB
  0
TABLE
  2
DIMSTYLE
 70
     1
  0
DIMSTYLE
  2
ISO-25
 70
     0
  3

  4

  5

  6

  7

 40
1.0
 41
25.0
 42
0.625
 43
3.75
 44
1.25
 45
0.0
 46
0.0
 47
0.0
 48
0.0
140
25.0
141
2.5
142
0.0
143
0.03937
144
1.0
145
0.0
146
1.0
147
13.0
 71
     0
 72
     0
 73
     0
 74
     0
 75
     0
 76
     0
 77
     1
 78
     8
170
     0
171
     3
172
     1
173
     0
174
     0
175
     0
176
     0
177
     0
178
     0
  0
ENDTAB
  0
ENDSEC
  0
SECTION
  2
BLOCKS
  0
BLOCK
  8
0
  2
$MODEL_SPACE
 70
     2
 10
0.0
 20
0.0
 30
0.0
  3
$MODEL_SPACE
  1

  0
ENDBLK
  5
A
  8
0
  0
BLOCK
 67
     1
  8
0
  2
$PAPER_SPACE
 70
     0
 10
0.0
 20
0.0
 30
0.0
  3
$PAPER_SPACE
  1

  0
ENDBLK
  5
10
 67
     1
  8
0
  0
BLOCK
  8
0
  2
*D0
 70
     1
 10
0.0
 20
0.0
 30
0.0
  3
*D0
  1

  0
LINE
  5
17A4
  8
DIMENSION
 62
     0
 10
626.25
 20
0.0
 30
0.0
 11
918.559331
 21
0.0
 31
0.0
  0
LINE
  5
17A5
  8
DIMENSION
 62
     0
 10
200.625
 20
810.0
 30
0.0
 11
918.559331
 21
810.0
 31
0.0
  0
LINE
  5
17A6
  8
DIMENSION
 62
     0
 10
917.309331
 20
25.0
 30
0.0
 11
917.309331
 21
785.0
 31
0.0
  0
SOLID
  5
17A7
  8
DIMENSION
 62
     0
 10
913.142664
 20
25.0
 30
0.0
 11
921.475997
 21
25.0
 31
0.0
 12
917.309331
 22
0.0
 32
0.0
 13
917.309331
 23
0.0
 33
0.0
  0
SOLID
  5
17A8
  8
DIMENSION
 62
     0
 10
913.142664
 20
785.0
 30
0.0
 11
921.475997
 21
785.0
 31
0.0
 12
917.309331
 22
810.0
 32
0.0
 13
917.309331
 23
810.0
 33
0.0
  0
TEXT
  5
17A9
  8
0
 62
     0
 10
904.309331
 20
375.238095
 30
0.0
 40
25.0
  1
810
 50
90.0
  0
POINT
  5
17AA
  8
DEFPOINTS
 62
     0
 10
625.625
 20
0.0
 30
0.0
  0
POINT
  5
17AB
  8
DEFPOINTS
 62
     0
 10
200.0
 20
810.0
 30
0.0
  0
POINT
  5
17AC
  8
DEFPOINTS
 62
     0
 10
917.309331
 20
810.0
 30
0.0
  0
ENDBLK
  5
ED
  8
0
  0
BLOCK
  8
0
  2
*D1
 70
     1
 10
0.0
 20
0.0
 30
0.0
  3
*D1
  1

  0
LINE
  5
156B
  8
DIMENSION
 62
     0
 10
-625.0
 20
-0.625
 30
0.0
 11
-625.0
 21
-104.392602
 31
0.0
  0
LINE
  5
156C
  8
DIMENSION
 62
     0
 10
625.0
 20
-0.625
 30
0.0
 11
625.0
 21
-104.392602
 31
0.0
  0
LINE
  5
156D
  8
DIMENSION
 62
     0
 10
-600.0
 20
-103.142602
 30
0.0
 11
600.0
 21
-103.142602
 31
0.0
  0
SOLID
  5
156E
  8
DIMENSION
 62
     0
 10
-600.0
 20
-98.975935
 30
0.0
 11
-600.0
 21
-107.309269
 31
0.0
 12
-625.0
 22
-103.142602
 32
0.0
 13
-625.0
 23
-103.142602
 33
0.0
  0
SOLID
  5
156F
  8
DIMENSION
 62
     0
 10
600.0
 20
-98.975935
 30
0.0
 11
600.0
 21
-107.309269
 31
0.0
 12
625.0
 22
-103.142602
 32
0.0
 13
625.0
 23
-103.142602
 33
0.0
  0
TEXT
  5
1570
  8
0
 62
     0
 10
-41.666667
 20
-90.142602
 30
0.0
 40
25.0
  1
1250
  0
POINT
  5
1571
  8
DEFPOINTS
 62
     0
 10
-625.0
 20
0.0
 30
0.0
  0
POINT
  5
1572
  8
DEFPOINTS
 62
     0
 10
625.0
 20
0.0
 30
0.0
  0
POINT
  5
1573
  8
DEFPOINTS
 62
     0
 10
625.0
 20
-103.142602
 30
0.0
  0
ENDBLK
  5
4A5
  8
0
  0
BLOCK
  8
0
  2
*D2
 70
     1
 10
0.0
 20
0.0
 30
0.0
  3
*D2
  1

  0
LINE
  5
1574
  8
DIMENSION
 62
     0
 10
-676.0
 20
1432.625
 30
0.0
 11
-676.0
 21
1738.994227
 31
0.0
  0
LINE
  5
1575
  8
DIMENSION
 62
     0
 10
676.0
 20
1432.625
 30
0.0
 11
676.0
 21
1738.994227
 31
0.0
  0
LINE
  5
1576
  8
DIMENSION
 62
     0
 10
-651.0
 20
1737.744227
 30
0.0
 11
651.0
 21
1737.744227
 31
0.0
  0
SOLID
  5
1577
  8
DIMENSION
 62
     0
 10
-651.0
 20
1741.910893
 30
0.0
 11
-651.0
 21
1733.57756
 31
0.0
 12
-676.0
 22
1737.744227
 32
0.0
 13
-676.0
 23
1737.744227
 33
0.0
  0
SOLID
  5
1578
  8
DIMENSION
 62
     0
 10
651.0
 20
1741.910893
 30
0.0
 11
651.0
 21
1733.57756
 31
0.0
 12
676.0
 22
1737.744227
 32
0.0
 13
676.0
 23
1737.744227
 33
0.0
  0
TEXT
  5
1579
  8
0
 62
     0
 10
-41.354167
 20
1750.744227
 30
0.0
 40
25.0
  1
1352
  0
POINT
  5
157A
  8
DEFPOINTS
 62
     0
 10
-676.0
 20
1432.0
 30
0.0
  0
POINT
  5
157B
  8
DEFPOINTS
 62
     0
 10
676.0
 20
1432.0
 30
0.0
  0
POINT
  5
157C
  8
DEFPOINTS
 62
     0
 10
676.0
 20
1737.744227
 30
0.0
  0
ENDBLK
  5
4B1
  8
0
  0
BLOCK
  8
0
  2
*D3
 70
     1
 10
0.0
 20
0.0
 30
0.0
  3
*D3
  1

  0
LINE
  5
15FA
  8
DIMENSION
 62
     0
 10
625.625
 20
0.0
 30
0.0
 11
1066.592242
 21
0.0
 31
0.0
  0
LINE
  5
15FB
  8
DIMENSION
 62
     0
 10
676.625
 20
1432.0
 30
0.0
 11
1066.592242
 21
1432.0
 31
0.0
  0
LINE
  5
15FC
  8
DIMENSION
 62
     0
 10
1065.342242
 20
25.0
 30
0.0
 11
1065.342242
 21
1407.0
 31
0.0
  0
SOLID
  5
15FD
  8
DIMENSION
 62
     0
 10
1061.175576
 20
25.0
 30
0.0
 11
1069.508909
 21
25.0
 31
0.0
 12
1065.342242
 22
0.0
 32
0.0
 13
1065.342242
 23
0.0
 33
0.0
  0
SOLID
  5
15FE
  8
DIMENSION
 62
     0
 10
1061.175576
 20
1407.0
 30
0.0
 11
1069.508909
 21
1407.0
 31
0.0
 12
1065.342242
 22
1432.0
 32
0.0
 13
1065.342242
 23
1432.0
 33
0.0
  0
TEXT
  5
15FF
  8
0
 62
     0
 10
1052.342242
 20
674.333333
 30
0.0
 40
25.0
  1
1432
 50
90.0
  0
POINT
  5
1600
  8
DEFPOINTS
 62
     0
 10
625.0
 20
0.0
 30
0.0
  0
POINT
  5
1601
  8
DEFPOINTS
 62
     0
 10
676.0
 20
1432.0
 30
0.0
  0
POINT
  5
1602
  8
DEFPOINTS
 62
     0
 10
1065.342242
 20
1432.0
 30
0.0
  0
ENDBLK
  5
4C6
  8
0
  0
BLOCK
  8
0
  2
*D4
 70
     1
 10
0.0
 20
0.0
 30
0.0
  3
*D4
  1

  0
LINE
  5
17B6
  8
DIMENSION
 62
     0
 10
625.625
 20
0.0
 30
0.0
 11
839.646118
 21
0.0
 31
0.0
  0
LINE
  5
17B7
  8
DIMENSION
 62
     0
 10
150.625
 20
595.0
 30
0.0
 11
839.646118
 21
595.0
 31
0.0
  0
LINE
  5
17B8
  8
DIMENSION
 62
     0
 10
838.396118
 20
25.0
 30
0.0
 11
838.396118
 21
570.0
 31
0.0
  0
SOLID
  5
17B9
  8
DIMENSION
 62
     0
 10
834.229451
 20
25.0
 30
0.0
 11
842.562784
 21
25.0
 31
0.0
 12
838.396118
 22
0.0
 32
0.0
 13
838.396118
 23
0.0
 33
0.0
  0
SOLID
  5
17BA
  8
DIMENSION
 62
     0
 10
834.229451
 20
570.0
 30
0.0
 11
842.562784
 21
570.0
 31
0.0
 12
838.396118
 22
595.0
 32
0.0
 13
838.396118
 23
595.0
 33
0.0
  0
TEXT
  5
17BB
  8
0
 62
     0
 10
825.396118
 20
265.357143
 30
0.0
 40
25.0
  1
595
 50
90.0
  0
POINT
  5
17BC
  8
DEFPOINTS
 62
     0
 10
625.0
 20
0.0
 30
0.0
  0
POINT
  5
17BD
  8
DEFPOINTS
 62
     0
 10
150.0
 20
595.0
 30
0.0
  0
POINT
  5
17BE
  8
DEFPOINTS
 62
     0
 10
838.396118
 20
595.0
 30
0.0
  0
ENDBLK
  5
4D2
  8
0
  0
BLOCK
  8
0
  2
*D5
 70
     1
 10
0.0
 20
0.0
 30
0.0
  3
*D5
  1

  0
LINE
  5
15F1
  8
DIMENSION
 62
     0
 10
676.625
 20
1432.0
 30
0.0
 11
1066.592242
 21
1432.0
 31
0.0
  0
LINE
  5
15F2
  8
DIMENSION
 62
     0
 10
-80.969187
 20
1622.0
 30
0.0
 11
1066.592242
 21
1622.0
 31
0.0
  0
LINE
  5
15F3
  8
DIMENSION
 62
     0
 10
1065.342242
 20
1457.0
 30
0.0
 11
1065.342242
 21
1597.0
 31
0.0
  0
SOLID
  5
15F4
  8
DIMENSION
 62
     0
 10
1061.175576
 20
1457.0
 30
0.0
 11
1069.508909
 21
1457.0
 31
0.0
 12
1065.342242
 22
1432.0
 32
0.0
 13
1065.342242
 23
1432.0
 33
0.0
  0
SOLID
  5
15F5
  8
DIMENSION
 62
     0
 10
1061.175576
 20
1597.0
 30
0.0
 11
1069.508909
 21
1597.0
 31
0.0
 12
1065.342242
 22
1622.0
 32
0.0
 13
1065.342242
 23
1622.0
 33
0.0
  0
TEXT
  5
15F6
  8
0
 62
     0
 10
1052.342242
 20
1497.238095
 30
0.0
 40
25.0
  1
190
 50
90.0
  0
POINT
  5
15F7
  8
DEFPOINTS
 62
     0
 10
676.0
 20
1432.0
 30
0.0
  0
POINT
  5
15F8
  8
DEFPOINTS
 62
     0
 10
-81.594187
 20
1622.0
 30
0.0
  0
POINT
  5
15F9
  8
DEFPOINTS
 62
     0
 10
1065.342242
 20
1622.0
 30
0.0
  0
ENDBLK
  5
4DE
  8
0
  0
BLOCK
  8
0
  2
*D6
 70
     1
 10
0.0
 20
0.0
 30
0.0
  3
*D6
  1

  0
LINE
  5
15A1
  8
DIMENSION
 62
     0
 10
626.875
 20
0.0
 30
0.0
 11
735.162493
 21
0.0
 31
0.0
  0
LINE
  5
15A2
  8
DIMENSION
 62
     0
 10
16.625
 20
75.0
 30
0.0
 11
735.162493
 21
75.0
 31
0.0
  0
LINE
  5
15A3
  8
DIMENSION
 62
     0
 10
733.912493
 20
-25.0
 30
0.0
 11
733.912493
 21
-50.0
 31
0.0
  0
LINE
  5
15A4
  8
DIMENSION
 62
     0
 10
733.912493
 20
100.0
 30
0.0
 11
733.912493
 21
125.0
 31
0.0
  0
LINE
  5
15A5
  8
DIMENSION
 62
     0
 10
733.912493
 20
0.0
 30
0.0
 11
733.912493
 21
75.0
 31
0.0
  0
SOLID
  5
15A6
  8
DIMENSION
 62
     0
 10
729.745826
 20
-25.0
 30
0.0
 11
738.079159
 21
-25.0
 31
0.0
 12
733.912493
 22
0.0
 32
0.0
 13
733.912493
 23
0.0
 33
0.0
  0
SOLID
  5
15A7
  8
DIMENSION
 62
     0
 10
729.745826
 20
100.0
 30
0.0
 11
738.079159
 21
100.0
 31
0.0
 12
733.912493
 22
75.0
 32
0.0
 13
733.912493
 23
75.0
 33
0.0
  0
TEXT
  5
15A8
  8
0
 62
     0
 10
720.912493
 20
17.261905
 30
0.0
 40
25.0
  1
75
 50
90.0
  0
POINT
  5
15A9
  8
DEFPOINTS
 62
     0
 10
626.25
 20
0.0
 30
0.0
  0
POINT
  5
15AA
  8
DEFPOINTS
 62
     0
 10
16.0
 20
75.0
 30
0.0
  0
POINT
  5
15AB
  8
DEFPOINTS
 62
     0
 10
733.912493
 20
75.0
 30
0.0
  0
ENDBLK
  5
BB4
  8
0
  0
BLOCK
  8
0
  2
*D7
 70
     1
 10
0.0
 20
0.0
 30
0.0
  3
*D7
  1

  0
LINE
  5
17BF
  8
0
 62
     0
 10
118.125
 20
1540.0
 30
0.0
 11
993.764497
 21
1540.0
 31
0.0
  0
LINE
  5
17C0
  8
0
 62
     0
 10
625.625
 20
0.0
 30
0.0
 11
993.764497
 21
0.0
 31
0.0
  0
LINE
  5
17C1
  8
0
 62
     0
 10
992.514497
 20
1515.0
 30
0.0
 11
992.514497
 21
25.0
 31
0.0
  0
SOLID
  5
17C2
  8
0
 62
     0
 10
988.347831
 20
1515.0
 30
0.0
 11
996.681164
 21
1515.0
 31
0.0
 12
992.514497
 22
1540.0
 32
0.0
 13
992.514497
 23
1540.0
 33
0.0
  0
SOLID
  5
17C3
  8
0
 62
     0
 10
988.347831
 20
25.0
 30
0.0
 11
996.681164
 21
25.0
 31
0.0
 12
992.514497
 22
0.0
 32
0.0
 13
992.514497
 23
0.0
 33
0.0
  0
TEXT
  5
17C4
  8
0
 62
     0
 10
979.514497
 20
728.333333
 30
0.0
 40
25.0
  1
1540
 50
90.0
  0
POINT
  5
17C5
  8
DEFPOINTS
 62
     0
 10
117.5
 20
1540.0
 30
0.0
  0
POINT
  5
17C6
  8
DEFPOINTS
 62
     0
 10
625.0
 20
0.0
 30
0.0
  0
POINT
  5
17C7
  8
DEFPOINTS
 62
     0
 10
992.514497
 20
0.0
 30
0.0
  0
ENDBLK
  5
160F
  8
0
  0
ENDSEC
  0
SECTION
  2
ENTITIES
  0
POLYLINE
  5
26
  8
DETAIL
 66
     1
 10
0.0
 20
0.0
 30
0.0
 70
     1
  0
VERTEX
  5
19F0
  8
DETAIL
 10
-216.467297
 20
1529.770543
 30
0.0
  0
VERTEX
  5
19F1
  8
DETAIL
 10
-77.880362
 20
1529.770543
 30
0.0
  0
VERTEX
  5
19F2
  8
DETAIL
 10
-77.880362
 20
1463.409549
 30
0.0
  0
VERTEX
  5
19F3
  8
DETAIL
 10
-216.467297
 20
1463.409549
 30
0.0
  0
SEQEND
  5
19F4
  8
DETAIL
  0
LINE
  5
28
  8
CENTER
  6
CENTER
 10
200.0
 20
810.0
 30
0.0
 11
-200.0
 21
810.0
 31
0.0
  0
LINE
  5
2D
  8
CENTER
  6
CENTER
 10
150.0
 20
595.0
 30
0.0
 11
-150.0
 21
595.0
 31
0.0
  0
ATTDEF
  5
2F
  8
STELATT
 10
-93.333333
 20
-400.986484
 30
0.0
 40
40.0
  1
1320
 72
     4
 11
0.0
 21
-380.986484
 31
0.0
  3

  2
MODEL
 70
     2
  0
ATTDEF
  5
33
  8
STELATT
 10
-233.333333
 20
-270.986484
 30
0.0
 40
40.0
  1
IDEAL
 72
     4
 11
0.0
 21
-250.986484
 31
0.0
  3

  2
MANUFACTURER
 70
     2
  0
POLYLINE
  5
34
  8
DETAIL
 66
     1
 10
0.0
 20
0.0
 30
0.0
 70
     1
  0
VERTEX
  5
19F5
  8
DETAIL
 10
-463.898486
 20
1453.426302
 30
0.0
 42
-0.434513
  0
VERTEX
  5
19F6
  8
DETAIL
 10
-471.879558
 20
1461.976304
 30
0.0
 42
-0.093472
  0
VERTEX
  5
19F7
  8
DETAIL
 10
-471.879558
 20
1606.449998
 30
0.0
 42
-0.434513
  0
VERTEX
  5
19F8
  8
DETAIL
 10
-463.898486
 20
1615.0
 30
0.0
  0
VERTEX
  5
19F9
  8
DETAIL
 10
-72.363181
 20
1615.0
 30
0.0
 42
-0.434513
  0
VERTEX
  5
19FA
  8
DETAIL
 10
-64.38211
 20
1606.449998
 30
0.0
 42
-0.093472
  0
VERTEX
  5
19FB
  8
DETAIL
 10
-64.38211
 20
1461.976304
 30
0.0
 42
-0.434513
  0
VERTEX
  5
19FC
  8
DETAIL
 10
-72.363181
 20
1453.426302
 30
0.0
  0
SEQEND
  5
19FD
  8
DETAIL
  0
POLYLINE
  5
35
  8
DETAIL
 66
     1
 10
0.0
 20
0.0
 30
0.0
 70
     1
  0
VERTEX
  5
19FE
  8
DETAIL
 10
-463.898486
 20
1446.426302
 30
0.0
 42
-0.414214
  0
VERTEX
  5
19FF
  8
DETAIL
 10
-478.898486
 20
1461.426302
 30
0.0
 42
-0.092505
  0
VERTEX
  5
1A00
  8
DETAIL
 10
-478.898486
 20
1607.0
 30
0.0
 42
-0.414214
  0
VERTEX
  5
1A01
  8
DETAIL
 10
-463.898486
 20
1622.0
 30
0.0
  0
VERTEX
  5
1A02
  8
DETAIL
 10
-72.363181
 20
1622.0
 30
0.0
 42
-0.414214
  0
VERTEX
  5
1A03
  8
DETAIL
 10
-57.363181
 20
1607.0
 30
0.0
 42
-0.092505
  0
VERTEX
  5
1A04
  8
DETAIL
 10
-57.363181
 20
1461.426302
 30
0.0
 42
-0.414214
  0
VERTEX
  5
1A05
  8
DETAIL
 10
-72.363181
 20
1446.426302
 30
0.0
  0
SEQEND
  5
1A06
  8
DETAIL
  0
DIMENSION
  5
36
  8
DIMENSION
  2
*D2
 10
676.0
 20
1737.744227
 30
0.0
 11
0.3125
 21
1737.744227
 31
0.0
 70
   128
 13
-676.0
 23
1432.0
 33
0.0
 14
676.0
 24
1432.0
 34
0.0
  0
LINE
  5
47
  8
DETAIL
 10
-676.0
 20
1432.0
 30
0.0
 11
676.0
 21
1432.0
 31
0.0
  0
LINE
  5
48
  8
DETAIL
 10
-625.0
 20
1357.0
 30
0.0
 11
625.0
 21
1357.0
 31
0.0
  0
LINE
  5
49
  8
PLANNING
 10
776.0
 20
1622.0
 30
0.0
 11
-876.0
 21
1622.0
 31
0.0
  0
LINE
  5
4C
  8
DETAIL
 10
625.0
 20
0.0
 30
0.0
 11
-625.0
 21
0.0
 31
0.0
  0
DIMENSION
  5
4D
  8
DIMENSION
  2
*D1
 10
625.0
 20
-103.142602
 30
0.0
 11
0.0
 21
-103.142602
 31
0.0
 70
   128
 13
-625.0
 23
0.0
 33
0.0
 14
625.0
 24
0.0
 34
0.0
  0
LINE
  5
5C
  8
DETAIL
 10
625.0
 20
100.0
 30
0.0
 11
-625.0
 21
100.0
 31
0.0
  0
LINE
  5
5D
  8
PLANNING
 10
-876.0
 20
0.0
 30
0.0
 11
776.0
 21
0.0
 31
0.0
  0
LINE
  5
5E
  8
CENTER
  6
CENTER
 10
0.0
 20
0.0
 30
0.0
 11
0.0
 21
1540.0
 31
0.0
  0
LINE
  5
5F
  8
DETAIL
 10
-676.0
 20
1432.0
 30
0.0
 11
-676.0
 21
100.0
 31
0.0
  0
LINE
  5
60
  8
DETAIL
 10
-625.0
 20
1382.0
 30
0.0
 11
-625.0
 21
100.0
 31
0.0
  0
LINE
  5
62
  8
PLANNING
 10
-876.0
 20
1622.0
 30
0.0
 11
-876.0
 21
0.0
 31
0.0
  0
TEXT
  5
63
  8
STELTXT
 10
-1090.750622
 20
483.996306
 30
0.0
 40
25.0
  1
WITH GASKET
  0
TEXT
  5
65
  8
STELTXT
 10
-1090.750622
 20
525.662972
 30
0.0
 40
25.0
  1
BURNER DOOR
  0
TEXT
  5
66
  8
STELTXT
 10
-1085.229397
 20
751.827802
 30
0.0
 40
25.0
  1
WINDOW
  0
TEXT
  5
67
  8
STELTXT
 10
-1085.229397
 20
794.648987
 30
0.0
 40
25.0
  1
FLAME INSPECTION
  0
POLYLINE
  5
68
  8
STELTXT
 66
     1
 10
0.0
 20
0.0
 30
0.0
1001
ACAD
1000
DSTYLE
1002
{
1070
     5
1000

1070
    77
1070
     0
1070
   147
1040
13.0
1002
}
  0
VERTEX
  5
1A07
  8
STELTXT
 10
-49.151621
 20
77.217306
 30
0.0
  0
VERTEX
  5
1A08
  8
STELTXT
 10
-968.455617
 20
77.217306
 30
0.0
  0
SEQEND
  5
1A09
  8
STELTXT
  0
TEXT
  5
69
  8
STELTXT
 10
-1085.229397
 20
64.717306
 30
0.0
 40
25.0
  1
DRAIN
  0
ATTDEF
  5
6A
  8
STELATT
 10
-68.571429
 20
-335.986484
 30
0.0
 40
40.0
  1
VANGUARD L
 72
     4
 11
0.0
 21
-315.986484
 31
0.0
  3

  2
TYPE
 70
     2
  0
POLYLINE
  5
6B
  8
STELTXT
 66
     1
 10
0.0
 20
0.0
 30
0.0
1001
ACAD
1000
DSTYLE
1002
{
1070
     5
1000

1070
    77
1070
     0
1070
   147
1040
13.0
1002
}
  0
VERTEX
  5
1A0A
  8
STELTXT
 10
-330.534413
 20
807.148987
 30
0.0
  0
VERTEX
  5
1A0B
  8
STELTXT
 10
-723.637735
 20
807.148987
 30
0.0
  0
SEQEND
  5
1A0C
  8
STELTXT
  0
POLYLINE
  5
6C
  8
STELTXT
 66
     1
 10
0.0
 20
0.0
 30
0.0
1001
ACAD
1000
DSTYLE
1002
{
1070
   147
1040
13.0
1070
    77
1070
     0
1002
}
  0
VERTEX
  5
1A0D
  8
STELTXT
 10
-115.970281
 20
517.14636
 30
0.0
  0
VERTEX
  5
1A0E
  8
STELTXT
 10
-804.049793
 20
516.975493
 30
0.0
  0
SEQEND
  5
1A0F
  8
STELTXT
  0
LINE
  5
6D
  8
DETAIL
 10
-676.0
 20
100.0
 30
0.0
 11
-625.0
 21
100.0
 31
0.0
  0
LINE
  5
6E
  8
DETAIL
 10
-625.0
 20
100.0
 30
0.0
 11
-625.0
 21
0.0
 31
0.0
  0
POLYLINE
  5
6F
  8
ORIGIN
 66
     1
 10
0.0
 20
0.0
 30
0.0
 70
     1
  0
VERTEX
  5
1A10
  8
ORIGIN
 10
37.5
 20
-37.5
 30
0.0
  0
VERTEX
  5
1A11
  8
ORIGIN
 10
-37.5
 20
37.5
 30
0.0
  0
VERTEX
  5
1A12
  8
ORIGIN
 10
-37.5
 20
-37.5
 30
0.0
  0
VERTEX
  5
1A13
  8
ORIGIN
 10
37.5
 20
37.5
 30
0.0
  0
SEQEND
  5
1A14
  8
ORIGIN
  0
SOLID
  5
71
  8
STELTXT
 10
-49.151621
 20
81.383973
 30
0.0
 11
-24.151621
 21
77.217306
 31
0.0
 12
-49.151621
 22
73.050639
 32
0.0
 13
-49.151621
 23
73.050639
 33
0.0
1001
ACAD
1000
DSTYLE
1002
{
1070
     5
1000

1070
    77
1070
     0
1070
   147
1040
13.0
1002
}
  0
CIRCLE
  5
72
  8
DETAIL
  6
DASHED
 10
0.0
 20
75.0
 30
0.0
 40
16.0
  0
SOLID
  5
74
  8
STELTXT
 10
-330.534413
 20
811.315654
 30
0.0
 11
-305.534413
 21
807.148987
 31
0.0
 12
-330.534413
 22
802.982321
 32
0.0
 13
-330.534413
 23
802.982321
 33
0.0
1001
ACAD
1000
DSTYLE
1002
{
1070
     5
1000

1070
    77
1070
     0
1070
   147
1040
13.0
1002
}
  0
SOLID
  5
7B
  8
STELTXT
 10
-115.970281
 20
512.979693
 30
0.0
 11
-90.970281
 21
517.14636
 31
0.0
 12
-115.970281
 22
521.313027
 32
0.0
 13
-115.970281
 23
521.313027
 33
0.0
1001
ACAD
1000
DSTYLE
1002
{
1070
     5
1000

1070
    77
1070
     0
1070
   147
1040
13.0
1002
}
  0
LINE
  5
7E
  8
DETAIL
 10
-625.0
 20
1382.0
 30
0.0
 11
-676.0
 21
1382.0
 31
0.0
  0
LINE
  5
7F
  8
DETAIL
 10
-463.355802
 20
1446.426302
 30
0.0
 11
-463.355802
 21
1432.0
 31
0.0
  0
TEXT
  5
80
  8
STELTXT
 10
39.871112
 20
1033.894016
 30
0.0
 40
25.0
  1
CENTRE LINE
 50
90.0
  0
TEXT
  5
81
  8
STELTXT
 10
-12.559787
 20
1040.669761
 30
0.0
 40
25.0
  1
FLUE
 50
90.0
  0
POLYLINE
  5
82
  8
DETAIL
 66
     1
 10
0.0
 20
0.0
 30
0.0
 70
     1
  0
VERTEX
  5
1A15
  8
DETAIL
 10
-396.665877
 20
1512.364203
 30
0.0
  0
VERTEX
  5
1A16
  8
DETAIL
 10
-366.323857
 20
1512.364203
 30
0.0
  0
VERTEX
  5
1A17
  8
DETAIL
 10
-366.323857
 20
1489.664904
 30
0.0
  0
VERTEX
  5
1A18
  8
DETAIL
 10
-396.665877
 20
1489.664904
 30
0.0
  0
SEQEND
  5
1A19
  8
DETAIL
  0
POLYLINE
  5
83
  8
DETAIL
 66
     1
 10
0.0
 20
0.0
 30
0.0
 70
     1
  0
VERTEX
  5
1A1A
  8
DETAIL
 10
-396.665877
 20
1482.859113
 30
0.0
  0
VERTEX
  5
1A1B
  8
DETAIL
 10
-366.323857
 20
1482.859113
 30
0.0
  0
VERTEX
  5
1A1C
  8
DETAIL
 10
-366.323857
 20
1460.1598
 30
0.0
  0
VERTEX
  5
1A1D
  8
DETAIL
 10
-396.665877
 20
1460.1598
 30
0.0
  0
SEQEND
  5
1A1E
  8
DETAIL
  0
POLYLINE
  5
84
  8
DETAIL
 66
     1
 10
0.0
 20
0.0
 30
0.0
 70
     1
  0
VERTEX
  5
1A1F
  8
DETAIL
 10
-396.665877
 20
1544.581742
 30
0.0
  0
VERTEX
  5
1A20
  8
DETAIL
 10
-366.323857
 20
1544.581742
 30
0.0
  0
VERTEX
  5
1A21
  8
DETAIL
 10
-366.323857
 20
1521.02611
 30
0.0
  0
VERTEX
  5
1A22
  8
DETAIL
 10
-396.665877
 20
1521.02611
 30
0.0
  0
SEQEND
  5
1A23
  8
DETAIL
  0
POLYLINE
  5
85
  8
DETAIL
 66
     1
 10
0.0
 20
0.0
 30
0.0
 70
     1
  0
VERTEX
  5
1A24
  8
DETAIL
 10
-398.339732
 20
1579.605834
 30
0.0
  0
VERTEX
  5
1A25
  8
DETAIL
 10
-367.997712
 20
1579.605834
 30
0.0
  0
VERTEX
  5
1A26
  8
DETAIL
 10
-367.997712
 20
1552.624952
 30
0.0
  0
VERTEX
  5
1A27
  8
DETAIL
 10
-398.339732
 20
1552.624952
 30
0.0
  0
SEQEND
  5
1A28
  8
DETAIL
  0
LINE
  5
86
  8
DETAIL
 10
-496.261668
 20
1545.169187
 30
0.0
 11
-496.261668
 21
1522.087099
 31
0.0
  0
LINE
  5
87
  8
DETAIL
 10
-496.261668
 20
1545.169187
 30
0.0
 11
-485.480376
 21
1545.169187
 31
0.0
  0
LINE
  5
88
  8
DETAIL
 10
-496.261668
 20
1522.087099
 30
0.0
 11
-485.44633
 21
1522.087099
 31
0.0
  0
LINE
  5
89
  8
DETAIL
 10
-409.911578
 20
1615.0
 30
0.0
 11
-409.911578
 21
1453.426302
 31
0.0
  0
LINE
  5
8A
  8
DETAIL
 10
-294.42243
 20
1615.0
 30
0.0
 11
-294.42243
 21
1453.426302
 31
0.0
  0
LINE
  5
8B
  8
DETAIL
 10
-352.167025
 20
1615.0
 30
0.0
 11
-352.167025
 21
1453.426302
 31
0.0
  0
CIRCLE
  5
8C
  8
DETAIL
 10
-326.565471
 20
1567.196242
 30
0.0
 40
19.193013
  0
POLYLINE
  5
8D
  8
DETAIL
 66
     1
 10
0.0
 20
0.0
 30
0.0
 70
     1
  0
VERTEX
  5
1A29
  8
DETAIL
 10
-347.180266
 20
1481.195858
 30
0.0
  0
VERTEX
  5
1A2A
  8
DETAIL
 10
-298.888164
 20
1481.195858
 30
0.0
  0
VERTEX
  5
1A2B
  8
DETAIL
 10
-298.888164
 20
1460.1598
 30
0.0
  0
VERTEX
  5
1A2C
  8
DETAIL
 10
-347.180266
 20
1460.1598
 30
0.0
  0
SEQEND
  5
1A2D
  8
DETAIL
  0
CIRCLE
  5
8E
  8
DETAIL
 10
-324.891615
 20
1523.267986
 30
0.0
 40
12.99286
  0
LINE
  5
8F
  8
DETAIL
 10
-230.90342
 20
1615.0
 30
0.0
 11
-230.90342
 21
1453.426302
 31
0.0
  0
CIRCLE
  5
90
  8
DETAIL
 10
-262.662956
 20
1538.224173
 30
0.0
 40
21.547581
  0
CIRCLE
  5
91
  8
DETAIL
 10
-262.662956
 20
1485.63401
 30
0.0
 40
21.761966
  0
LINE
  5
92
  8
PLANNING
 10
776.0
 20
1622.0
 30
0.0
 11
776.0
 21
0.0
 31
0.0
  0
LINE
  5
93
  8
DETAIL
 10
676.0
 20
1432.0
 30
0.0
 11
676.0
 21
100.0
 31
0.0
  0
LINE
  5
94
  8
DETAIL
 10
625.0
 20
1382.0
 30
0.0
 11
625.0
 21
100.0
 31
0.0
  0
DIMENSION
  5
96
  8
DIMENSION
  2
*D3
 10
1065.342242
 20
1432.0
 30
0.0
 11
1065.342242
 21
716.0
 31
0.0
 70
   128
 13
625.0
 23
0.0
 33
0.0
 14
676.0
 24
1432.0
 34
0.0
 50
90.0
  0
DIMENSION
  5
A3
  8
DIMENSION
  2
*D0
 10
917.309331
 20
810.0
 30
0.0
 11
891.809331
 21
405.0
 31
0.0
 70
     0
 13
625.625
 23
0.0
 33
0.0
 14
200.0
 24
810.0
 34
0.0
 50
90.0
  0
DIMENSION
  5
B0
  8
DIMENSION
  2
*D4
 10
838.396118
 20
595.0
 30
0.0
 11
838.396118
 21
297.5
 31
0.0
 70
   128
 13
625.0
 23
0.0
 33
0.0
 14
150.0
 24
595.0
 34
0.0
 50
90.0
  0
LINE
  5
BF
  8
DETAIL
 10
625.0
 20
100.0
 30
0.0
 11
676.0
 21
100.0
 31
0.0
  0
LINE
  5
C0
  8
DETAIL
 10
625.0
 20
0.0
 30
0.0
 11
625.0
 21
100.0
 31
0.0
  0
POLYLINE
  5
C6
  8
STELTXT
 66
     1
 10
0.0
 20
0.0
 30
0.0
1001
ACAD
1000
DSTYLE
1002
{
1070
   147
1040
13.0
1070
    77
1070
     0
1002
}
  0
VERTEX
  5
1A2E
  8
STELTXT
 10
-99.526308
 20
1589.695918
 30
0.0
  0
VERTEX
  5
1A2F
  8
STELTXT
 10
785.805688
 20
1735.204651
 30
0.0
  0
SEQEND
  5
1A30
  8
STELTXT
  0
DIMENSION
  5
C7
  8
DIMENSION
  2
*D5
 10
1065.342242
 20
1622.0
 30
0.0
 11
1039.842242
 21
1527.0
 31
0.0
 70
     0
 13
676.0
 23
1432.0
 33
0.0
 14
-81.594187
 24
1622.0
 34
0.0
 50
90.0
  0
LINE
  5
D4
  8
DETAIL
 10
-72.905866
 20
1446.426302
 30
0.0
 11
-72.905866
 21
1432.0
 31
0.0
  0
LINE
  5
D5
  8
DETAIL
 10
625.0
 20
1382.0
 30
0.0
 11
676.0
 21
1382.0
 31
0.0
  0
SOLID
  5
D6
  8
STELTXT
 10
-98.655057
 20
1585.621359
 30
0.0
 11
-144.749639
 21
1576.1753
 31
0.0
 12
-100.397558
 22
1593.770478
 32
0.0
 13
-100.397558
 23
1593.770478
 33
0.0
1001
ACAD
1000
DSTYLE
1002
{
1070
   147
1040
13.0
1070
    77
1070
     0
1002
}
  0
LINE
  5
D7
  8
DETAIL
 10
-40.0
 20
1545.169187
 30
0.0
 11
-50.781292
 21
1545.169187
 31
0.0
  0
LINE
  5
D8
  8
DETAIL
 10
-40.0
 20
1522.087099
 30
0.0
 11
-50.815337
 21
1522.087099
 31
0.0
  0
LINE
  5
D9
  8
DETAIL
 10
-40.0
 20
1545.169187
 30
0.0
 11
-40.0
 21
1522.087099
 31
0.0
  0
TEXT
  5
DA
  8
STELTXT
 10
798.805688
 20
1702.316287
 30
0.0
 40
25.0
  1
PANEL
  0
TEXT
  5
DB
  8
STELTXT
 10
798.805688
 20
1743.982954
 30
0.0
 40
25.0
  1
CONTROL
  0
DIMENSION
  5
BA8
  8
DIMENSION
  2
*D6
 10
733.912493
 20
75.0
 30
0.0
 11
708.412493
 21
37.5
 31
0.0
 70
     0
 13
626.25
 23
0.0
 33
0.0
 14
16.0
 24
75.0
 34
0.0
 50
90.0
  0
DIMENSION
  5
1603
  8
0
  2
*D7
 10
992.514497
 20
0.0
 30
0.0
 11
967.014497
 21
770.0
 31
0.0
 70
     0
 13
117.5
 23
1540.0
 33
0.0
 14
625.0
 24
0.0
 34
0.0
 50
90.0
  0
LINE
  5
161B
  8
DETAIL
 10
-40.0
 20
1540.0
 30
0.0
 11
117.5
 21
1540.0
 31
0.0
  0
LINE
  5
161C
  8
DETAIL
 10
87.5
 20
1432.0
 30
0.0
 11
87.5
 21
1530.0
 31
0.0
  0
LINE
  5
162F
  8
DETAIL
 10
117.5
 20
1530.0
 30
0.0
 11
117.5
 21
1540.0
 31
0.0
  0
LINE
  5
1639
  8
DETAIL
 10
-40.0
 20
1530.0
 30
0.0
 11
117.5
 21
1530.0
 31
0.0
  0
LINE
  5
175F
  8
DETAIL
 10
187.5
 20
782.5
 30
0.0
 11
-187.5
 21
782.5
 31
0.0
  0
LINE
  5
1760
  8
DETAIL
 10
187.5
 20
407.5
 30
0.0
 11
-187.5
 21
407.5
 31
0.0
  0
CIRCLE
  5
1761
  8
DETAIL
 10
0.0
 20
595.0
 30
0.0
 40
150.0
  0
CIRCLE
  5
1763
  8
DETAIL
  6
DASHED
 10
0.0
 20
810.0
 30
0.0
 40
200.0
  0
LINE
  5
1764
  8
DETAIL
 10
-187.5
 20
407.5
 30
0.0
 11
-187.5
 21
782.5
 31
0.0
  0
CIRCLE
  5
1767
  8
DETAIL
 10
-165.0
 20
430.0
 30
0.0
 40
9.0
  0
CIRCLE
  5
1768
  8
DETAIL
 10
-165.0
 20
430.0
 30
0.0
 40
12.0
  0
CIRCLE
  5
176A
  8
DETAIL
 10
-261.400833
 20
809.478676
 30
0.0
 40
36.0
  0
CIRCLE
  5
176B
  8
DETAIL
 10
-261.400833
 20
809.478676
 30
0.0
 40
40.0
  0
CIRCLE
  5
176D
  8
DETAIL
 10
-165.0
 20
760.0
 30
0.0
 40
9.0
  0
CIRCLE
  5
176E
  8
DETAIL
 10
-165.0
 20
760.0
 30
0.0
 40
12.0
  0
LINE
  5
176F
  8
DETAIL
 10
187.5
 20
407.5
 30
0.0
 11
187.5
 21
782.5
 31
0.0
  0
CIRCLE
  5
1775
  8
DETAIL
 10
165.0
 20
430.0
 30
0.0
 40
9.0
  0
CIRCLE
  5
1776
  8
DETAIL
 10
165.0
 20
430.0
 30
0.0
 40
12.0
  0
CIRCLE
  5
1777
  8
DETAIL
 10
165.0
 20
760.0
 30
0.0
 40
9.0
  0
CIRCLE
  5
1778
  8
DETAIL
 10
165.0
 20
760.0
 30
0.0
 40
12.0
  0
ENDSEC
  0
EOF
