  0
SECTION
  2
HEADER
  9
$ACADVER
  1
AC1009
  9
$INSBASE
 10
0.0
 20
0.0
 30
0.0
  9
$EXTMIN
 10
-1102.208794
 20
-3187.425085
 30
0.0
  9
$EXTMAX
 10
1386.980146
 20
3286.020009
 30
0.0
  9
$LIMMIN
 10
0.0
 20
0.0
  9
$LIMMAX
 10
420.0
 20
297.0
  9
$ORTHOMODE
 70
     1
  9
$REGENMODE
 70
     1
  9
$FILLMODE
 70
     1
  9
$QTEXTMODE
 70
     0
  9
$MIRRTEXT
 70
     1
  9
$DRAGMODE
 70
     2
  9
$LTSCALE
 40
1.0
  9
$OSMODE
 70
     0
  9
$ATTMODE
 70
     2
  9
$TEXTSIZE
 40
25.0
  9
$TRACEWID
 40
1.0
  9
$TEXTSTYLE
  7
STANDARD
  9
$CLAYER
  8
0
  9
$CELTYPE
  6
BYLAYER
  9
$CECOLOR
 62
   256
  9
$DIMSCALE
 40
1.0
  9
$DIMASZ
 40
25.0
  9
$DIMEXO
 40
0.625
  9
$DIMDLI
 40
3.75
  9
$DIMRND
 40
0.0
  9
$DIMDLE
 40
0.0
  9
$DIMEXE
 40
1.25
  9
$DIMTP
 40
0.0
  9
$DIMTM
 40
0.0
  9
$DIMTXT
 40
25.0
  9
$DIMCEN
 40
2.5
  9
$DIMTSZ
 40
0.0
  9
$DIMTOL
 70
     0
  9
$DIMLIM
 70
     0
  9
$DIMTIH
 70
     0
  9
$DIMTOH
 70
     0
  9
$DIMSE1
 70
     0
  9
$DIMSE2
 70
     0
  9
$DIMTAD
 70
     1
  9
$DIMZIN
 70
     8
  9
$DIMBLK
  1

  9
$DIMASO
 70
     1
  9
$DIMSHO
 70
     1
  9
$DIMPOST
  1

  9
$DIMAPOST
  1

  9
$DIMALT
 70
     0
  9
$DIMALTD
 70
     3
  9
$DIMALTF
 40
0.03937
  9
$DIMLFAC
 40
1.0
  9
$DIMTOFL
 70
     1
  9
$DIMTVP
 40
0.0
  9
$DIMTIX
 70
     0
  9
$DIMSOXD
 70
     0
  9
$DIMSAH
 70
     0
  9
$DIMBLK1
  1

  9
$DIMBLK2
  1

  9
$DIMSTYLE
  2
ISO-25
  9
$DIMCLRD
 70
     0
  9
$DIMCLRE
 70
     0
  9
$DIMCLRT
 70
     0
  9
$DIMTFAC
 40
1.0
  9
$DIMGAP
 40
13.0
  9
$LUNITS
 70
     2
  9
$LUPREC
 70
     4
  9
$SKETCHINC
 40
1.0
  9
$FILLETRAD
 40
10.0
  9
$AUNITS
 70
     0
  9
$AUPREC
 70
     0
  9
$MENU
  1
.
  9
$ELEVATION
 40
0.0
  9
$PELEVATION
 40
0.0
  9
$THICKNESS
 40
0.0
  9
$LIMCHECK
 70
     0
  9
$BLIPMODE
 70
     0
  9
$CHAMFERA
 40
10.0
  9
$CHAMFERB
 40
10.0
  9
$SKPOLY
 70
     0
  9
$TDCREATE
 40
2452706.626866
  9
$TDUPDATE
 40
2453073.534312
  9
$TDINDWG
 40
0.335731
  9
$TDUSRTIMER
 40
0.335731
  9
$USRTIMER
 70
     1
  9
$ANGBASE
 50
0.0
  9
$ANGDIR
 70
     0
  9
$PDMODE
 70
     0
  9
$PDSIZE
 40
0.0
  9
$PLINEWID
 40
0.0
  9
$COORDS
 70
     1
  9
$SPLFRAME
 70
     0
  9
$SPLINETYPE
 70
     6
  9
$SPLINESEGS
 70
     8
  9
$ATTDIA
 70
     0
  9
$ATTREQ
 70
     1
  9
$HANDLING
 70
 22529
  9
$HANDSEED
  5
859
  9
$SURFTAB1
 70
     6
  9
$SURFTAB2
 70
     6
  9
$SURFTYPE
 70
     6
  9
$SURFU
 70
     6
  9
$SURFV
 70
     6
  9
$UCSNAME
  2

  9
$UCSORG
 10
0.0
 20
0.0
 30
0.0
  9
$UCSXDIR
 10
1.0
 20
0.0
 30
0.0
  9
$UCSYDIR
 10
0.0
 20
1.0
 30
0.0
  9
$PUCSNAME
  2

  9
$PUCSORG
 10
0.0
 20
0.0
 30
0.0
  9
$PUCSXDIR
 10
1.0
 20
0.0
 30
0.0
  9
$PUCSYDIR
 10
0.0
 20
1.0
 30
0.0
  9
$USERI1
 70
     0
  9
$USERI2
 70
     0
  9
$USERI3
 70
     0
  9
$USERI4
 70
     0
  9
$USERI5
 70
     0
  9
$USERR1
 40
0.0
  9
$USERR2
 40
0.0
  9
$USERR3
 40
0.0
  9
$USERR4
 40
0.0
  9
$USERR5
 40
0.0
  9
$WORLDVIEW
 70
     1
  9
$SHADEDGE
 70
     3
  9
$SHADEDIF
 70
    70
  9
$TILEMODE
 70
     1
  9
$MAXACTVP
 70
    48
  9
$PLIMCHECK
 70
     0
  9
$PEXTMIN
 10
1.000000E+020
 20
1.000000E+020
 30
1.000000E+020
  9
$PEXTMAX
 10
-1.000000E+020
 20
-1.000000E+020
 30
-1.000000E+020
  9
$PLIMMIN
 10
0.0
 20
0.0
  9
$PLIMMAX
 10
420.0
 20
297.0
  9
$UNITMODE
 70
     0
  9
$VISRETAIN
 70
     1
  9
$PLINEGEN
 70
     0
  9
$PSLTSCALE
 70
     1
  0
ENDSEC
  0
SECTION
  2
TABLES
  0
TABLE
  2
VPORT
 70
     2
  0
VPORT
  2
*ACTIVE
 70
     0
 10
0.0
 20
0.0
 11
1.0
 21
1.0
 12
142.385676
 22
49.297462
 13
0.0
 23
0.0
 14
10.0
 24
10.0
 15
10.0
 25
10.0
 16
0.0
 26
0.0
 36
1.0
 17
0.0
 27
0.0
 37
0.0
 40
6547.995325
 41
1.825
 42
50.0
 43
0.0
 44
0.0
 50
0.0
 51
0.0
 71
     0
 72
   100
 73
     1
 74
     3
 75
     0
 76
     0
 77
     0
 78
     0
  0
ENDTAB
  0
TABLE
  2
LTYPE
 70
     3
  0
LTYPE
  2
CONTINUOUS
 70
     0
  3
Solid line
 72
    65
 73
     0
 40
0.0
  0
LTYPE
  2
CENTER
 70
     0
  3
____ _ ____ _ ____ _ ____ _ ____ _ ____ _ ____
 72
    65
 73
     4
 40
2.0
 49
1.25
 49
-0.25
 49
0.25
 49
-0.25
  0
LTYPE
  2
DASHED
 70
     0
  3
__ __ __ __ __ __ __ __ __ __ __ __ __ __ __
 72
    65
 73
     2
 40
0.75
 49
0.5
 49
-0.25
  0
ENDTAB
  0
TABLE
  2
LAYER
 70
     9
  0
LAYER
  2
0
 70
     0
 62
     7
  6
CONTINUOUS
  0
LAYER
  2
ORIGIN
 70
     0
 62
     6
  6
CONTINUOUS
  0
LAYER
  2
DETAIL
 70
     0
 62
     2
  6
CONTINUOUS
  0
LAYER
  2
DIMENSION
 70
     0
 62
     7
  6
CONTINUOUS
  0
LAYER
  2
PLANNING
 70
     0
 62
     1
  6
DASHED
  0
LAYER
  2
STELTXT
 70
     0
 62
     4
  6
CONTINUOUS
  0
LAYER
  2
STELATT
 70
     0
 62
     7
  6
CONTINUOUS
  0
LAYER
  2
CENTER
 70
     0
 62
     4
  6
CENTER
  0
LAYER
  2
DEFPOINTS
 70
     0
 62
     7
  6
CONTINUOUS
  0
ENDTAB
  0
TABLE
  2
STYLE
 70
     1
  0
STYLE
  2
STANDARD
 70
     0
 40
0.0
 41
1.0
 50
0.0
 71
     0
 42
25.0
  3
simplex.shx
  4

  0
ENDTAB
  0
TABLE
  2
VIEW
 70
     0
  0
ENDTAB
  0
TABLE
  2
UCS
 70
     0
  0
ENDTAB
  0
TABLE
  2
APPID
 70
     1
  0
APPID
  2
ACAD
 70
     0
  0
ENDTAB
  0
TABLE
  2
DIMSTYLE
 70
     1
  0
DIMSTYLE
  2
ISO-25
 70
     0
  3

  4

  5

  6

  7

 40
1.0
 41
25.0
 42
0.625
 43
3.75
 44
1.25
 45
0.0
 46
0.0
 47
0.0
 48
0.0
140
25.0
141
2.5
142
0.0
143
0.03937
144
1.0
145
0.0
146
1.0
147
13.0
 71
     0
 72
     0
 73
     0
 74
     0
 75
     0
 76
     0
 77
     1
 78
     8
170
     0
171
     3
172
     1
173
     0
174
     0
175
     0
176
     0
177
     0
178
     0
  0
ENDTAB
  0
ENDSEC
  0
SECTION
  2
BLOCKS
  0
BLOCK
  8
0
  2
$MODEL_SPACE
 70
     2
 10
0.0
 20
0.0
 30
0.0
  3
$MODEL_SPACE
  1

  0
ENDBLK
  5
A
  8
0
  0
BLOCK
 67
     1
  8
0
  2
$PAPER_SPACE
 70
     0
 10
0.0
 20
0.0
 30
0.0
  3
$PAPER_SPACE
  1

  0
ENDBLK
  5
10
 67
     1
  8
0
  0
BLOCK
  8
0
  2
*D0
 70
     1
 10
0.0
 20
0.0
 30
0.0
  3
*D0
  1

  0
LINE
  5
5F6
  8
DIMENSION
 62
     0
 10
-676.0
 20
2499.625
 30
0.0
 11
-676.0
 21
2963.939525
 31
0.0
  0
LINE
  5
5F7
  8
DIMENSION
 62
     0
 10
676.0
 20
2499.625
 30
0.0
 11
676.0
 21
2963.939525
 31
0.0
  0
LINE
  5
5F8
  8
DIMENSION
 62
     0
 10
-651.0
 20
2962.689525
 30
0.0
 11
651.0
 21
2962.689525
 31
0.0
  0
SOLID
  5
5F9
  8
DIMENSION
 62
     0
 10
-651.0
 20
2966.856192
 30
0.0
 11
-651.0
 21
2958.522859
 31
0.0
 12
-676.0
 22
2962.689525
 32
0.0
 13
-676.0
 23
2962.689525
 33
0.0
  0
SOLID
  5
5FA
  8
DIMENSION
 62
     0
 10
651.0
 20
2966.856192
 30
0.0
 11
651.0
 21
2958.522859
 31
0.0
 12
676.0
 22
2962.689525
 32
0.0
 13
676.0
 23
2962.689525
 33
0.0
  0
TEXT
  5
5FB
  8
0
 62
     0
 10
-41.979167
 20
2975.689525
 30
0.0
 40
25.0
  1
1352
  0
POINT
  5
5FC
  8
DEFPOINTS
 62
     0
 10
-676.0
 20
2499.0
 30
0.0
  0
POINT
  5
5FD
  8
DEFPOINTS
 62
     0
 10
676.0
 20
2499.0
 30
0.0
  0
POINT
  5
5FE
  8
DEFPOINTS
 62
     0
 10
676.0
 20
2962.689525
 30
0.0
  0
ENDBLK
  5
F2
  8
0
  0
BLOCK
  8
0
  2
*D1
 70
     1
 10
0.0
 20
0.0
 30
0.0
  3
*D1
  1

  0
LINE
  5
5FF
  8
DIMENSION
 62
     0
 10
-676.625
 20
2499.0
 30
0.0
 11
-954.725879
 21
2499.0
 31
0.0
  0
LINE
  5
600
  8
DIMENSION
 62
     0
 10
-63.125
 20
2038.0
 30
0.0
 11
-954.725879
 21
2038.0
 31
0.0
  0
LINE
  5
601
  8
DIMENSION
 62
     0
 10
-953.475879
 20
2474.0
 30
0.0
 11
-953.475879
 21
2063.0
 31
0.0
  0
SOLID
  5
602
  8
DIMENSION
 62
     0
 10
-957.642546
 20
2474.0
 30
0.0
 11
-949.309213
 21
2474.0
 31
0.0
 12
-953.475879
 22
2499.0
 32
0.0
 13
-953.475879
 23
2499.0
 33
0.0
  0
SOLID
  5
603
  8
DIMENSION
 62
     0
 10
-957.642546
 20
2063.0
 30
0.0
 11
-949.309213
 21
2063.0
 31
0.0
 12
-953.475879
 22
2038.0
 32
0.0
 13
-953.475879
 23
2038.0
 33
0.0
  0
TEXT
  5
604
  8
0
 62
     0
 10
-966.475879
 20
2241.714286
 30
0.0
 40
25.0
  1
461
 50
90.0
  0
POINT
  5
605
  8
DEFPOINTS
 62
     0
 10
-676.0
 20
2499.0
 30
0.0
  0
POINT
  5
606
  8
DEFPOINTS
 62
     0
 10
-62.5
 20
2038.0
 30
0.0
  0
POINT
  5
607
  8
DEFPOINTS
 62
     0
 10
-953.475879
 20
2038.0
 30
0.0
  0
ENDBLK
  5
FE
  8
0
  0
BLOCK
  8
0
  2
*D2
 70
     1
 10
0.0
 20
0.0
 30
0.0
  3
*D2
  1

  0
LINE
  5
608
  8
DIMENSION
 62
     0
 10
-40.625
 20
2038.0
 30
0.0
 11
-954.725879
 21
2038.0
 31
0.0
  0
LINE
  5
609
  8
DIMENSION
 62
     0
 10
-75.625
 20
1368.0
 30
0.0
 11
-954.725879
 21
1368.0
 31
0.0
  0
LINE
  5
60A
  8
DIMENSION
 62
     0
 10
-953.475879
 20
2013.0
 30
0.0
 11
-953.475879
 21
1393.0
 31
0.0
  0
SOLID
  5
60B
  8
DIMENSION
 62
     0
 10
-957.642546
 20
2013.0
 30
0.0
 11
-949.309213
 21
2013.0
 31
0.0
 12
-953.475879
 22
2038.0
 32
0.0
 13
-953.475879
 23
2038.0
 33
0.0
  0
SOLID
  5
60C
  8
DIMENSION
 62
     0
 10
-957.642546
 20
1393.0
 30
0.0
 11
-949.309213
 21
1393.0
 31
0.0
 12
-953.475879
 22
1368.0
 32
0.0
 13
-953.475879
 23
1368.0
 33
0.0
  0
TEXT
  5
60D
  8
0
 62
     0
 10
-966.475879
 20
1670.857143
 30
0.0
 40
25.0
  1
670
 50
90.0
  0
POINT
  5
60E
  8
DEFPOINTS
 62
     0
 10
-40.0
 20
2038.0
 30
0.0
  0
POINT
  5
60F
  8
DEFPOINTS
 62
     0
 10
-75.0
 20
1368.0
 30
0.0
  0
POINT
  5
610
  8
DEFPOINTS
 62
     0
 10
-953.475879
 20
1368.0
 30
0.0
  0
ENDBLK
  5
10A
  8
0
  0
BLOCK
  8
0
  2
*D3
 70
     1
 10
0.0
 20
0.0
 30
0.0
  3
*D3
  1

  0
LINE
  5
683
  8
DIMENSION
 62
     0
 10
-201.25
 20
2786.0
 30
0.0
 11
-954.725879
 21
2786.0
 31
0.0
  0
LINE
  5
684
  8
DIMENSION
 62
     0
 10
-676.625
 20
2499.0
 30
0.0
 11
-954.725879
 21
2499.0
 31
0.0
  0
LINE
  5
685
  8
DIMENSION
 62
     0
 10
-953.475879
 20
2761.0
 30
0.0
 11
-953.475879
 21
2524.0
 31
0.0
  0
SOLID
  5
686
  8
DIMENSION
 62
     0
 10
-957.642546
 20
2761.0
 30
0.0
 11
-949.309213
 21
2761.0
 31
0.0
 12
-953.475879
 22
2786.0
 32
0.0
 13
-953.475879
 23
2786.0
 33
0.0
  0
SOLID
  5
687
  8
DIMENSION
 62
     0
 10
-957.642546
 20
2524.0
 30
0.0
 11
-949.309213
 21
2524.0
 31
0.0
 12
-953.475879
 22
2499.0
 32
0.0
 13
-953.475879
 23
2499.0
 33
0.0
  0
TEXT
  5
688
  8
0
 62
     0
 10
-966.475879
 20
2610.357143
 30
0.0
 40
25.0
  1
287
 50
90.0
  0
POINT
  5
689
  8
DEFPOINTS
 62
     0
 10
-200.625
 20
2786.0
 30
0.0
  0
POINT
  5
68A
  8
DEFPOINTS
 62
     0
 10
-676.0
 20
2499.0
 30
0.0
  0
POINT
  5
68B
  8
DEFPOINTS
 62
     0
 10
-953.475879
 20
2499.0
 30
0.0
  0
ENDBLK
  5
116
  8
0
  0
BLOCK
  8
0
  2
*D4
 70
     1
 10
0.0
 20
0.0
 30
0.0
  3
*D4
  1

  0
LINE
  5
61A
  8
0
 62
     0
 10
-625.0
 20
-0.625
 30
0.0
 11
-625.0
 21
-105.707394
 31
0.0
  0
LINE
  5
61B
  8
0
 62
     0
 10
625.0
 20
-0.625
 30
0.0
 11
625.0
 21
-105.707394
 31
0.0
  0
LINE
  5
61C
  8
0
 62
     0
 10
-600.0
 20
-104.457394
 30
0.0
 11
600.0
 21
-104.457394
 31
0.0
  0
SOLID
  5
61D
  8
0
 62
     0
 10
-600.0
 20
-100.290728
 30
0.0
 11
-600.0
 21
-108.624061
 31
0.0
 12
-625.0
 22
-104.457394
 32
0.0
 13
-625.0
 23
-104.457394
 33
0.0
  0
SOLID
  5
61E
  8
0
 62
     0
 10
600.0
 20
-100.290728
 30
0.0
 11
600.0
 21
-108.624061
 31
0.0
 12
625.0
 22
-104.457394
 32
0.0
 13
625.0
 23
-104.457394
 33
0.0
  0
TEXT
  5
61F
  8
0
 62
     0
 10
-41.666667
 20
-91.457394
 30
0.0
 40
25.0
  1
1250
  0
POINT
  5
620
  8
DEFPOINTS
 62
     0
 10
-625.0
 20
0.0
 30
0.0
  0
POINT
  5
621
  8
DEFPOINTS
 62
     0
 10
625.0
 20
0.0
 30
0.0
  0
POINT
  5
622
  8
DEFPOINTS
 62
     0
 10
625.0
 20
-104.457394
 30
0.0
  0
ENDBLK
  5
122
  8
0
  0
BLOCK
  8
0
  2
*D5
 70
     1
 10
0.0
 20
0.0
 30
0.0
  3
*D5
  1

  0
LINE
  5
623
  8
DIMENSION
 62
     0
 10
-676.625
 20
207.0
 30
0.0
 11
-958.660145
 21
207.0
 31
0.0
  0
LINE
  5
624
  8
DIMENSION
 62
     0
 10
-625.625
 20
0.0
 30
0.0
 11
-958.660145
 21
0.0
 31
0.0
  0
LINE
  5
625
  8
DIMENSION
 62
     0
 10
-957.410145
 20
182.0
 30
0.0
 11
-957.410145
 21
25.0
 31
0.0
  0
SOLID
  5
626
  8
DIMENSION
 62
     0
 10
-961.576811
 20
182.0
 30
0.0
 11
-953.243478
 21
182.0
 31
0.0
 12
-957.410145
 22
207.0
 32
0.0
 13
-957.410145
 23
207.0
 33
0.0
  0
SOLID
  5
627
  8
DIMENSION
 62
     0
 10
-961.576811
 20
25.0
 30
0.0
 11
-953.243478
 21
25.0
 31
0.0
 12
-957.410145
 22
0.0
 32
0.0
 13
-957.410145
 23
0.0
 33
0.0
  0
TEXT
  5
628
  8
0
 62
     0
 10
-970.410145
 20
71.357143
 30
0.0
 40
25.0
  1
207
 50
90.0
  0
POINT
  5
629
  8
DEFPOINTS
 62
     0
 10
-676.0
 20
207.0
 30
0.0
  0
POINT
  5
62A
  8
DEFPOINTS
 62
     0
 10
-625.0
 20
0.0
 30
0.0
  0
POINT
  5
62B
  8
DEFPOINTS
 62
     0
 10
-957.410145
 20
0.0
 30
0.0
  0
ENDBLK
  5
12E
  8
0
  0
BLOCK
  8
0
  2
*D6
 70
     1
 10
0.0
 20
0.0
 30
0.0
  3
*D6
  1

  0
LINE
  5
62C
  8
DIMENSION
 62
     0
 10
-75.625
 20
1368.0
 30
0.0
 11
-954.725879
 21
1368.0
 31
0.0
  0
LINE
  5
62D
  8
DIMENSION
 62
     0
 10
-75.625
 20
868.0
 30
0.0
 11
-954.725879
 21
868.0
 31
0.0
  0
LINE
  5
62E
  8
DIMENSION
 62
     0
 10
-953.475879
 20
1343.0
 30
0.0
 11
-953.475879
 21
893.0
 31
0.0
  0
SOLID
  5
62F
  8
DIMENSION
 62
     0
 10
-957.642546
 20
1343.0
 30
0.0
 11
-949.309213
 21
1343.0
 31
0.0
 12
-953.475879
 22
1368.0
 32
0.0
 13
-953.475879
 23
1368.0
 33
0.0
  0
SOLID
  5
630
  8
DIMENSION
 62
     0
 10
-957.642546
 20
893.0
 30
0.0
 11
-949.309213
 21
893.0
 31
0.0
 12
-953.475879
 22
868.0
 32
0.0
 13
-953.475879
 23
868.0
 33
0.0
  0
TEXT
  5
631
  8
0
 62
     0
 10
-966.475879
 20
1085.857143
 30
0.0
 40
25.0
  1
500
 50
90.0
  0
POINT
  5
632
  8
DEFPOINTS
 62
     0
 10
-75.0
 20
1368.0
 30
0.0
  0
POINT
  5
633
  8
DEFPOINTS
 62
     0
 10
-75.0
 20
868.0
 30
0.0
  0
POINT
  5
634
  8
DEFPOINTS
 62
     0
 10
-953.475879
 20
868.0
 30
0.0
  0
ENDBLK
  5
13A
  8
0
  0
BLOCK
  8
0
  2
*D7
 70
     1
 10
0.0
 20
0.0
 30
0.0
  3
*D7
  1

  0
LINE
  5
67A
  8
DIMENSION
 62
     0
 10
-200.625
 20
2786.0
 30
0.0
 11
-1065.36338
 21
2786.0
 31
0.0
  0
LINE
  5
67B
  8
DIMENSION
 62
     0
 10
-625.625
 20
0.0
 30
0.0
 11
-1065.36338
 21
0.0
 31
0.0
  0
LINE
  5
67C
  8
DIMENSION
 62
     0
 10
-1064.11338
 20
2761.0
 30
0.0
 11
-1064.11338
 21
25.0
 31
0.0
  0
SOLID
  5
67D
  8
DIMENSION
 62
     0
 10
-1068.280046
 20
2761.0
 30
0.0
 11
-1059.946713
 21
2761.0
 31
0.0
 12
-1064.11338
 22
2786.0
 32
0.0
 13
-1064.11338
 23
2786.0
 33
0.0
  0
SOLID
  5
67E
  8
DIMENSION
 62
     0
 10
-1068.280046
 20
25.0
 30
0.0
 11
-1059.946713
 21
25.0
 31
0.0
 12
-1064.11338
 22
0.0
 32
0.0
 13
-1064.11338
 23
0.0
 33
0.0
  0
TEXT
  5
67F
  8
0
 62
     0
 10
-1077.11338
 20
1123.547619
 30
0.0
 40
25.0
  1
2786
 50
90.0
  0
POINT
  5
680
  8
DEFPOINTS
 62
     0
 10
-200.0
 20
2786.0
 30
0.0
  0
POINT
  5
681
  8
DEFPOINTS
 62
     0
 10
-625.0
 20
0.0
 30
0.0
  0
POINT
  5
682
  8
DEFPOINTS
 62
     0
 10
-1064.11338
 20
0.0
 30
0.0
  0
ENDBLK
  5
146
  8
0
  0
ENDSEC
  0
SECTION
  2
ENTITIES
  0
LINE
  5
26
  8
PLANNING
 10
776.0
 20
3286.0
 30
0.0
 11
776.0
 21
-2786.0
 31
0.0
  0
LINE
  5
29
  8
PLANNING
 10
-876.0
 20
3286.0
 30
0.0
 11
-876.0
 21
-2786.0
 31
0.0
  0
DIMENSION
  5
2A
  8
DIMENSION
  2
*D7
 10
-1064.11338
 20
0.0
 30
0.0
 11
-1064.11338
 21
1167.0
 31
0.0
 70
   128
 13
-200.0
 23
2786.0
 33
0.0
 14
-625.0
 24
0.0
 34
0.0
 50
90.0
  0
DIMENSION
  5
3B
  8
DIMENSION
  2
*D6
 10
-953.475879
 20
868.0
 30
0.0
 11
-978.975879
 21
1118.0
 31
0.0
 70
     0
 13
-75.0
 23
1368.0
 33
0.0
 14
-75.0
 24
868.0
 34
0.0
 50
90.0
  0
LINE
  5
4A
  8
DETAIL
 10
-676.0
 20
2499.0
 30
0.0
 11
-676.0
 21
207.0
 31
0.0
  0
LINE
  5
4C
  8
DETAIL
 10
676.0
 20
2499.0
 30
0.0
 11
676.0
 21
207.0
 31
0.0
  0
LINE
  5
4D
  8
CENTER
  6
CENTER
 10
0.0
 20
2786.0
 30
0.0
 11
0.0
 21
0.0
 31
0.0
  0
LINE
  5
50
  8
STELTXT
 10
159.76462
 20
-4.982537
 30
0.0
 11
864.444267
 21
-4.982537
 31
0.0
1001
ACAD
1000
R13OBJECT
1002
{
1005
0
1002
}
  0
SOLID
  5
52
  8
STELTXT
  6
CONTINUOUS
 10
-159.76462
 20
-9.14919
 30
0.0
 11
-134.76462
 21
-4.982523
 31
0.0
 12
-159.76462
 22
-0.815857
 32
0.0
 13
-159.76462
 23
-0.815857
 33
0.0
210
-0.0
220
0.0
230
-1.0
  0
LINE
  5
53
  8
PLANNING
 10
776.0
 20
-2786.0
 30
0.0
 11
-876.0
 21
-2786.0
 31
0.0
  0
DIMENSION
  5
54
  8
DIMENSION
  2
*D5
 10
-957.410145
 20
0.0
 30
0.0
 11
-982.910145
 21
103.5
 31
0.0
 70
     0
 13
-676.0
 23
207.0
 33
0.0
 14
-625.0
 24
0.0
 34
0.0
 50
90.0
  0
ATTDEF
  5
61
  8
STELATT
 10
-233.333333
 20
-3056.986484
 30
0.0
 40
40.0
  1
IDEAL
 72
     4
 11
0.0
 21
-3036.986484
 31
0.0
  3

  2
MANUFACTURER
 70
     2
  0
ATTDEF
  5
63
  8
STELATT
 10
-68.571429
 20
-3121.986484
 30
0.0
 40
40.0
  1
VANGUARD L
 72
     4
 11
0.0
 21
-3101.986484
 31
0.0
  3

  2
TYPE
 70
     2
  0
ATTDEF
  5
64
  8
STELATT
 10
-93.333333
 20
-3186.986484
 30
0.0
 40
40.0
  1
1320
 72
     4
 11
0.0
 21
-3166.986484
 31
0.0
  3

  2
MODEL
 70
     2
  0
DIMENSION
  5
65
  8
0
  2
*D4
 10
625.0
 20
-104.457394
 30
0.0
 11
0.0
 21
-78.957394
 31
0.0
 70
     0
 13
-625.0
 23
0.0
 33
0.0
 14
625.0
 24
0.0
 34
0.0
  0
LINE
  5
74
  8
DETAIL
 10
625.0
 20
0.0
 30
0.0
 11
-625.0
 21
0.0
 31
0.0
  0
LINE
  5
75
  8
DETAIL
 10
625.0
 20
132.0
 30
0.0
 11
-625.0
 21
132.0
 31
0.0
  0
LINE
  5
76
  8
DETAIL
 10
-676.0
 20
207.0
 30
0.0
 11
676.0
 21
207.0
 31
0.0
  0
POLYLINE
  5
77
  8
STELTXT
 66
     1
 10
0.0
 20
0.0
 30
0.0
 70
   128
1001
ACAD
1000
R13OBJECT
1002
{
1005
0
1002
}
  0
VERTEX
  5
83B
  8
STELTXT
 10
100.830531
 20
880.5929
 30
0.0
  0
VERTEX
  5
83C
  8
STELTXT
 10
723.179598
 20
978.457045
 30
0.0
  0
VERTEX
  5
83D
  8
STELTXT
 10
867.004667
 20
978.457045
 30
0.0
  0
SEQEND
  5
83E
  8
STELTXT
  0
LINE
  5
78
  8
DETAIL
 10
-463.268482
 20
427.570778
 30
0.0
 11
-71.733178
 21
427.570778
 31
0.0
  0
POLYLINE
  5
79
  8
DETAIL
 66
     1
 10
0.0
 20
0.0
 30
0.0
 70
     1
  0
VERTEX
  5
83F
  8
DETAIL
 10
-463.268482
 20
241.99708
 30
0.0
 42
-0.414214
  0
VERTEX
  5
840
  8
DETAIL
 10
-478.268482
 20
256.99708
 30
0.0
 42
-0.092505
  0
VERTEX
  5
841
  8
DETAIL
 10
-478.268482
 20
402.570778
 30
0.0
 42
-0.414214
  0
VERTEX
  5
842
  8
DETAIL
 10
-463.268482
 20
417.570778
 30
0.0
  0
VERTEX
  5
843
  8
DETAIL
 10
-71.733178
 20
417.570778
 30
0.0
 42
-0.414214
  0
VERTEX
  5
844
  8
DETAIL
 10
-56.733178
 20
402.570778
 30
0.0
 42
-0.092505
  0
VERTEX
  5
845
  8
DETAIL
 10
-56.733178
 20
256.99708
 30
0.0
 42
-0.414214
  0
VERTEX
  5
846
  8
DETAIL
 10
-71.733178
 20
241.99708
 30
0.0
  0
SEQEND
  5
847
  8
DETAIL
  0
ARC
  5
7A
  8
DETAIL
 10
-88.215668
 20
329.783929
 30
0.0
 40
406.785992
 50
169.544172
 51
190.455828
  0
LINE
  5
7B
  8
DETAIL
 10
-625.0
 20
132.0
 30
0.0
 11
-625.0
 21
0.0
 31
0.0
  0
LINE
  5
7C
  8
DETAIL
 10
-625.0
 20
132.0
 30
0.0
 11
-625.0
 21
207.0
 31
0.0
  0
LINE
  5
7D
  8
DETAIL
 10
-463.268482
 20
241.99708
 30
0.0
 11
-483.268482
 21
241.99708
 31
0.0
  0
ARC
  5
7E
  8
DETAIL
 10
-463.268482
 20
256.99708
 30
0.0
 40
25.0
 50
182.374172
 51
216.869898
  0
ARC
  5
7F
  8
DETAIL
 10
-463.268482
 20
402.570778
 30
0.0
 40
25.0
 50
90.0
 51
177.625828
  0
ARC
  5
80
  8
DETAIL
 10
-446.785992
 20
329.783929
 30
0.0
 40
406.785992
 50
349.544172
 51
10.455828
  0
LINE
  5
81
  8
DETAIL
 10
125.0
 20
-5.0
 30
0.0
 11
-125.0
 21
-5.0
 31
0.0
  0
POLYLINE
  5
82
  8
ORIGIN
 66
     1
 10
0.0
 20
0.0
 30
0.0
 70
     1
  0
VERTEX
  5
848
  8
ORIGIN
 10
37.5
 20
-37.5
 30
0.0
  0
VERTEX
  5
849
  8
ORIGIN
 10
-37.5
 20
37.5
 30
0.0
  0
VERTEX
  5
84A
  8
ORIGIN
 10
-37.5
 20
-37.5
 30
0.0
  0
VERTEX
  5
84B
  8
ORIGIN
 10
37.5
 20
37.5
 30
0.0
  0
SEQEND
  5
84C
  8
ORIGIN
  0
LINE
  5
84
  8
DETAIL
 10
-125.0
 20
-5.0
 30
0.0
 11
-125.0
 21
0.0
 31
0.0
  0
LINE
  5
85
  8
DETAIL
 10
125.0
 20
-5.0
 30
0.0
 11
125.0
 21
0.0
 31
0.0
  0
LINE
  5
86
  8
DETAIL
 10
-71.733178
 20
241.99708
 30
0.0
 11
-51.733178
 21
241.99708
 31
0.0
  0
ARC
  5
87
  8
DETAIL
 10
-71.733178
 20
256.99708
 30
0.0
 40
25.0
 50
323.130102
 51
357.625828
  0
CIRCLE
  5
88
  8
DETAIL
 10
0.0
 20
868.0
 30
0.0
 40
75.0
  0
SOLID
  5
89
  8
STELTXT
  6
CONTINUOUS
 10
-101.766803
 20
876.532788
 30
0.0
 11
-76.469862
 21
874.975267
 31
0.0
 12
-99.894259
 22
884.653011
 32
0.0
 13
-99.894259
 23
884.653011
 33
0.0
210
0.0
220
0.0
230
-1.0
  0
ARC
  5
8A
  8
DETAIL
 10
-71.733178
 20
402.570778
 30
0.0
 40
25.0
 50
2.374172
 51
90.0
  0
TEXT
  5
8B
  8
STELTXT
 10
877.392268
 20
925.026403
 30
0.0
 40
25.0
  1
CONNECTION
  0
TEXT
  5
8C
  8
STELTXT
 10
884.622128
 20
-18.02139
 30
0.0
 40
25.0
  1
BURNER CONNECTION
  0
TEXT
  5
8D
  8
STELTXT
 10
877.392268
 20
967.883546
 30
0.0
 40
25.0
  1
150mm RETURN
  0
LINE
  5
8E
  8
DETAIL
 10
625.0
 20
132.0
 30
0.0
 11
625.0
 21
0.0
 31
0.0
  0
LINE
  5
8F
  8
DETAIL
 10
625.0
 20
132.0
 30
0.0
 11
625.0
 21
207.0
 31
0.0
  0
DIMENSION
  5
90
  8
DIMENSION
  2
*D3
 10
-953.475879
 20
2499.0
 30
0.0
 11
-978.975879
 21
2642.5
 31
0.0
 70
     0
 13
-200.625
 23
2786.0
 33
0.0
 14
-676.0
 24
2499.0
 34
0.0
 50
90.0
  0
DIMENSION
  5
9F
  8
DIMENSION
  2
*D2
 10
-953.475879
 20
1368.0
 30
0.0
 11
-978.975879
 21
1703.0
 31
0.0
 70
     0
 13
-40.0
 23
2038.0
 33
0.0
 14
-75.0
 24
1368.0
 34
0.0
 50
90.0
  0
DIMENSION
  5
AE
  8
DIMENSION
  2
*D1
 10
-953.475879
 20
2038.0
 30
0.0
 11
-978.975879
 21
2268.5
 31
0.0
 70
     0
 13
-676.0
 23
2499.0
 33
0.0
 14
-62.5
 24
2038.0
 34
0.0
 50
90.0
  0
LINE
  5
BD
  8
PLANNING
 10
-876.0
 20
3286.0
 30
0.0
 11
776.0
 21
3286.0
 31
0.0
  0
POLYLINE
  5
BE
  8
STELTXT
 66
     1
 10
0.0
 20
0.0
 30
0.0
 70
   128
1001
ACAD
1000
R13OBJECT
1002
{
1005
0
1002
}
  0
VERTEX
  5
84D
  8
STELTXT
 10
227.626217
 20
2787.669573
 30
0.0
  0
VERTEX
  5
84E
  8
STELTXT
 10
816.228586
 20
2897.817984
 30
0.0
  0
VERTEX
  5
84F
  8
STELTXT
 10
864.444267
 20
2897.817984
 30
0.0
  0
SEQEND
  5
850
  8
STELTXT
  0
DIMENSION
  5
BF
  8
DIMENSION
  2
*D0
 10
676.0
 20
2962.689525
 30
0.0
 11
-0.3125
 21
2962.689525
 31
0.0
 70
   128
 13
-676.0
 23
2499.0
 33
0.0
 14
676.0
 24
2499.0
 34
0.0
  0
LINE
  5
CE
  8
DETAIL
 10
-676.0
 20
2499.0
 30
0.0
 11
676.0
 21
2499.0
 31
0.0
  0
LINE
  5
CF
  8
DETAIL
 10
-566.315
 20
2736.0
 30
0.0
 11
566.315
 21
2736.0
 31
0.0
  0
POLYLINE
  5
D0
  8
STELTXT
 66
     1
 10
0.0
 20
0.0
 30
0.0
 70
   128
1001
ACAD
1000
R13OBJECT
1002
{
1005
0
1002
}
  0
VERTEX
  5
851
  8
STELTXT
 10
99.966788
 20
1381.776367
 30
0.0
  0
VERTEX
  5
852
  8
STELTXT
 10
721.720661
 20
1478.471679
 30
0.0
  0
VERTEX
  5
853
  8
STELTXT
 10
865.54573
 20
1478.471679
 30
0.0
  0
SEQEND
  5
854
  8
STELTXT
  0
POLYLINE
  5
D1
  8
STELTXT
 66
     1
 10
0.0
 20
0.0
 30
0.0
 70
   128
1001
ACAD
1000
R13OBJECT
1002
{
1005
0
1002
}
  0
VERTEX
  5
855
  8
STELTXT
 10
64.771859
 20
2066.471594
 30
0.0
  0
VERTEX
  5
856
  8
STELTXT
 10
723.179598
 20
2169.826409
 30
0.0
  0
VERTEX
  5
857
  8
STELTXT
 10
867.004667
 20
2169.826409
 30
0.0
  0
SEQEND
  5
858
  8
STELTXT
  0
LINE
  5
D2
  8
DETAIL
 10
-200.0
 20
2786.0
 30
0.0
 11
200.0
 21
2786.0
 31
0.0
  0
LINE
  5
D3
  8
DETAIL
 10
-566.315
 20
2736.0
 30
0.0
 11
-566.315
 21
2499.0
 31
0.0
  0
LINE
  5
D4
  8
DETAIL
 10
-200.0
 20
2786.0
 30
0.0
 11
-200.0
 21
2736.0
 31
0.0
  0
CIRCLE
  5
D5
  8
DETAIL
 10
0.0
 20
1368.0
 30
0.0
 40
75.0
  0
SOLID
  5
D6
  8
STELTXT
  6
CONTINUOUS
 10
-100.90306
 20
1377.716256
 30
0.0
 11
-75.606119
 21
1376.158735
 31
0.0
 12
-99.030516
 22
1385.836479
 32
0.0
 13
-99.030516
 23
1385.836479
 33
0.0
210
0.0
220
0.0
230
-1.0
  0
CIRCLE
  5
D7
  8
DETAIL
 10
0.0
 20
2038.0
 30
0.0
 40
40.0
  0
SOLID
  5
D8
  8
STELTXT
  6
CONTINUOUS
 10
-65.708131
 20
2062.411483
 30
0.0
 11
-40.41119
 21
2060.853962
 31
0.0
 12
-63.835587
 22
2070.531706
 32
0.0
 13
-63.835587
 23
2070.531706
 33
0.0
210
0.0
220
0.0
230
-1.0
  0
SOLID
  5
D9
  8
STELTXT
  6
CONTINUOUS
 10
-228.286937
 20
2783.555626
 30
0.0
 11
-202.942535
 21
2783.705256
 31
0.0
 12
-226.965498
 22
2791.78352
 32
0.0
 13
-226.965498
 23
2791.78352
 33
0.0
210
0.0
220
0.0
230
-1.0
  0
LINE
  5
DA
  8
DETAIL
 10
200.0
 20
2786.0
 30
0.0
 11
200.0
 21
2736.0
 31
0.0
  0
TEXT
  5
DB
  8
STELTXT
 10
877.083811
 20
2885.224425
 30
0.0
 40
25.0
  1
400mm FLUE OUTLET
  0
TEXT
  5
DC
  8
STELTXT
 10
875.933331
 20
1425.041037
 30
0.0
 40
25.0
  1
CONNECTION
  0
TEXT
  5
DD
  8
STELTXT
 10
875.933331
 20
1467.89818
 30
0.0
 40
25.0
  1
150mm FLOW
  0
TEXT
  5
DE
  8
STELTXT
 10
876.170287
 20
2115.343541
 30
0.0
 40
25.0
  1
& EXPANSION CONNECTION
  0
TEXT
  5
DF
  8
STELTXT
 10
876.170287
 20
2158.200684
 30
0.0
 40
25.0
  1
80mm SAFETY VALVE
  0
LINE
  5
E0
  8
DETAIL
 10
566.315
 20
2736.0
 30
0.0
 11
566.315
 21
2499.0
 31
0.0
  0
ENDSEC
  0
EOF
