  0
SECTION
  2
HEADER
  9
$ACADVER
  1
AC1009
  9
$INSBASE
 10
0.0
 20
0.0
 30
0.0
  9
$EXTMIN
 10
-1145.889147
 20
-401.126014
 30
0.0
  9
$EXTMAX
 10
1124.647505
 20
1885.883828
 30
0.0
  9
$LIMMIN
 10
0.0
 20
0.0
  9
$LIMMAX
 10
420.0
 20
297.0
  9
$ORTHOMODE
 70
     1
  9
$REGENMODE
 70
     1
  9
$FILLMODE
 70
     1
  9
$QTEXTMODE
 70
     0
  9
$MIRRTEXT
 70
     1
  9
$DRAGMODE
 70
     2
  9
$LTSCALE
 40
1.0
  9
$OSMODE
 70
     0
  9
$ATTMODE
 70
     2
  9
$TEXTSIZE
 40
25.0
  9
$TRACEWID
 40
1.0
  9
$TEXTSTYLE
  7
STANDARD
  9
$CLAYER
  8
0
  9
$CELTYPE
  6
BYLAYER
  9
$CECOLOR
 62
   256
  9
$DIMSCALE
 40
1.0
  9
$DIMASZ
 40
25.0
  9
$DIMEXO
 40
0.625
  9
$DIMDLI
 40
3.75
  9
$DIMRND
 40
0.0
  9
$DIMDLE
 40
0.0
  9
$DIMEXE
 40
1.25
  9
$DIMTP
 40
0.0
  9
$DIMTM
 40
0.0
  9
$DIMTXT
 40
25.0
  9
$DIMCEN
 40
2.5
  9
$DIMTSZ
 40
0.0
  9
$DIMTOL
 70
     0
  9
$DIMLIM
 70
     0
  9
$DIMTIH
 70
     0
  9
$DIMTOH
 70
     0
  9
$DIMSE1
 70
     0
  9
$DIMSE2
 70
     0
  9
$DIMTAD
 70
     1
  9
$DIMZIN
 70
     8
  9
$DIMBLK
  1

  9
$DIMASO
 70
     1
  9
$DIMSHO
 70
     1
  9
$DIMPOST
  1

  9
$DIMAPOST
  1

  9
$DIMALT
 70
     0
  9
$DIMALTD
 70
     3
  9
$DIMALTF
 40
0.03937
  9
$DIMLFAC
 40
1.0
  9
$DIMTOFL
 70
     1
  9
$DIMTVP
 40
0.0
  9
$DIMTIX
 70
     0
  9
$DIMSOXD
 70
     0
  9
$DIMSAH
 70
     0
  9
$DIMBLK1
  1

  9
$DIMBLK2
  1

  9
$DIMSTYLE
  2
ISO-25
  9
$DIMCLRD
 70
     0
  9
$DIMCLRE
 70
     0
  9
$DIMCLRT
 70
     0
  9
$DIMTFAC
 40
1.0
  9
$DIMGAP
 40
13.0
  9
$LUNITS
 70
     2
  9
$LUPREC
 70
     4
  9
$SKETCHINC
 40
1.0
  9
$FILLETRAD
 40
10.0
  9
$AUNITS
 70
     0
  9
$AUPREC
 70
     0
  9
$MENU
  1
.
  9
$ELEVATION
 40
0.0
  9
$PELEVATION
 40
0.0
  9
$THICKNESS
 40
0.0
  9
$LIMCHECK
 70
     0
  9
$BLIPMODE
 70
     0
  9
$CHAMFERA
 40
10.0
  9
$CHAMFERB
 40
10.0
  9
$SKPOLY
 70
     0
  9
$TDCREATE
 40
2452706.626866
  9
$TDUPDATE
 40
2453073.534371
  9
$TDINDWG
 40
0.334613
  9
$TDUSRTIMER
 40
0.334613
  9
$USRTIMER
 70
     1
  9
$ANGBASE
 50
0.0
  9
$ANGDIR
 70
     0
  9
$PDMODE
 70
     0
  9
$PDSIZE
 40
0.0
  9
$PLINEWID
 40
0.0
  9
$COORDS
 70
     1
  9
$SPLFRAME
 70
     0
  9
$SPLINETYPE
 70
     6
  9
$SPLINESEGS
 70
     8
  9
$ATTDIA
 70
     0
  9
$ATTREQ
 70
     1
  9
$HANDLING
 70
 22529
  9
$HANDSEED
  5
1C2C
  9
$SURFTAB1
 70
     6
  9
$SURFTAB2
 70
     6
  9
$SURFTYPE
 70
     6
  9
$SURFU
 70
     6
  9
$SURFV
 70
     6
  9
$UCSNAME
  2

  9
$UCSORG
 10
0.0
 20
0.0
 30
0.0
  9
$UCSXDIR
 10
1.0
 20
0.0
 30
0.0
  9
$UCSYDIR
 10
0.0
 20
1.0
 30
0.0
  9
$PUCSNAME
  2

  9
$PUCSORG
 10
0.0
 20
0.0
 30
0.0
  9
$PUCSXDIR
 10
1.0
 20
0.0
 30
0.0
  9
$PUCSYDIR
 10
0.0
 20
1.0
 30
0.0
  9
$USERI1
 70
     0
  9
$USERI2
 70
     0
  9
$USERI3
 70
     0
  9
$USERI4
 70
     0
  9
$USERI5
 70
     0
  9
$USERR1
 40
0.0
  9
$USERR2
 40
0.0
  9
$USERR3
 40
0.0
  9
$USERR4
 40
0.0
  9
$USERR5
 40
0.0
  9
$WORLDVIEW
 70
     1
  9
$SHADEDGE
 70
     3
  9
$SHADEDIF
 70
    70
  9
$TILEMODE
 70
     1
  9
$MAXACTVP
 70
    48
  9
$PLIMCHECK
 70
     0
  9
$PEXTMIN
 10
1.000000E+020
 20
1.000000E+020
 30
1.000000E+020
  9
$PEXTMAX
 10
-1.000000E+020
 20
-1.000000E+020
 30
-1.000000E+020
  9
$PLIMMIN
 10
0.0
 20
0.0
  9
$PLIMMAX
 10
420.0
 20
297.0
  9
$UNITMODE
 70
     0
  9
$VISRETAIN
 70
     1
  9
$PLINEGEN
 70
     0
  9
$PSLTSCALE
 70
     1
  0
ENDSEC
  0
SECTION
  2
TABLES
  0
TABLE
  2
VPORT
 70
     2
  0
VPORT
  2
*ACTIVE
 70
     0
 10
0.0
 20
0.0
 11
1.0
 21
1.0
 12
-10.620821
 22
742.378907
 13
0.0
 23
0.0
 14
10.0
 24
10.0
 15
10.0
 25
10.0
 16
0.0
 26
0.0
 36
1.0
 17
0.0
 27
0.0
 37
0.0
 40
2313.347768
 41
1.825
 42
50.0
 43
0.0
 44
0.0
 50
0.0
 51
0.0
 71
     0
 72
   100
 73
     1
 74
     3
 75
     0
 76
     0
 77
     0
 78
     0
  0
ENDTAB
  0
TABLE
  2
LTYPE
 70
     3
  0
LTYPE
  2
CONTINUOUS
 70
     0
  3
Solid line
 72
    65
 73
     0
 40
0.0
  0
LTYPE
  2
CENTER
 70
     0
  3
____ _ ____ _ ____ _ ____ _ ____ _ ____ _ ____
 72
    65
 73
     4
 40
2.0
 49
1.25
 49
-0.25
 49
0.25
 49
-0.25
  0
LTYPE
  2
DASHED
 70
     0
  3
__ __ __ __ __ __ __ __ __ __ __ __ __ __ __
 72
    65
 73
     2
 40
0.75
 49
0.5
 49
-0.25
  0
ENDTAB
  0
TABLE
  2
LAYER
 70
     9
  0
LAYER
  2
0
 70
     0
 62
     7
  6
CONTINUOUS
  0
LAYER
  2
ORIGIN
 70
     0
 62
     6
  6
CONTINUOUS
  0
LAYER
  2
DETAIL
 70
     0
 62
     2
  6
CONTINUOUS
  0
LAYER
  2
DIMENSION
 70
     0
 62
     7
  6
CONTINUOUS
  0
LAYER
  2
PLANNING
 70
     0
 62
     1
  6
DASHED
  0
LAYER
  2
STELTXT
 70
     0
 62
     4
  6
CONTINUOUS
  0
LAYER
  2
STELATT
 70
     0
 62
     7
  6
CONTINUOUS
  0
LAYER
  2
CENTER
 70
     0
 62
     4
  6
CENTER
  0
LAYER
  2
DEFPOINTS
 70
     0
 62
     7
  6
CONTINUOUS
  0
ENDTAB
  0
TABLE
  2
STYLE
 70
     1
  0
STYLE
  2
STANDARD
 70
     0
 40
0.0
 41
1.0
 50
0.0
 71
     0
 42
25.0
  3
simplex.shx
  4

  0
ENDTAB
  0
TABLE
  2
VIEW
 70
     0
  0
ENDTAB
  0
TABLE
  2
UCS
 70
     0
  0
ENDTAB
  0
TABLE
  2
APPID
 70
     1
  0
APPID
  2
ACAD
 70
     0
  0
ENDTAB
  0
TABLE
  2
DIMSTYLE
 70
     1
  0
DIMSTYLE
  2
ISO-25
 70
     0
  3

  4

  5

  6

  7

 40
1.0
 41
25.0
 42
0.625
 43
3.75
 44
1.25
 45
0.0
 46
0.0
 47
0.0
 48
0.0
140
25.0
141
2.5
142
0.0
143
0.03937
144
1.0
145
0.0
146
1.0
147
13.0
 71
     0
 72
     0
 73
     0
 74
     0
 75
     0
 76
     0
 77
     1
 78
     8
170
     0
171
     3
172
     1
173
     0
174
     0
175
     0
176
     0
177
     0
178
     0
  0
ENDTAB
  0
ENDSEC
  0
SECTION
  2
BLOCKS
  0
BLOCK
  8
0
  2
$MODEL_SPACE
 70
     2
 10
0.0
 20
0.0
 30
0.0
  3
$MODEL_SPACE
  1

  0
ENDBLK
  5
A
  8
0
  0
BLOCK
 67
     1
  8
0
  2
$PAPER_SPACE
 70
     0
 10
0.0
 20
0.0
 30
0.0
  3
$PAPER_SPACE
  1

  0
ENDBLK
  5
10
 67
     1
  8
0
  0
BLOCK
  8
0
  2
*D0
 70
     1
 10
0.0
 20
0.0
 30
0.0
  3
*D0
  1

  0
LINE
  5
18F8
  8
DIMENSION
 62
     0
 10
681.25
 20
0.0
 30
0.0
 11
973.559331
 21
0.0
 31
0.0
  0
LINE
  5
18F9
  8
DIMENSION
 62
     0
 10
225.625
 20
880.0
 30
0.0
 11
973.559331
 21
880.0
 31
0.0
  0
LINE
  5
18FA
  8
DIMENSION
 62
     0
 10
972.309331
 20
25.0
 30
0.0
 11
972.309331
 21
855.0
 31
0.0
  0
SOLID
  5
18FB
  8
DIMENSION
 62
     0
 10
968.142664
 20
25.0
 30
0.0
 11
976.475997
 21
25.0
 31
0.0
 12
972.309331
 22
0.0
 32
0.0
 13
972.309331
 23
0.0
 33
0.0
  0
SOLID
  5
18FC
  8
DIMENSION
 62
     0
 10
968.142664
 20
855.0
 30
0.0
 11
976.475997
 21
855.0
 31
0.0
 12
972.309331
 22
880.0
 32
0.0
 13
972.309331
 23
880.0
 33
0.0
  0
TEXT
  5
18FD
  8
0
 62
     0
 10
959.309331
 20
407.857143
 30
0.0
 40
25.0
  1
880
 50
90.0
  0
POINT
  5
18FE
  8
DEFPOINTS
 62
     0
 10
680.625
 20
0.0
 30
0.0
  0
POINT
  5
18FF
  8
DEFPOINTS
 62
     0
 10
225.0
 20
880.0
 30
0.0
  0
POINT
  5
1900
  8
DEFPOINTS
 62
     0
 10
972.309331
 20
880.0
 30
0.0
  0
ENDBLK
  5
ED
  8
0
  0
BLOCK
  8
0
  2
*D1
 70
     1
 10
0.0
 20
0.0
 30
0.0
  3
*D1
  1

  0
LINE
  5
17CD
  8
DIMENSION
 62
     0
 10
-680.0
 20
-0.625
 30
0.0
 11
-680.0
 21
-104.392602
 31
0.0
  0
LINE
  5
17CE
  8
DIMENSION
 62
     0
 10
680.0
 20
-0.625
 30
0.0
 11
680.0
 21
-104.392602
 31
0.0
  0
LINE
  5
17CF
  8
DIMENSION
 62
     0
 10
-655.0
 20
-103.142602
 30
0.0
 11
655.0
 21
-103.142602
 31
0.0
  0
SOLID
  5
17D0
  8
DIMENSION
 62
     0
 10
-655.0
 20
-98.975935
 30
0.0
 11
-655.0
 21
-107.309269
 31
0.0
 12
-680.0
 22
-103.142602
 32
0.0
 13
-680.0
 23
-103.142602
 33
0.0
  0
SOLID
  5
17D1
  8
DIMENSION
 62
     0
 10
655.0
 20
-98.975935
 30
0.0
 11
655.0
 21
-107.309269
 31
0.0
 12
680.0
 22
-103.142602
 32
0.0
 13
680.0
 23
-103.142602
 33
0.0
  0
TEXT
  5
17D2
  8
0
 62
     0
 10
-41.666667
 20
-90.142602
 30
0.0
 40
25.0
  1
1360
  0
POINT
  5
17D3
  8
DEFPOINTS
 62
     0
 10
-680.0
 20
0.0
 30
0.0
  0
POINT
  5
17D4
  8
DEFPOINTS
 62
     0
 10
680.0
 20
0.0
 30
0.0
  0
POINT
  5
17D5
  8
DEFPOINTS
 62
     0
 10
680.0
 20
-103.142602
 30
0.0
  0
ENDBLK
  5
4A5
  8
0
  0
BLOCK
  8
0
  2
*D2
 70
     1
 10
0.0
 20
0.0
 30
0.0
  3
*D2
  1

  0
LINE
  5
1803
  8
DIMENSION
 62
     0
 10
-731.0
 20
1542.625
 30
0.0
 11
-731.0
 21
1848.994227
 31
0.0
  0
LINE
  5
1804
  8
DIMENSION
 62
     0
 10
731.0
 20
1542.625
 30
0.0
 11
731.0
 21
1848.994227
 31
0.0
  0
LINE
  5
1805
  8
DIMENSION
 62
     0
 10
-706.0
 20
1847.744227
 30
0.0
 11
706.0
 21
1847.744227
 31
0.0
  0
SOLID
  5
1806
  8
DIMENSION
 62
     0
 10
-706.0
 20
1851.910893
 30
0.0
 11
-706.0
 21
1843.57756
 31
0.0
 12
-731.0
 22
1847.744227
 32
0.0
 13
-731.0
 23
1847.744227
 33
0.0
  0
SOLID
  5
1807
  8
DIMENSION
 62
     0
 10
706.0
 20
1851.910893
 30
0.0
 11
706.0
 21
1843.57756
 31
0.0
 12
731.0
 22
1847.744227
 32
0.0
 13
731.0
 23
1847.744227
 33
0.0
  0
TEXT
  5
1808
  8
0
 62
     0
 10
-41.354167
 20
1860.744227
 30
0.0
 40
25.0
  1
1462
  0
POINT
  5
1809
  8
DEFPOINTS
 62
     0
 10
-731.0
 20
1542.0
 30
0.0
  0
POINT
  5
180A
  8
DEFPOINTS
 62
     0
 10
731.0
 20
1542.0
 30
0.0
  0
POINT
  5
180B
  8
DEFPOINTS
 62
     0
 10
731.0
 20
1847.744227
 30
0.0
  0
ENDBLK
  5
4B1
  8
0
  0
BLOCK
  8
0
  2
*D3
 70
     1
 10
0.0
 20
0.0
 30
0.0
  3
*D3
  1

  0
LINE
  5
181E
  8
DIMENSION
 62
     0
 10
680.625
 20
0.0
 30
0.0
 11
1121.592242
 21
0.0
 31
0.0
  0
LINE
  5
181F
  8
DIMENSION
 62
     0
 10
731.625
 20
1542.0
 30
0.0
 11
1121.592242
 21
1542.0
 31
0.0
  0
LINE
  5
1820
  8
DIMENSION
 62
     0
 10
1120.342242
 20
25.0
 30
0.0
 11
1120.342242
 21
1517.0
 31
0.0
  0
SOLID
  5
1821
  8
DIMENSION
 62
     0
 10
1116.175576
 20
25.0
 30
0.0
 11
1124.508909
 21
25.0
 31
0.0
 12
1120.342242
 22
0.0
 32
0.0
 13
1120.342242
 23
0.0
 33
0.0
  0
SOLID
  5
1822
  8
DIMENSION
 62
     0
 10
1116.175576
 20
1517.0
 30
0.0
 11
1124.508909
 21
1517.0
 31
0.0
 12
1120.342242
 22
1542.0
 32
0.0
 13
1120.342242
 23
1542.0
 33
0.0
  0
TEXT
  5
1823
  8
0
 62
     0
 10
1107.342242
 20
784.333333
 30
0.0
 40
25.0
  1
1542
 50
90.0
  0
POINT
  5
1824
  8
DEFPOINTS
 62
     0
 10
680.0
 20
0.0
 30
0.0
  0
POINT
  5
1825
  8
DEFPOINTS
 62
     0
 10
731.0
 20
1542.0
 30
0.0
  0
POINT
  5
1826
  8
DEFPOINTS
 62
     0
 10
1120.342242
 20
1542.0
 30
0.0
  0
ENDBLK
  5
4C6
  8
0
  0
BLOCK
  8
0
  2
*D4
 70
     1
 10
0.0
 20
0.0
 30
0.0
  3
*D4
  1

  0
LINE
  5
190A
  8
DIMENSION
 62
     0
 10
680.625
 20
0.0
 30
0.0
 11
894.646118
 21
0.0
 31
0.0
  0
LINE
  5
190B
  8
DIMENSION
 62
     0
 10
150.625
 20
640.0
 30
0.0
 11
894.646118
 21
640.0
 31
0.0
  0
LINE
  5
190C
  8
DIMENSION
 62
     0
 10
893.396118
 20
25.0
 30
0.0
 11
893.396118
 21
615.0
 31
0.0
  0
SOLID
  5
190D
  8
DIMENSION
 62
     0
 10
889.229451
 20
25.0
 30
0.0
 11
897.562784
 21
25.0
 31
0.0
 12
893.396118
 22
0.0
 32
0.0
 13
893.396118
 23
0.0
 33
0.0
  0
SOLID
  5
190E
  8
DIMENSION
 62
     0
 10
889.229451
 20
615.0
 30
0.0
 11
897.562784
 21
615.0
 31
0.0
 12
893.396118
 22
640.0
 32
0.0
 13
893.396118
 23
640.0
 33
0.0
  0
TEXT
  5
190F
  8
0
 62
     0
 10
880.396118
 20
265.357143
 30
0.0
 40
25.0
  1
640
 50
90.0
  0
POINT
  5
1910
  8
DEFPOINTS
 62
     0
 10
680.0
 20
0.0
 30
0.0
  0
POINT
  5
1911
  8
DEFPOINTS
 62
     0
 10
150.0
 20
640.0
 30
0.0
  0
POINT
  5
1912
  8
DEFPOINTS
 62
     0
 10
893.396118
 20
640.0
 30
0.0
  0
ENDBLK
  5
4D2
  8
0
  0
BLOCK
  8
0
  2
*D5
 70
     1
 10
0.0
 20
0.0
 30
0.0
  3
*D5
  1

  0
LINE
  5
180C
  8
DIMENSION
 62
     0
 10
731.625
 20
1542.0
 30
0.0
 11
1121.592242
 21
1542.0
 31
0.0
  0
LINE
  5
180D
  8
DIMENSION
 62
     0
 10
-80.969187
 20
1732.0
 30
0.0
 11
1121.592242
 21
1732.0
 31
0.0
  0
LINE
  5
180E
  8
DIMENSION
 62
     0
 10
1120.342242
 20
1567.0
 30
0.0
 11
1120.342242
 21
1707.0
 31
0.0
  0
SOLID
  5
180F
  8
DIMENSION
 62
     0
 10
1116.175576
 20
1567.0
 30
0.0
 11
1124.508909
 21
1567.0
 31
0.0
 12
1120.342242
 22
1542.0
 32
0.0
 13
1120.342242
 23
1542.0
 33
0.0
  0
SOLID
  5
1810
  8
DIMENSION
 62
     0
 10
1116.175576
 20
1707.0
 30
0.0
 11
1124.508909
 21
1707.0
 31
0.0
 12
1120.342242
 22
1732.0
 32
0.0
 13
1120.342242
 23
1732.0
 33
0.0
  0
TEXT
  5
1811
  8
0
 62
     0
 10
1107.342242
 20
1607.238095
 30
0.0
 40
25.0
  1
190
 50
90.0
  0
POINT
  5
1812
  8
DEFPOINTS
 62
     0
 10
731.0
 20
1542.0
 30
0.0
  0
POINT
  5
1813
  8
DEFPOINTS
 62
     0
 10
-81.594187
 20
1732.0
 30
0.0
  0
POINT
  5
1814
  8
DEFPOINTS
 62
     0
 10
1120.342242
 20
1732.0
 30
0.0
  0
ENDBLK
  5
4DE
  8
0
  0
BLOCK
  8
0
  2
*D6
 70
     1
 10
0.0
 20
0.0
 30
0.0
  3
*D6
  1

  0
LINE
  5
17B9
  8
DIMENSION
 62
     0
 10
681.875
 20
0.0
 30
0.0
 11
790.162493
 21
0.0
 31
0.0
  0
LINE
  5
17BA
  8
DIMENSION
 62
     0
 10
16.625
 20
75.0
 30
0.0
 11
790.162493
 21
75.0
 31
0.0
  0
LINE
  5
17BB
  8
DIMENSION
 62
     0
 10
788.912493
 20
-25.0
 30
0.0
 11
788.912493
 21
-50.0
 31
0.0
  0
LINE
  5
17BC
  8
DIMENSION
 62
     0
 10
788.912493
 20
100.0
 30
0.0
 11
788.912493
 21
125.0
 31
0.0
  0
LINE
  5
17BD
  8
DIMENSION
 62
     0
 10
788.912493
 20
0.0
 30
0.0
 11
788.912493
 21
75.0
 31
0.0
  0
SOLID
  5
17BE
  8
DIMENSION
 62
     0
 10
784.745826
 20
-25.0
 30
0.0
 11
793.079159
 21
-25.0
 31
0.0
 12
788.912493
 22
0.0
 32
0.0
 13
788.912493
 23
0.0
 33
0.0
  0
SOLID
  5
17BF
  8
DIMENSION
 62
     0
 10
784.745826
 20
100.0
 30
0.0
 11
793.079159
 21
100.0
 31
0.0
 12
788.912493
 22
75.0
 32
0.0
 13
788.912493
 23
75.0
 33
0.0
  0
TEXT
  5
17C0
  8
0
 62
     0
 10
775.912493
 20
17.261905
 30
0.0
 40
25.0
  1
75
 50
90.0
  0
POINT
  5
17C1
  8
DEFPOINTS
 62
     0
 10
681.25
 20
0.0
 30
0.0
  0
POINT
  5
17C2
  8
DEFPOINTS
 62
     0
 10
16.0
 20
75.0
 30
0.0
  0
POINT
  5
17C3
  8
DEFPOINTS
 62
     0
 10
788.912493
 20
75.0
 30
0.0
  0
ENDBLK
  5
BB4
  8
0
  0
BLOCK
  8
0
  2
*D7
 70
     1
 10
0.0
 20
0.0
 30
0.0
  3
*D7
  1

  0
LINE
  5
1901
  8
0
 62
     0
 10
118.125
 20
1650.0
 30
0.0
 11
1048.764497
 21
1650.0
 31
0.0
  0
LINE
  5
1902
  8
0
 62
     0
 10
680.625
 20
0.0
 30
0.0
 11
1048.764497
 21
0.0
 31
0.0
  0
LINE
  5
1903
  8
0
 62
     0
 10
1047.514497
 20
1625.0
 30
0.0
 11
1047.514497
 21
25.0
 31
0.0
  0
SOLID
  5
1904
  8
0
 62
     0
 10
1043.347831
 20
1625.0
 30
0.0
 11
1051.681164
 21
1625.0
 31
0.0
 12
1047.514497
 22
1650.0
 32
0.0
 13
1047.514497
 23
1650.0
 33
0.0
  0
SOLID
  5
1905
  8
0
 62
     0
 10
1043.347831
 20
25.0
 30
0.0
 11
1051.681164
 21
25.0
 31
0.0
 12
1047.514497
 22
0.0
 32
0.0
 13
1047.514497
 23
0.0
 33
0.0
  0
TEXT
  5
1906
  8
0
 62
     0
 10
1034.514497
 20
783.333333
 30
0.0
 40
25.0
  1
1650
 50
90.0
  0
POINT
  5
1907
  8
DEFPOINTS
 62
     0
 10
117.5
 20
1650.0
 30
0.0
  0
POINT
  5
1908
  8
DEFPOINTS
 62
     0
 10
680.0
 20
0.0
 30
0.0
  0
POINT
  5
1909
  8
DEFPOINTS
 62
     0
 10
1047.514497
 20
0.0
 30
0.0
  0
ENDBLK
  5
160F
  8
0
  0
ENDSEC
  0
SECTION
  2
ENTITIES
  0
POLYLINE
  5
26
  8
DETAIL
 66
     1
 10
0.0
 20
0.0
 30
0.0
 70
     1
  0
VERTEX
  5
1BEB
  8
DETAIL
 10
-216.467297
 20
1639.770543
 30
0.0
  0
VERTEX
  5
1BEC
  8
DETAIL
 10
-77.880362
 20
1639.770543
 30
0.0
  0
VERTEX
  5
1BED
  8
DETAIL
 10
-77.880362
 20
1573.409549
 30
0.0
  0
VERTEX
  5
1BEE
  8
DETAIL
 10
-216.467297
 20
1573.409549
 30
0.0
  0
SEQEND
  5
1BEF
  8
DETAIL
  0
LINE
  5
28
  8
CENTER
  6
CENTER
 10
225.0
 20
880.0
 30
0.0
 11
-225.0
 21
880.0
 31
0.0
  0
CIRCLE
  5
2C
  8
DETAIL
  6
DASHED
 10
0.0
 20
880.0
 30
0.0
 40
225.0
  0
ATTDEF
  5
2F
  8
STELATT
 10
-93.333333
 20
-400.986484
 30
0.0
 40
40.0
  1
1850
 72
     4
 11
0.0
 21
-380.986484
 31
0.0
  3

  2
MODEL
 70
     2
  0
ATTDEF
  5
33
  8
STELATT
 10
-233.333333
 20
-270.986484
 30
0.0
 40
40.0
  1
IDEAL
 72
     4
 11
0.0
 21
-250.986484
 31
0.0
  3

  2
MANUFACTURER
 70
     2
  0
POLYLINE
  5
34
  8
DETAIL
 66
     1
 10
0.0
 20
0.0
 30
0.0
 70
     1
  0
VERTEX
  5
1BF0
  8
DETAIL
 10
-463.898486
 20
1563.426302
 30
0.0
 42
-0.434513
  0
VERTEX
  5
1BF1
  8
DETAIL
 10
-471.879558
 20
1571.976304
 30
0.0
 42
-0.093472
  0
VERTEX
  5
1BF2
  8
DETAIL
 10
-471.879558
 20
1716.449998
 30
0.0
 42
-0.434513
  0
VERTEX
  5
1BF3
  8
DETAIL
 10
-463.898486
 20
1725.0
 30
0.0
  0
VERTEX
  5
1BF4
  8
DETAIL
 10
-72.363181
 20
1725.0
 30
0.0
 42
-0.434513
  0
VERTEX
  5
1BF5
  8
DETAIL
 10
-64.38211
 20
1716.449998
 30
0.0
 42
-0.093472
  0
VERTEX
  5
1BF6
  8
DETAIL
 10
-64.38211
 20
1571.976304
 30
0.0
 42
-0.434513
  0
VERTEX
  5
1BF7
  8
DETAIL
 10
-72.363181
 20
1563.426302
 30
0.0
  0
SEQEND
  5
1BF8
  8
DETAIL
  0
POLYLINE
  5
35
  8
DETAIL
 66
     1
 10
0.0
 20
0.0
 30
0.0
 70
     1
  0
VERTEX
  5
1BF9
  8
DETAIL
 10
-463.898486
 20
1556.426302
 30
0.0
 42
-0.414214
  0
VERTEX
  5
1BFA
  8
DETAIL
 10
-478.898486
 20
1571.426302
 30
0.0
 42
-0.092505
  0
VERTEX
  5
1BFB
  8
DETAIL
 10
-478.898486
 20
1717.0
 30
0.0
 42
-0.414214
  0
VERTEX
  5
1BFC
  8
DETAIL
 10
-463.898486
 20
1732.0
 30
0.0
  0
VERTEX
  5
1BFD
  8
DETAIL
 10
-72.363181
 20
1732.0
 30
0.0
 42
-0.414214
  0
VERTEX
  5
1BFE
  8
DETAIL
 10
-57.363181
 20
1717.0
 30
0.0
 42
-0.092505
  0
VERTEX
  5
1BFF
  8
DETAIL
 10
-57.363181
 20
1571.426302
 30
0.0
 42
-0.414214
  0
VERTEX
  5
1C00
  8
DETAIL
 10
-72.363181
 20
1556.426302
 30
0.0
  0
SEQEND
  5
1C01
  8
DETAIL
  0
DIMENSION
  5
36
  8
DIMENSION
  2
*D2
 10
731.0
 20
1847.744227
 30
0.0
 11
0.3125
 21
1847.744227
 31
0.0
 70
   128
 13
-731.0
 23
1542.0
 33
0.0
 14
731.0
 24
1542.0
 34
0.0
  0
LINE
  5
47
  8
DETAIL
 10
-731.0
 20
1542.0
 30
0.0
 11
731.0
 21
1542.0
 31
0.0
  0
LINE
  5
48
  8
DETAIL
 10
-680.0
 20
1467.0
 30
0.0
 11
680.0
 21
1467.0
 31
0.0
  0
LINE
  5
49
  8
PLANNING
 10
831.0
 20
1732.0
 30
0.0
 11
-931.0
 21
1732.0
 31
0.0
  0
LINE
  5
4C
  8
DETAIL
 10
680.0
 20
0.0
 30
0.0
 11
-680.0
 21
0.0
 31
0.0
  0
DIMENSION
  5
4D
  8
DIMENSION
  2
*D1
 10
680.0
 20
-103.142602
 30
0.0
 11
0.0
 21
-103.142602
 31
0.0
 70
   128
 13
-680.0
 23
0.0
 33
0.0
 14
680.0
 24
0.0
 34
0.0
  0
LINE
  5
5C
  8
DETAIL
 10
680.0
 20
100.0
 30
0.0
 11
-680.0
 21
100.0
 31
0.0
  0
LINE
  5
5D
  8
PLANNING
 10
-931.0
 20
0.0
 30
0.0
 11
831.0
 21
0.0
 31
0.0
  0
LINE
  5
5E
  8
CENTER
  6
CENTER
 10
0.0
 20
0.0
 30
0.0
 11
0.0
 21
1650.0
 31
0.0
  0
LINE
  5
5F
  8
DETAIL
 10
-731.0
 20
1542.0
 30
0.0
 11
-731.0
 21
100.0
 31
0.0
  0
LINE
  5
60
  8
DETAIL
 10
-680.0
 20
1492.0
 30
0.0
 11
-680.0
 21
100.0
 31
0.0
  0
LINE
  5
62
  8
PLANNING
 10
-931.0
 20
1732.0
 30
0.0
 11
-931.0
 21
0.0
 31
0.0
  0
TEXT
  5
63
  8
STELTXT
 10
-1145.750622
 20
528.996306
 30
0.0
 40
25.0
  1
WITH GASKET
  0
TEXT
  5
65
  8
STELTXT
 10
-1145.750622
 20
570.662972
 30
0.0
 40
25.0
  1
BURNER DOOR
  0
TEXT
  5
66
  8
STELTXT
 10
-1140.229397
 20
824.263096
 30
0.0
 40
25.0
  1
WINDOW
  0
TEXT
  5
67
  8
STELTXT
 10
-1140.229397
 20
867.084281
 30
0.0
 40
25.0
  1
FLAME INSPECTION
  0
POLYLINE
  5
68
  8
STELTXT
 66
     1
 10
0.0
 20
0.0
 30
0.0
1001
ACAD
1000
DSTYLE
1002
{
1070
     5
1000

1070
    77
1070
     0
1070
   147
1040
13.0
1002
}
  0
VERTEX
  5
1C02
  8
STELTXT
 10
-49.151621
 20
77.217306
 30
0.0
  0
VERTEX
  5
1C03
  8
STELTXT
 10
-1023.455617
 20
77.217306
 30
0.0
  0
SEQEND
  5
1C04
  8
STELTXT
  0
TEXT
  5
69
  8
STELTXT
 10
-1140.229397
 20
64.717306
 30
0.0
 40
25.0
  1
DRAIN
  0
ATTDEF
  5
6A
  8
STELATT
 10
-68.571429
 20
-335.986484
 30
0.0
 40
40.0
  1
VANGUARD L
 72
     4
 11
0.0
 21
-315.986484
 31
0.0
  3

  2
TYPE
 70
     2
  0
POLYLINE
  5
6B
  8
STELTXT
 66
     1
 10
0.0
 20
0.0
 30
0.0
1001
ACAD
1000
DSTYLE
1002
{
1070
     5
1000

1070
    77
1070
     0
1070
   147
1040
13.0
1002
}
  0
VERTEX
  5
1C05
  8
STELTXT
 10
-326.131004
 20
879.584281
 30
0.0
  0
VERTEX
  5
1C06
  8
STELTXT
 10
-778.637735
 20
879.584281
 30
0.0
  0
SEQEND
  5
1C07
  8
STELTXT
  0
POLYLINE
  5
6C
  8
STELTXT
 66
     1
 10
0.0
 20
0.0
 30
0.0
1001
ACAD
1000
DSTYLE
1002
{
1070
   147
1040
13.0
1070
    77
1070
     0
1002
}
  0
VERTEX
  5
1C08
  8
STELTXT
 10
-115.970281
 20
562.14636
 30
0.0
  0
VERTEX
  5
1C09
  8
STELTXT
 10
-859.049793
 20
561.975493
 30
0.0
  0
SEQEND
  5
1C0A
  8
STELTXT
  0
LINE
  5
6D
  8
DETAIL
 10
-731.0
 20
100.0
 30
0.0
 11
-680.0
 21
100.0
 31
0.0
  0
LINE
  5
6E
  8
DETAIL
 10
-680.0
 20
100.0
 30
0.0
 11
-680.0
 21
0.0
 31
0.0
  0
POLYLINE
  5
6F
  8
ORIGIN
 66
     1
 10
0.0
 20
0.0
 30
0.0
 70
     1
  0
VERTEX
  5
1C0B
  8
ORIGIN
 10
37.5
 20
-37.5
 30
0.0
  0
VERTEX
  5
1C0C
  8
ORIGIN
 10
-37.5
 20
37.5
 30
0.0
  0
VERTEX
  5
1C0D
  8
ORIGIN
 10
-37.5
 20
-37.5
 30
0.0
  0
VERTEX
  5
1C0E
  8
ORIGIN
 10
37.5
 20
37.5
 30
0.0
  0
SEQEND
  5
1C0F
  8
ORIGIN
  0
SOLID
  5
71
  8
STELTXT
 10
-49.151621
 20
81.383973
 30
0.0
 11
-24.151621
 21
77.217306
 31
0.0
 12
-49.151621
 22
73.050639
 32
0.0
 13
-49.151621
 23
73.050639
 33
0.0
1001
ACAD
1000
DSTYLE
1002
{
1070
     5
1000

1070
    77
1070
     0
1070
   147
1040
13.0
1002
}
  0
CIRCLE
  5
72
  8
DETAIL
  6
DASHED
 10
0.0
 20
75.0
 30
0.0
 40
16.0
  0
SOLID
  5
74
  8
STELTXT
 10
-326.131004
 20
883.750947
 30
0.0
 11
-301.131004
 21
879.584281
 31
0.0
 12
-326.131004
 22
875.417614
 32
0.0
 13
-326.131004
 23
875.417614
 33
0.0
1001
ACAD
1000
DSTYLE
1002
{
1070
     5
1000

1070
    77
1070
     0
1070
   147
1040
13.0
1002
}
  0
SOLID
  5
7B
  8
STELTXT
 10
-115.970281
 20
557.979693
 30
0.0
 11
-90.970281
 21
562.14636
 31
0.0
 12
-115.970281
 22
566.313027
 32
0.0
 13
-115.970281
 23
566.313027
 33
0.0
1001
ACAD
1000
DSTYLE
1002
{
1070
     5
1000

1070
    77
1070
     0
1070
   147
1040
13.0
1002
}
  0
LINE
  5
7E
  8
DETAIL
 10
-680.0
 20
1492.0
 30
0.0
 11
-731.0
 21
1492.0
 31
0.0
  0
LINE
  5
7F
  8
DETAIL
 10
-463.355802
 20
1556.426302
 30
0.0
 11
-463.355802
 21
1542.0
 31
0.0
  0
TEXT
  5
80
  8
STELTXT
 10
39.871112
 20
1131.754935
 30
0.0
 40
25.0
  1
CENTRE LINE
 50
90.0
  0
TEXT
  5
81
  8
STELTXT
 10
-12.559787
 20
1138.53068
 30
0.0
 40
25.0
  1
FLUE
 50
90.0
  0
POLYLINE
  5
82
  8
DETAIL
 66
     1
 10
0.0
 20
0.0
 30
0.0
 70
     1
  0
VERTEX
  5
1C10
  8
DETAIL
 10
-396.665877
 20
1622.364203
 30
0.0
  0
VERTEX
  5
1C11
  8
DETAIL
 10
-366.323857
 20
1622.364203
 30
0.0
  0
VERTEX
  5
1C12
  8
DETAIL
 10
-366.323857
 20
1599.664904
 30
0.0
  0
VERTEX
  5
1C13
  8
DETAIL
 10
-396.665877
 20
1599.664904
 30
0.0
  0
SEQEND
  5
1C14
  8
DETAIL
  0
POLYLINE
  5
83
  8
DETAIL
 66
     1
 10
0.0
 20
0.0
 30
0.0
 70
     1
  0
VERTEX
  5
1C15
  8
DETAIL
 10
-396.665877
 20
1592.859113
 30
0.0
  0
VERTEX
  5
1C16
  8
DETAIL
 10
-366.323857
 20
1592.859113
 30
0.0
  0
VERTEX
  5
1C17
  8
DETAIL
 10
-366.323857
 20
1570.1598
 30
0.0
  0
VERTEX
  5
1C18
  8
DETAIL
 10
-396.665877
 20
1570.1598
 30
0.0
  0
SEQEND
  5
1C19
  8
DETAIL
  0
POLYLINE
  5
84
  8
DETAIL
 66
     1
 10
0.0
 20
0.0
 30
0.0
 70
     1
  0
VERTEX
  5
1C1A
  8
DETAIL
 10
-396.665877
 20
1654.581742
 30
0.0
  0
VERTEX
  5
1C1B
  8
DETAIL
 10
-366.323857
 20
1654.581742
 30
0.0
  0
VERTEX
  5
1C1C
  8
DETAIL
 10
-366.323857
 20
1631.02611
 30
0.0
  0
VERTEX
  5
1C1D
  8
DETAIL
 10
-396.665877
 20
1631.02611
 30
0.0
  0
SEQEND
  5
1C1E
  8
DETAIL
  0
POLYLINE
  5
85
  8
DETAIL
 66
     1
 10
0.0
 20
0.0
 30
0.0
 70
     1
  0
VERTEX
  5
1C1F
  8
DETAIL
 10
-398.339732
 20
1689.605834
 30
0.0
  0
VERTEX
  5
1C20
  8
DETAIL
 10
-367.997712
 20
1689.605834
 30
0.0
  0
VERTEX
  5
1C21
  8
DETAIL
 10
-367.997712
 20
1662.624952
 30
0.0
  0
VERTEX
  5
1C22
  8
DETAIL
 10
-398.339732
 20
1662.624952
 30
0.0
  0
SEQEND
  5
1C23
  8
DETAIL
  0
LINE
  5
86
  8
DETAIL
 10
-496.261668
 20
1655.169187
 30
0.0
 11
-496.261668
 21
1632.087099
 31
0.0
  0
LINE
  5
87
  8
DETAIL
 10
-496.261668
 20
1655.169187
 30
0.0
 11
-485.480376
 21
1655.169187
 31
0.0
  0
LINE
  5
88
  8
DETAIL
 10
-496.261668
 20
1632.087099
 30
0.0
 11
-485.44633
 21
1632.087099
 31
0.0
  0
LINE
  5
89
  8
DETAIL
 10
-409.911578
 20
1725.0
 30
0.0
 11
-409.911578
 21
1563.426302
 31
0.0
  0
LINE
  5
8A
  8
DETAIL
 10
-294.42243
 20
1725.0
 30
0.0
 11
-294.42243
 21
1563.426302
 31
0.0
  0
LINE
  5
8B
  8
DETAIL
 10
-352.167025
 20
1725.0
 30
0.0
 11
-352.167025
 21
1563.426302
 31
0.0
  0
CIRCLE
  5
8C
  8
DETAIL
 10
-326.565471
 20
1677.196242
 30
0.0
 40
19.193013
  0
POLYLINE
  5
8D
  8
DETAIL
 66
     1
 10
0.0
 20
0.0
 30
0.0
 70
     1
  0
VERTEX
  5
1C24
  8
DETAIL
 10
-347.180266
 20
1591.195858
 30
0.0
  0
VERTEX
  5
1C25
  8
DETAIL
 10
-298.888164
 20
1591.195858
 30
0.0
  0
VERTEX
  5
1C26
  8
DETAIL
 10
-298.888164
 20
1570.1598
 30
0.0
  0
VERTEX
  5
1C27
  8
DETAIL
 10
-347.180266
 20
1570.1598
 30
0.0
  0
SEQEND
  5
1C28
  8
DETAIL
  0
CIRCLE
  5
8E
  8
DETAIL
 10
-324.891615
 20
1633.267986
 30
0.0
 40
12.99286
  0
LINE
  5
8F
  8
DETAIL
 10
-230.90342
 20
1725.0
 30
0.0
 11
-230.90342
 21
1563.426302
 31
0.0
  0
CIRCLE
  5
90
  8
DETAIL
 10
-262.662956
 20
1648.224173
 30
0.0
 40
21.547581
  0
CIRCLE
  5
91
  8
DETAIL
 10
-262.662956
 20
1595.63401
 30
0.0
 40
21.761966
  0
LINE
  5
92
  8
PLANNING
 10
831.0
 20
1732.0
 30
0.0
 11
831.0
 21
0.0
 31
0.0
  0
LINE
  5
93
  8
DETAIL
 10
731.0
 20
1542.0
 30
0.0
 11
731.0
 21
100.0
 31
0.0
  0
LINE
  5
94
  8
DETAIL
 10
680.0
 20
1492.0
 30
0.0
 11
680.0
 21
100.0
 31
0.0
  0
DIMENSION
  5
96
  8
DIMENSION
  2
*D3
 10
1120.342242
 20
1542.0
 30
0.0
 11
1120.342242
 21
826.0
 31
0.0
 70
   128
 13
680.0
 23
0.0
 33
0.0
 14
731.0
 24
1542.0
 34
0.0
 50
90.0
  0
DIMENSION
  5
A3
  8
DIMENSION
  2
*D0
 10
972.309331
 20
880.0
 30
0.0
 11
946.809331
 21
440.0
 31
0.0
 70
     0
 13
680.625
 23
0.0
 33
0.0
 14
225.0
 24
880.0
 34
0.0
 50
90.0
  0
DIMENSION
  5
B0
  8
DIMENSION
  2
*D4
 10
893.396118
 20
640.0
 30
0.0
 11
893.396118
 21
297.5
 31
0.0
 70
   128
 13
680.0
 23
0.0
 33
0.0
 14
150.0
 24
640.0
 34
0.0
 50
90.0
  0
LINE
  5
BF
  8
DETAIL
 10
680.0
 20
100.0
 30
0.0
 11
731.0
 21
100.0
 31
0.0
  0
LINE
  5
C0
  8
DETAIL
 10
680.0
 20
0.0
 30
0.0
 11
680.0
 21
100.0
 31
0.0
  0
POLYLINE
  5
C6
  8
STELTXT
 66
     1
 10
0.0
 20
0.0
 30
0.0
1001
ACAD
1000
DSTYLE
1002
{
1070
   147
1040
13.0
1070
    77
1070
     0
1002
}
  0
VERTEX
  5
1C29
  8
STELTXT
 10
-99.526308
 20
1699.695918
 30
0.0
  0
VERTEX
  5
1C2A
  8
STELTXT
 10
840.805688
 20
1845.204651
 30
0.0
  0
SEQEND
  5
1C2B
  8
STELTXT
  0
DIMENSION
  5
C7
  8
DIMENSION
  2
*D5
 10
1120.342242
 20
1732.0
 30
0.0
 11
1094.842242
 21
1637.0
 31
0.0
 70
     0
 13
731.0
 23
1542.0
 33
0.0
 14
-81.594187
 24
1732.0
 34
0.0
 50
90.0
  0
LINE
  5
D4
  8
DETAIL
 10
-72.905866
 20
1556.426302
 30
0.0
 11
-72.905866
 21
1542.0
 31
0.0
  0
LINE
  5
D5
  8
DETAIL
 10
680.0
 20
1492.0
 30
0.0
 11
731.0
 21
1492.0
 31
0.0
  0
SOLID
  5
D6
  8
STELTXT
 10
-98.655057
 20
1695.621359
 30
0.0
 11
-144.749639
 21
1686.1753
 31
0.0
 12
-100.397558
 22
1703.770478
 32
0.0
 13
-100.397558
 23
1703.770478
 33
0.0
1001
ACAD
1000
DSTYLE
1002
{
1070
   147
1040
13.0
1070
    77
1070
     0
1002
}
  0
LINE
  5
D7
  8
DETAIL
 10
-40.0
 20
1655.169187
 30
0.0
 11
-50.781292
 21
1655.169187
 31
0.0
  0
LINE
  5
D8
  8
DETAIL
 10
-40.0
 20
1632.087099
 30
0.0
 11
-50.815337
 21
1632.087099
 31
0.0
  0
LINE
  5
D9
  8
DETAIL
 10
-40.0
 20
1655.169187
 30
0.0
 11
-40.0
 21
1632.087099
 31
0.0
  0
TEXT
  5
DA
  8
STELTXT
 10
853.805688
 20
1812.316287
 30
0.0
 40
25.0
  1
PANEL
  0
TEXT
  5
DB
  8
STELTXT
 10
853.805688
 20
1853.982954
 30
0.0
 40
25.0
  1
CONTROL
  0
DIMENSION
  5
BA8
  8
DIMENSION
  2
*D6
 10
788.912493
 20
75.0
 30
0.0
 11
763.412493
 21
37.5
 31
0.0
 70
     0
 13
681.25
 23
0.0
 33
0.0
 14
16.0
 24
75.0
 34
0.0
 50
90.0
  0
DIMENSION
  5
1603
  8
0
  2
*D7
 10
1047.514497
 20
0.0
 30
0.0
 11
1022.014497
 21
825.0
 31
0.0
 70
     0
 13
117.5
 23
1650.0
 33
0.0
 14
680.0
 24
0.0
 34
0.0
 50
90.0
  0
LINE
  5
161B
  8
DETAIL
 10
-40.0
 20
1650.0
 30
0.0
 11
117.5
 21
1650.0
 31
0.0
  0
LINE
  5
161C
  8
DETAIL
 10
87.5
 20
1542.0
 30
0.0
 11
87.5
 21
1640.0
 31
0.0
  0
LINE
  5
162F
  8
DETAIL
 10
117.5
 20
1640.0
 30
0.0
 11
117.5
 21
1650.0
 31
0.0
  0
LINE
  5
1639
  8
DETAIL
 10
-40.0
 20
1640.0
 30
0.0
 11
117.5
 21
1640.0
 31
0.0
  0
LINE
  5
18DF
  8
DETAIL
 10
187.5
 20
452.5
 30
0.0
 11
-187.5
 21
452.5
 31
0.0
  0
LINE
  5
18E0
  8
DETAIL
 10
187.5
 20
827.5
 30
0.0
 11
-187.5
 21
827.5
 31
0.0
  0
LINE
  5
18E1
  8
DETAIL
 10
-187.5
 20
452.5
 30
0.0
 11
-187.5
 21
827.5
 31
0.0
  0
CIRCLE
  5
18E2
  8
DETAIL
 10
-165.0
 20
475.0
 30
0.0
 40
12.0
  0
CIRCLE
  5
18E3
  8
DETAIL
 10
-165.0
 20
475.0
 30
0.0
 40
9.0
  0
CIRCLE
  5
18E4
  8
DETAIL
 10
-261.400833
 20
879.478676
 30
0.0
 40
40.0
  0
CIRCLE
  5
18E5
  8
DETAIL
 10
-261.400833
 20
879.478676
 30
0.0
 40
36.0
  0
CIRCLE
  5
18E6
  8
DETAIL
 10
-165.0
 20
805.0
 30
0.0
 40
12.0
  0
CIRCLE
  5
18E7
  8
DETAIL
 10
-165.0
 20
805.0
 30
0.0
 40
9.0
  0
CIRCLE
  5
18E8
  8
DETAIL
 10
0.0
 20
640.0
 30
0.0
 40
150.0
  0
LINE
  5
18E9
  8
CENTER
  6
CENTER
 10
150.0
 20
640.0
 30
0.0
 11
-150.0
 21
640.0
 31
0.0
  0
CIRCLE
  5
18EA
  8
DETAIL
 10
165.0
 20
475.0
 30
0.0
 40
12.0
  0
CIRCLE
  5
18EB
  8
DETAIL
 10
165.0
 20
475.0
 30
0.0
 40
9.0
  0
CIRCLE
  5
18EC
  8
DETAIL
 10
165.0
 20
805.0
 30
0.0
 40
12.0
  0
CIRCLE
  5
18ED
  8
DETAIL
 10
165.0
 20
805.0
 30
0.0
 40
9.0
  0
LINE
  5
18EE
  8
DETAIL
 10
187.5
 20
452.5
 30
0.0
 11
187.5
 21
827.5
 31
0.0
  0
ENDSEC
  0
EOF
