  0
SECTION
  2
HEADER
  9
$ACADVER
  1
AC1009
  9
$INSBASE
 10
0.0
 20
0.0
 30
0.0
  9
$EXTMIN
 10
-1157.298605
 20
-3567.202613
 30
0.0
  9
$EXTMAX
 10
1442.069907
 20
3666.216425
 30
0.0
  9
$LIMMIN
 10
0.0
 20
0.0
  9
$LIMMAX
 10
420.0
 20
297.0
  9
$ORTHOMODE
 70
     1
  9
$REGENMODE
 70
     1
  9
$FILLMODE
 70
     1
  9
$QTEXTMODE
 70
     0
  9
$MIRRTEXT
 70
     1
  9
$DRAGMODE
 70
     2
  9
$LTSCALE
 40
1.0
  9
$OSMODE
 70
     0
  9
$ATTMODE
 70
     2
  9
$TEXTSIZE
 40
25.0
  9
$TRACEWID
 40
1.0
  9
$TEXTSTYLE
  7
STANDARD
  9
$CLAYER
  8
0
  9
$CELTYPE
  6
BYLAYER
  9
$CECOLOR
 62
   256
  9
$DIMSCALE
 40
1.0
  9
$DIMASZ
 40
25.0
  9
$DIMEXO
 40
0.625
  9
$DIMDLI
 40
3.75
  9
$DIMRND
 40
0.0
  9
$DIMDLE
 40
0.0
  9
$DIMEXE
 40
1.25
  9
$DIMTP
 40
0.0
  9
$DIMTM
 40
0.0
  9
$DIMTXT
 40
25.0
  9
$DIMCEN
 40
2.5
  9
$DIMTSZ
 40
0.0
  9
$DIMTOL
 70
     0
  9
$DIMLIM
 70
     0
  9
$DIMTIH
 70
     0
  9
$DIMTOH
 70
     0
  9
$DIMSE1
 70
     0
  9
$DIMSE2
 70
     0
  9
$DIMTAD
 70
     1
  9
$DIMZIN
 70
     8
  9
$DIMBLK
  1

  9
$DIMASO
 70
     1
  9
$DIMSHO
 70
     1
  9
$DIMPOST
  1

  9
$DIMAPOST
  1

  9
$DIMALT
 70
     0
  9
$DIMALTD
 70
     3
  9
$DIMALTF
 40
0.03937
  9
$DIMLFAC
 40
1.0
  9
$DIMTOFL
 70
     1
  9
$DIMTVP
 40
0.0
  9
$DIMTIX
 70
     0
  9
$DIMSOXD
 70
     0
  9
$DIMSAH
 70
     0
  9
$DIMBLK1
  1

  9
$DIMBLK2
  1

  9
$DIMSTYLE
  2
ISO-25
  9
$DIMCLRD
 70
     0
  9
$DIMCLRE
 70
     0
  9
$DIMCLRT
 70
     0
  9
$DIMTFAC
 40
1.0
  9
$DIMGAP
 40
13.0
  9
$LUNITS
 70
     2
  9
$LUPREC
 70
     4
  9
$SKETCHINC
 40
1.0
  9
$FILLETRAD
 40
10.0
  9
$AUNITS
 70
     0
  9
$AUPREC
 70
     0
  9
$MENU
  1
.
  9
$ELEVATION
 40
0.0
  9
$PELEVATION
 40
0.0
  9
$THICKNESS
 40
0.0
  9
$LIMCHECK
 70
     0
  9
$BLIPMODE
 70
     0
  9
$CHAMFERA
 40
10.0
  9
$CHAMFERB
 40
10.0
  9
$SKPOLY
 70
     0
  9
$TDCREATE
 40
2452706.626866
  9
$TDUPDATE
 40
2453073.534383
  9
$TDINDWG
 40
0.345838
  9
$TDUSRTIMER
 40
0.345838
  9
$USRTIMER
 70
     1
  9
$ANGBASE
 50
0.0
  9
$ANGDIR
 70
     0
  9
$PDMODE
 70
     0
  9
$PDSIZE
 40
0.0
  9
$PLINEWID
 40
0.0
  9
$COORDS
 70
     1
  9
$SPLFRAME
 70
     0
  9
$SPLINETYPE
 70
     6
  9
$SPLINESEGS
 70
     8
  9
$ATTDIA
 70
     0
  9
$ATTREQ
 70
     1
  9
$HANDLING
 70
 22529
  9
$HANDSEED
  5
B8E
  9
$SURFTAB1
 70
     6
  9
$SURFTAB2
 70
     6
  9
$SURFTYPE
 70
     6
  9
$SURFU
 70
     6
  9
$SURFV
 70
     6
  9
$UCSNAME
  2

  9
$UCSORG
 10
0.0
 20
0.0
 30
0.0
  9
$UCSXDIR
 10
1.0
 20
0.0
 30
0.0
  9
$UCSYDIR
 10
0.0
 20
1.0
 30
0.0
  9
$PUCSNAME
  2

  9
$PUCSORG
 10
0.0
 20
0.0
 30
0.0
  9
$PUCSXDIR
 10
1.0
 20
0.0
 30
0.0
  9
$PUCSYDIR
 10
0.0
 20
1.0
 30
0.0
  9
$USERI1
 70
     0
  9
$USERI2
 70
     0
  9
$USERI3
 70
     0
  9
$USERI4
 70
     0
  9
$USERI5
 70
     0
  9
$USERR1
 40
0.0
  9
$USERR2
 40
0.0
  9
$USERR3
 40
0.0
  9
$USERR4
 40
0.0
  9
$USERR5
 40
0.0
  9
$WORLDVIEW
 70
     1
  9
$SHADEDGE
 70
     3
  9
$SHADEDIF
 70
    70
  9
$TILEMODE
 70
     1
  9
$MAXACTVP
 70
    48
  9
$PLIMCHECK
 70
     0
  9
$PEXTMIN
 10
1.000000E+020
 20
1.000000E+020
 30
1.000000E+020
  9
$PEXTMAX
 10
-1.000000E+020
 20
-1.000000E+020
 30
-1.000000E+020
  9
$PLIMMIN
 10
0.0
 20
0.0
  9
$PLIMMAX
 10
420.0
 20
297.0
  9
$UNITMODE
 70
     0
  9
$VISRETAIN
 70
     1
  9
$PLINEGEN
 70
     0
  9
$PSLTSCALE
 70
     1
  0
ENDSEC
  0
SECTION
  2
TABLES
  0
TABLE
  2
VPORT
 70
     2
  0
VPORT
  2
*ACTIVE
 70
     0
 10
0.0
 20
0.0
 11
1.0
 21
1.0
 12
142.385651
 22
49.506906
 13
0.0
 23
0.0
 14
10.0
 24
10.0
 15
10.0
 25
10.0
 16
0.0
 26
0.0
 36
1.0
 17
0.0
 27
0.0
 37
0.0
 40
7316.721369
 41
1.825
 42
50.0
 43
0.0
 44
0.0
 50
0.0
 51
0.0
 71
     0
 72
   100
 73
     1
 74
     3
 75
     0
 76
     0
 77
     0
 78
     0
  0
ENDTAB
  0
TABLE
  2
LTYPE
 70
     3
  0
LTYPE
  2
CONTINUOUS
 70
     0
  3
Solid line
 72
    65
 73
     0
 40
0.0
  0
LTYPE
  2
CENTER
 70
     0
  3
____ _ ____ _ ____ _ ____ _ ____ _ ____ _ ____
 72
    65
 73
     4
 40
2.0
 49
1.25
 49
-0.25
 49
0.25
 49
-0.25
  0
LTYPE
  2
DASHED
 70
     0
  3
__ __ __ __ __ __ __ __ __ __ __ __ __ __ __
 72
    65
 73
     2
 40
0.75
 49
0.5
 49
-0.25
  0
ENDTAB
  0
TABLE
  2
LAYER
 70
     9
  0
LAYER
  2
0
 70
     0
 62
     7
  6
CONTINUOUS
  0
LAYER
  2
ORIGIN
 70
     0
 62
     6
  6
CONTINUOUS
  0
LAYER
  2
DETAIL
 70
     0
 62
     2
  6
CONTINUOUS
  0
LAYER
  2
DIMENSION
 70
     0
 62
     7
  6
CONTINUOUS
  0
LAYER
  2
PLANNING
 70
     0
 62
     1
  6
DASHED
  0
LAYER
  2
STELTXT
 70
     0
 62
     4
  6
CONTINUOUS
  0
LAYER
  2
STELATT
 70
     0
 62
     7
  6
CONTINUOUS
  0
LAYER
  2
CENTER
 70
     0
 62
     4
  6
CENTER
  0
LAYER
  2
DEFPOINTS
 70
     0
 62
     7
  6
CONTINUOUS
  0
ENDTAB
  0
TABLE
  2
STYLE
 70
     1
  0
STYLE
  2
STANDARD
 70
     0
 40
0.0
 41
1.0
 50
0.0
 71
     0
 42
25.0
  3
simplex.shx
  4

  0
ENDTAB
  0
TABLE
  2
VIEW
 70
     0
  0
ENDTAB
  0
TABLE
  2
UCS
 70
     0
  0
ENDTAB
  0
TABLE
  2
APPID
 70
     1
  0
APPID
  2
ACAD
 70
     0
  0
ENDTAB
  0
TABLE
  2
DIMSTYLE
 70
     1
  0
DIMSTYLE
  2
ISO-25
 70
     0
  3

  4

  5

  6

  7

 40
1.0
 41
25.0
 42
0.625
 43
3.75
 44
1.25
 45
0.0
 46
0.0
 47
0.0
 48
0.0
140
25.0
141
2.5
142
0.0
143
0.03937
144
1.0
145
0.0
146
1.0
147
13.0
 71
     0
 72
     0
 73
     0
 74
     0
 75
     0
 76
     0
 77
     1
 78
     8
170
     0
171
     3
172
     1
173
     0
174
     0
175
     0
176
     0
177
     0
178
     0
  0
ENDTAB
  0
ENDSEC
  0
SECTION
  2
BLOCKS
  0
BLOCK
  8
0
  2
$MODEL_SPACE
 70
     2
 10
0.0
 20
0.0
 30
0.0
  3
$MODEL_SPACE
  1

  0
ENDBLK
  5
A
  8
0
  0
BLOCK
 67
     1
  8
0
  2
$PAPER_SPACE
 70
     0
 10
0.0
 20
0.0
 30
0.0
  3
$PAPER_SPACE
  1

  0
ENDBLK
  5
10
 67
     1
  8
0
  0
BLOCK
  8
0
  2
*D0
 70
     1
 10
0.0
 20
0.0
 30
0.0
  3
*D0
  1

  0
LINE
  5
917
  8
DIMENSION
 62
     0
 10
-731.0
 20
2879.625
 30
0.0
 11
-731.0
 21
3343.939525
 31
0.0
  0
LINE
  5
918
  8
DIMENSION
 62
     0
 10
731.0
 20
2879.625
 30
0.0
 11
731.0
 21
3343.939525
 31
0.0
  0
LINE
  5
919
  8
DIMENSION
 62
     0
 10
-706.0
 20
3342.689525
 30
0.0
 11
706.0
 21
3342.689525
 31
0.0
  0
SOLID
  5
91A
  8
DIMENSION
 62
     0
 10
-706.0
 20
3346.856192
 30
0.0
 11
-706.0
 21
3338.522859
 31
0.0
 12
-731.0
 22
3342.689525
 32
0.0
 13
-731.0
 23
3342.689525
 33
0.0
  0
SOLID
  5
91B
  8
DIMENSION
 62
     0
 10
706.0
 20
3346.856192
 30
0.0
 11
706.0
 21
3338.522859
 31
0.0
 12
731.0
 22
3342.689525
 32
0.0
 13
731.0
 23
3342.689525
 33
0.0
  0
TEXT
  5
91C
  8
0
 62
     0
 10
-41.979167
 20
3355.689525
 30
0.0
 40
25.0
  1
1462
  0
POINT
  5
91D
  8
DEFPOINTS
 62
     0
 10
-731.0
 20
2879.0
 30
0.0
  0
POINT
  5
91E
  8
DEFPOINTS
 62
     0
 10
731.0
 20
2879.0
 30
0.0
  0
POINT
  5
91F
  8
DEFPOINTS
 62
     0
 10
731.0
 20
3342.689525
 30
0.0
  0
ENDBLK
  5
F2
  8
0
  0
BLOCK
  8
0
  2
*D1
 70
     1
 10
0.0
 20
0.0
 30
0.0
  3
*D1
  1

  0
LINE
  5
929
  8
DIMENSION
 62
     0
 10
-731.625
 20
2879.0
 30
0.0
 11
-1009.725879
 21
2879.0
 31
0.0
  0
LINE
  5
92A
  8
DIMENSION
 62
     0
 10
-63.125
 20
2318.0
 30
0.0
 11
-1009.725879
 21
2318.0
 31
0.0
  0
LINE
  5
92B
  8
DIMENSION
 62
     0
 10
-1008.475879
 20
2854.0
 30
0.0
 11
-1008.475879
 21
2343.0
 31
0.0
  0
SOLID
  5
92C
  8
DIMENSION
 62
     0
 10
-1012.642546
 20
2854.0
 30
0.0
 11
-1004.309213
 21
2854.0
 31
0.0
 12
-1008.475879
 22
2879.0
 32
0.0
 13
-1008.475879
 23
2879.0
 33
0.0
  0
SOLID
  5
92D
  8
DIMENSION
 62
     0
 10
-1012.642546
 20
2343.0
 30
0.0
 11
-1004.309213
 21
2343.0
 31
0.0
 12
-1008.475879
 22
2318.0
 32
0.0
 13
-1008.475879
 23
2318.0
 33
0.0
  0
TEXT
  5
92E
  8
0
 62
     0
 10
-1021.475879
 20
2571.714286
 30
0.0
 40
25.0
  1
561
 50
90.0
  0
POINT
  5
92F
  8
DEFPOINTS
 62
     0
 10
-731.0
 20
2879.0
 30
0.0
  0
POINT
  5
930
  8
DEFPOINTS
 62
     0
 10
-62.5
 20
2318.0
 30
0.0
  0
POINT
  5
931
  8
DEFPOINTS
 62
     0
 10
-1008.475879
 20
2318.0
 30
0.0
  0
ENDBLK
  5
FE
  8
0
  0
BLOCK
  8
0
  2
*D2
 70
     1
 10
0.0
 20
0.0
 30
0.0
  3
*D2
  1

  0
LINE
  5
932
  8
DIMENSION
 62
     0
 10
-50.625
 20
2318.0
 30
0.0
 11
-1009.725879
 21
2318.0
 31
0.0
  0
LINE
  5
933
  8
DIMENSION
 62
     0
 10
-88.125
 20
1438.0
 30
0.0
 11
-1009.725879
 21
1438.0
 31
0.0
  0
LINE
  5
934
  8
DIMENSION
 62
     0
 10
-1008.475879
 20
2293.0
 30
0.0
 11
-1008.475879
 21
1463.0
 31
0.0
  0
SOLID
  5
935
  8
DIMENSION
 62
     0
 10
-1012.642546
 20
2293.0
 30
0.0
 11
-1004.309213
 21
2293.0
 31
0.0
 12
-1008.475879
 22
2318.0
 32
0.0
 13
-1008.475879
 23
2318.0
 33
0.0
  0
SOLID
  5
936
  8
DIMENSION
 62
     0
 10
-1012.642546
 20
1463.0
 30
0.0
 11
-1004.309213
 21
1463.0
 31
0.0
 12
-1008.475879
 22
1438.0
 32
0.0
 13
-1008.475879
 23
1438.0
 33
0.0
  0
TEXT
  5
937
  8
0
 62
     0
 10
-1021.475879
 20
1845.857143
 30
0.0
 40
25.0
  1
880
 50
90.0
  0
POINT
  5
938
  8
DEFPOINTS
 62
     0
 10
-50.0
 20
2318.0
 30
0.0
  0
POINT
  5
939
  8
DEFPOINTS
 62
     0
 10
-87.5
 20
1438.0
 30
0.0
  0
POINT
  5
93A
  8
DEFPOINTS
 62
     0
 10
-1008.475879
 20
1438.0
 30
0.0
  0
ENDBLK
  5
10A
  8
0
  0
BLOCK
  8
0
  2
*D3
 70
     1
 10
0.0
 20
0.0
 30
0.0
  3
*D3
  1

  0
LINE
  5
93B
  8
DIMENSION
 62
     0
 10
-226.25
 20
3166.0
 30
0.0
 11
-1009.725879
 21
3166.0
 31
0.0
  0
LINE
  5
93C
  8
DIMENSION
 62
     0
 10
-731.625
 20
2879.0
 30
0.0
 11
-1009.725879
 21
2879.0
 31
0.0
  0
LINE
  5
93D
  8
DIMENSION
 62
     0
 10
-1008.475879
 20
3141.0
 30
0.0
 11
-1008.475879
 21
2904.0
 31
0.0
  0
SOLID
  5
93E
  8
DIMENSION
 62
     0
 10
-1012.642546
 20
3141.0
 30
0.0
 11
-1004.309213
 21
3141.0
 31
0.0
 12
-1008.475879
 22
3166.0
 32
0.0
 13
-1008.475879
 23
3166.0
 33
0.0
  0
SOLID
  5
93F
  8
DIMENSION
 62
     0
 10
-1012.642546
 20
2904.0
 30
0.0
 11
-1004.309213
 21
2904.0
 31
0.0
 12
-1008.475879
 22
2879.0
 32
0.0
 13
-1008.475879
 23
2879.0
 33
0.0
  0
TEXT
  5
940
  8
0
 62
     0
 10
-1021.475879
 20
2990.357143
 30
0.0
 40
25.0
  1
287
 50
90.0
  0
POINT
  5
941
  8
DEFPOINTS
 62
     0
 10
-225.625
 20
3166.0
 30
0.0
  0
POINT
  5
942
  8
DEFPOINTS
 62
     0
 10
-731.0
 20
2879.0
 30
0.0
  0
POINT
  5
943
  8
DEFPOINTS
 62
     0
 10
-1008.475879
 20
2879.0
 30
0.0
  0
ENDBLK
  5
116
  8
0
  0
BLOCK
  8
0
  2
*D4
 70
     1
 10
0.0
 20
0.0
 30
0.0
  3
*D4
  1

  0
LINE
  5
862
  8
0
 62
     0
 10
-680.0
 20
-0.625
 30
0.0
 11
-680.0
 21
-105.707394
 31
0.0
  0
LINE
  5
863
  8
0
 62
     0
 10
680.0
 20
-0.625
 30
0.0
 11
680.0
 21
-105.707394
 31
0.0
  0
LINE
  5
864
  8
0
 62
     0
 10
-655.0
 20
-104.457394
 30
0.0
 11
655.0
 21
-104.457394
 31
0.0
  0
SOLID
  5
865
  8
0
 62
     0
 10
-655.0
 20
-100.290728
 30
0.0
 11
-655.0
 21
-108.624061
 31
0.0
 12
-680.0
 22
-104.457394
 32
0.0
 13
-680.0
 23
-104.457394
 33
0.0
  0
SOLID
  5
866
  8
0
 62
     0
 10
655.0
 20
-100.290728
 30
0.0
 11
655.0
 21
-108.624061
 31
0.0
 12
680.0
 22
-104.457394
 32
0.0
 13
680.0
 23
-104.457394
 33
0.0
  0
TEXT
  5
867
  8
0
 62
     0
 10
-41.666667
 20
-91.457394
 30
0.0
 40
25.0
  1
1360
  0
POINT
  5
868
  8
DEFPOINTS
 62
     0
 10
-680.0
 20
0.0
 30
0.0
  0
POINT
  5
869
  8
DEFPOINTS
 62
     0
 10
680.0
 20
0.0
 30
0.0
  0
POINT
  5
86A
  8
DEFPOINTS
 62
     0
 10
680.0
 20
-104.457394
 30
0.0
  0
ENDBLK
  5
122
  8
0
  0
BLOCK
  8
0
  2
*D5
 70
     1
 10
0.0
 20
0.0
 30
0.0
  3
*D5
  1

  0
LINE
  5
823
  8
DIMENSION
 62
     0
 10
-731.625
 20
227.0
 30
0.0
 11
-1013.660145
 21
227.0
 31
0.0
  0
LINE
  5
824
  8
DIMENSION
 62
     0
 10
-680.625
 20
0.0
 30
0.0
 11
-1013.660145
 21
0.0
 31
0.0
  0
LINE
  5
825
  8
DIMENSION
 62
     0
 10
-1012.410145
 20
202.0
 30
0.0
 11
-1012.410145
 21
25.0
 31
0.0
  0
SOLID
  5
826
  8
DIMENSION
 62
     0
 10
-1016.576811
 20
202.0
 30
0.0
 11
-1008.243478
 21
202.0
 31
0.0
 12
-1012.410145
 22
227.0
 32
0.0
 13
-1012.410145
 23
227.0
 33
0.0
  0
SOLID
  5
827
  8
DIMENSION
 62
     0
 10
-1016.576811
 20
25.0
 30
0.0
 11
-1008.243478
 21
25.0
 31
0.0
 12
-1012.410145
 22
0.0
 32
0.0
 13
-1012.410145
 23
0.0
 33
0.0
  0
TEXT
  5
828
  8
0
 62
     0
 10
-1025.410145
 20
81.357143
 30
0.0
 40
25.0
  1
227
 50
90.0
  0
POINT
  5
829
  8
DEFPOINTS
 62
     0
 10
-731.0
 20
227.0
 30
0.0
  0
POINT
  5
82A
  8
DEFPOINTS
 62
     0
 10
-680.0
 20
0.0
 30
0.0
  0
POINT
  5
82B
  8
DEFPOINTS
 62
     0
 10
-1012.410145
 20
0.0
 30
0.0
  0
ENDBLK
  5
12E
  8
0
  0
BLOCK
  8
0
  2
*D6
 70
     1
 10
0.0
 20
0.0
 30
0.0
  3
*D6
  1

  0
LINE
  5
898
  8
DIMENSION
 62
     0
 10
-88.125
 20
1438.0
 30
0.0
 11
-1009.725879
 21
1438.0
 31
0.0
  0
LINE
  5
899
  8
DIMENSION
 62
     0
 10
-88.125
 20
888.0
 30
0.0
 11
-1009.725879
 21
888.0
 31
0.0
  0
LINE
  5
89A
  8
DIMENSION
 62
     0
 10
-1008.475879
 20
1413.0
 30
0.0
 11
-1008.475879
 21
913.0
 31
0.0
  0
SOLID
  5
89B
  8
DIMENSION
 62
     0
 10
-1012.642546
 20
1413.0
 30
0.0
 11
-1004.309213
 21
1413.0
 31
0.0
 12
-1008.475879
 22
1438.0
 32
0.0
 13
-1008.475879
 23
1438.0
 33
0.0
  0
SOLID
  5
89C
  8
DIMENSION
 62
     0
 10
-1012.642546
 20
913.0
 30
0.0
 11
-1004.309213
 21
913.0
 31
0.0
 12
-1008.475879
 22
888.0
 32
0.0
 13
-1008.475879
 23
888.0
 33
0.0
  0
TEXT
  5
89D
  8
0
 62
     0
 10
-1021.475879
 20
1130.857143
 30
0.0
 40
25.0
  1
550
 50
90.0
  0
POINT
  5
89E
  8
DEFPOINTS
 62
     0
 10
-87.5
 20
1438.0
 30
0.0
  0
POINT
  5
89F
  8
DEFPOINTS
 62
     0
 10
-87.5
 20
888.0
 30
0.0
  0
POINT
  5
8A0
  8
DEFPOINTS
 62
     0
 10
-1008.475879
 20
888.0
 30
0.0
  0
ENDBLK
  5
13A
  8
0
  0
BLOCK
  8
0
  2
*D7
 70
     1
 10
0.0
 20
0.0
 30
0.0
  3
*D7
  1

  0
LINE
  5
944
  8
DIMENSION
 62
     0
 10
-225.625
 20
3166.0
 30
0.0
 11
-1120.36338
 21
3166.0
 31
0.0
  0
LINE
  5
945
  8
DIMENSION
 62
     0
 10
-680.625
 20
0.0
 30
0.0
 11
-1120.36338
 21
0.0
 31
0.0
  0
LINE
  5
946
  8
DIMENSION
 62
     0
 10
-1119.11338
 20
3141.0
 30
0.0
 11
-1119.11338
 21
25.0
 31
0.0
  0
SOLID
  5
947
  8
DIMENSION
 62
     0
 10
-1123.280046
 20
3141.0
 30
0.0
 11
-1114.946713
 21
3141.0
 31
0.0
 12
-1119.11338
 22
3166.0
 32
0.0
 13
-1119.11338
 23
3166.0
 33
0.0
  0
SOLID
  5
948
  8
DIMENSION
 62
     0
 10
-1123.280046
 20
25.0
 30
0.0
 11
-1114.946713
 21
25.0
 31
0.0
 12
-1119.11338
 22
0.0
 32
0.0
 13
-1119.11338
 23
0.0
 33
0.0
  0
TEXT
  5
949
  8
0
 62
     0
 10
-1132.11338
 20
1541.928571
 30
0.0
 40
25.0
  1
3166
 50
90.0
  0
POINT
  5
94A
  8
DEFPOINTS
 62
     0
 10
-225.0
 20
3166.0
 30
0.0
  0
POINT
  5
94B
  8
DEFPOINTS
 62
     0
 10
-680.0
 20
0.0
 30
0.0
  0
POINT
  5
94C
  8
DEFPOINTS
 62
     0
 10
-1119.11338
 20
0.0
 30
0.0
  0
ENDBLK
  5
146
  8
0
  0
ENDSEC
  0
SECTION
  2
ENTITIES
  0
LINE
  5
26
  8
PLANNING
 10
831.0
 20
3666.0
 30
0.0
 11
831.0
 21
-3166.0
 31
0.0
  0
LINE
  5
29
  8
PLANNING
 10
-931.0
 20
3666.0
 30
0.0
 11
-931.0
 21
-3166.0
 31
0.0
  0
DIMENSION
  5
2A
  8
DIMENSION
  2
*D7
 10
-1119.11338
 20
0.0
 30
0.0
 11
-1119.11338
 21
1583.0
 31
0.0
 70
   128
 13
-225.0
 23
3166.0
 33
0.0
 14
-680.0
 24
0.0
 34
0.0
 50
90.0
  0
DIMENSION
  5
3B
  8
DIMENSION
  2
*D6
 10
-1008.475879
 20
888.0
 30
0.0
 11
-1033.975879
 21
1163.0
 31
0.0
 70
     0
 13
-87.5
 23
1438.0
 33
0.0
 14
-87.5
 24
888.0
 34
0.0
 50
90.0
  0
LINE
  5
4A
  8
DETAIL
 10
-731.0
 20
2879.0
 30
0.0
 11
-731.0
 21
227.0
 31
0.0
  0
LINE
  5
4C
  8
DETAIL
 10
731.0
 20
2879.0
 30
0.0
 11
731.0
 21
227.0
 31
0.0
  0
LINE
  5
4D
  8
CENTER
  6
CENTER
 10
0.0
 20
3166.0
 30
0.0
 11
0.0
 21
0.0
 31
0.0
  0
LINE
  5
50
  8
STELTXT
 10
159.76462
 20
-4.982537
 30
0.0
 11
919.444267
 21
-4.982537
 31
0.0
1001
ACAD
1000
R13OBJECT
1002
{
1005
0
1002
}
  0
SOLID
  5
52
  8
STELTXT
  6
CONTINUOUS
 10
-159.76462
 20
-9.14919
 30
0.0
 11
-134.76462
 21
-4.982523
 31
0.0
 12
-159.76462
 22
-0.815857
 32
0.0
 13
-159.76462
 23
-0.815857
 33
0.0
210
-0.0
220
0.0
230
-1.0
  0
LINE
  5
53
  8
PLANNING
 10
831.0
 20
-3166.0
 30
0.0
 11
-931.0
 21
-3166.0
 31
0.0
  0
DIMENSION
  5
54
  8
DIMENSION
  2
*D5
 10
-1012.410145
 20
0.0
 30
0.0
 11
-1037.910145
 21
113.5
 31
0.0
 70
     0
 13
-731.0
 23
227.0
 33
0.0
 14
-680.0
 24
0.0
 34
0.0
 50
90.0
  0
ATTDEF
  5
61
  8
STELATT
 10
-233.333333
 20
-3436.986484
 30
0.0
 40
40.0
  1
IDEAL
 72
     4
 11
0.0
 21
-3416.986484
 31
0.0
  3

  2
MANUFACTURER
 70
     2
  0
ATTDEF
  5
63
  8
STELATT
 10
-68.571429
 20
-3501.986484
 30
0.0
 40
40.0
  1
VANGUARD L
 72
     4
 11
0.0
 21
-3481.986484
 31
0.0
  3

  2
TYPE
 70
     2
  0
ATTDEF
  5
64
  8
STELATT
 10
-93.333333
 20
-3566.986484
 30
0.0
 40
40.0
  1
1850
 72
     4
 11
0.0
 21
-3546.986484
 31
0.0
  3

  2
MODEL
 70
     2
  0
DIMENSION
  5
65
  8
0
  2
*D4
 10
680.0
 20
-104.457394
 30
0.0
 11
0.0
 21
-78.957394
 31
0.0
 70
     0
 13
-680.0
 23
0.0
 33
0.0
 14
680.0
 24
0.0
 34
0.0
  0
LINE
  5
74
  8
DETAIL
 10
680.0
 20
0.0
 30
0.0
 11
-680.0
 21
0.0
 31
0.0
  0
LINE
  5
75
  8
DETAIL
 10
680.0
 20
152.0
 30
0.0
 11
-680.0
 21
152.0
 31
0.0
  0
LINE
  5
76
  8
DETAIL
 10
-731.0
 20
227.0
 30
0.0
 11
731.0
 21
227.0
 31
0.0
  0
POLYLINE
  5
77
  8
STELTXT
 66
     1
 10
0.0
 20
0.0
 30
0.0
 70
   128
1001
ACAD
1000
R13OBJECT
1002
{
1005
0
1002
}
  0
VERTEX
  5
B70
  8
STELTXT
 10
100.830531
 20
900.5929
 30
0.0
  0
VERTEX
  5
B71
  8
STELTXT
 10
778.179598
 20
998.457045
 30
0.0
  0
VERTEX
  5
B72
  8
STELTXT
 10
922.004667
 20
998.457045
 30
0.0
  0
SEQEND
  5
B73
  8
STELTXT
  0
LINE
  5
78
  8
DETAIL
 10
-463.268482
 20
447.570778
 30
0.0
 11
-71.733178
 21
447.570778
 31
0.0
  0
POLYLINE
  5
79
  8
DETAIL
 66
     1
 10
0.0
 20
0.0
 30
0.0
 70
     1
  0
VERTEX
  5
B74
  8
DETAIL
 10
-463.268482
 20
261.99708
 30
0.0
 42
-0.414214
  0
VERTEX
  5
B75
  8
DETAIL
 10
-478.268482
 20
276.99708
 30
0.0
 42
-0.092505
  0
VERTEX
  5
B76
  8
DETAIL
 10
-478.268482
 20
422.570778
 30
0.0
 42
-0.414214
  0
VERTEX
  5
B77
  8
DETAIL
 10
-463.268482
 20
437.570778
 30
0.0
  0
VERTEX
  5
B78
  8
DETAIL
 10
-71.733178
 20
437.570778
 30
0.0
 42
-0.414214
  0
VERTEX
  5
B79
  8
DETAIL
 10
-56.733178
 20
422.570778
 30
0.0
 42
-0.092505
  0
VERTEX
  5
B7A
  8
DETAIL
 10
-56.733178
 20
276.99708
 30
0.0
 42
-0.414214
  0
VERTEX
  5
B7B
  8
DETAIL
 10
-71.733178
 20
261.99708
 30
0.0
  0
SEQEND
  5
B7C
  8
DETAIL
  0
ARC
  5
7A
  8
DETAIL
 10
-88.215668
 20
349.783929
 30
0.0
 40
406.785992
 50
169.544172
 51
190.455828
  0
LINE
  5
7B
  8
DETAIL
 10
-680.0
 20
152.0
 30
0.0
 11
-680.0
 21
0.0
 31
0.0
  0
LINE
  5
7C
  8
DETAIL
 10
-680.0
 20
152.0
 30
0.0
 11
-680.0
 21
227.0
 31
0.0
  0
LINE
  5
7D
  8
DETAIL
 10
-463.268482
 20
261.99708
 30
0.0
 11
-483.268482
 21
261.99708
 31
0.0
  0
ARC
  5
7E
  8
DETAIL
 10
-463.268482
 20
276.99708
 30
0.0
 40
25.0
 50
182.374172
 51
216.869898
  0
ARC
  5
7F
  8
DETAIL
 10
-463.268482
 20
422.570778
 30
0.0
 40
25.0
 50
90.0
 51
177.625828
  0
ARC
  5
80
  8
DETAIL
 10
-446.785992
 20
349.783929
 30
0.0
 40
406.785992
 50
349.544172
 51
10.455828
  0
LINE
  5
81
  8
DETAIL
 10
125.0
 20
-5.0
 30
0.0
 11
-125.0
 21
-5.0
 31
0.0
  0
POLYLINE
  5
82
  8
ORIGIN
 66
     1
 10
0.0
 20
0.0
 30
0.0
 70
     1
  0
VERTEX
  5
B7D
  8
ORIGIN
 10
37.5
 20
-37.5
 30
0.0
  0
VERTEX
  5
B7E
  8
ORIGIN
 10
-37.5
 20
37.5
 30
0.0
  0
VERTEX
  5
B7F
  8
ORIGIN
 10
-37.5
 20
-37.5
 30
0.0
  0
VERTEX
  5
B80
  8
ORIGIN
 10
37.5
 20
37.5
 30
0.0
  0
SEQEND
  5
B81
  8
ORIGIN
  0
LINE
  5
84
  8
DETAIL
 10
-125.0
 20
-5.0
 30
0.0
 11
-125.0
 21
0.0
 31
0.0
  0
LINE
  5
85
  8
DETAIL
 10
125.0
 20
-5.0
 30
0.0
 11
125.0
 21
0.0
 31
0.0
  0
LINE
  5
86
  8
DETAIL
 10
-71.733178
 20
261.99708
 30
0.0
 11
-51.733178
 21
261.99708
 31
0.0
  0
ARC
  5
87
  8
DETAIL
 10
-71.733178
 20
276.99708
 30
0.0
 40
25.0
 50
323.130102
 51
357.625828
  0
CIRCLE
  5
88
  8
DETAIL
 10
0.0
 20
888.0
 30
0.0
 40
87.5
  0
SOLID
  5
89
  8
STELTXT
  6
CONTINUOUS
 10
-101.766803
 20
896.532788
 30
0.0
 11
-76.469862
 21
894.975267
 31
0.0
 12
-99.894259
 22
904.653011
 32
0.0
 13
-99.894259
 23
904.653011
 33
0.0
210
0.0
220
0.0
230
-1.0
  0
ARC
  5
8A
  8
DETAIL
 10
-71.733178
 20
422.570778
 30
0.0
 40
25.0
 50
2.374172
 51
90.0
  0
TEXT
  5
8B
  8
STELTXT
 10
932.392268
 20
945.026403
 30
0.0
 40
25.0
  1
CONNECTION
  0
TEXT
  5
8C
  8
STELTXT
 10
939.622128
 20
-18.02139
 30
0.0
 40
25.0
  1
BURNER CONNECTION
  0
TEXT
  5
8D
  8
STELTXT
 10
932.392268
 20
987.883546
 30
0.0
 40
25.0
  1
175mm RETURN
  0
LINE
  5
8E
  8
DETAIL
 10
680.0
 20
152.0
 30
0.0
 11
680.0
 21
0.0
 31
0.0
  0
LINE
  5
8F
  8
DETAIL
 10
680.0
 20
152.0
 30
0.0
 11
680.0
 21
227.0
 31
0.0
  0
DIMENSION
  5
90
  8
DIMENSION
  2
*D3
 10
-1008.475879
 20
2879.0
 30
0.0
 11
-1033.975879
 21
3022.5
 31
0.0
 70
     0
 13
-225.625
 23
3166.0
 33
0.0
 14
-731.0
 24
2879.0
 34
0.0
 50
90.0
  0
DIMENSION
  5
9F
  8
DIMENSION
  2
*D2
 10
-1008.475879
 20
1438.0
 30
0.0
 11
-1033.975879
 21
1878.0
 31
0.0
 70
     0
 13
-50.0
 23
2318.0
 33
0.0
 14
-87.5
 24
1438.0
 34
0.0
 50
90.0
  0
DIMENSION
  5
AE
  8
DIMENSION
  2
*D1
 10
-1008.475879
 20
2318.0
 30
0.0
 11
-1033.975879
 21
2598.5
 31
0.0
 70
     0
 13
-731.0
 23
2879.0
 33
0.0
 14
-62.5
 24
2318.0
 34
0.0
 50
90.0
  0
LINE
  5
BD
  8
PLANNING
 10
-931.0
 20
3666.0
 30
0.0
 11
831.0
 21
3666.0
 31
0.0
  0
POLYLINE
  5
BE
  8
STELTXT
 66
     1
 10
0.0
 20
0.0
 30
0.0
 70
   128
1001
ACAD
1000
R13OBJECT
1002
{
1005
0
1002
}
  0
VERTEX
  5
B82
  8
STELTXT
 10
252.626217
 20
3167.669573
 30
0.0
  0
VERTEX
  5
B83
  8
STELTXT
 10
871.228586
 20
3277.817984
 30
0.0
  0
VERTEX
  5
B84
  8
STELTXT
 10
919.444267
 20
3277.817984
 30
0.0
  0
SEQEND
  5
B85
  8
STELTXT
  0
DIMENSION
  5
BF
  8
DIMENSION
  2
*D0
 10
731.0
 20
3342.689525
 30
0.0
 11
-0.3125
 21
3342.689525
 31
0.0
 70
   128
 13
-731.0
 23
2879.0
 33
0.0
 14
731.0
 24
2879.0
 34
0.0
  0
LINE
  5
CE
  8
DETAIL
 10
-731.0
 20
2879.0
 30
0.0
 11
731.0
 21
2879.0
 31
0.0
  0
LINE
  5
CF
  8
DETAIL
 10
-621.315
 20
3116.0
 30
0.0
 11
621.315
 21
3116.0
 31
0.0
  0
POLYLINE
  5
D0
  8
STELTXT
 66
     1
 10
0.0
 20
0.0
 30
0.0
 70
   128
1001
ACAD
1000
R13OBJECT
1002
{
1005
0
1002
}
  0
VERTEX
  5
B86
  8
STELTXT
 10
99.966788
 20
1451.776367
 30
0.0
  0
VERTEX
  5
B87
  8
STELTXT
 10
776.720661
 20
1548.471679
 30
0.0
  0
VERTEX
  5
B88
  8
STELTXT
 10
920.54573
 20
1548.471679
 30
0.0
  0
SEQEND
  5
B89
  8
STELTXT
  0
POLYLINE
  5
D1
  8
STELTXT
 66
     1
 10
0.0
 20
0.0
 30
0.0
 70
   128
1001
ACAD
1000
R13OBJECT
1002
{
1005
0
1002
}
  0
VERTEX
  5
B8A
  8
STELTXT
 10
64.771859
 20
2346.471594
 30
0.0
  0
VERTEX
  5
B8B
  8
STELTXT
 10
778.179598
 20
2449.826409
 30
0.0
  0
VERTEX
  5
B8C
  8
STELTXT
 10
922.004667
 20
2449.826409
 30
0.0
  0
SEQEND
  5
B8D
  8
STELTXT
  0
LINE
  5
D2
  8
DETAIL
 10
-225.0
 20
3166.0
 30
0.0
 11
225.0
 21
3166.0
 31
0.0
  0
LINE
  5
D3
  8
DETAIL
 10
-621.315
 20
3116.0
 30
0.0
 11
-621.315
 21
2879.0
 31
0.0
  0
LINE
  5
D4
  8
DETAIL
 10
-225.0
 20
3166.0
 30
0.0
 11
-225.0
 21
3116.0
 31
0.0
  0
CIRCLE
  5
D5
  8
DETAIL
 10
0.0
 20
1438.0
 30
0.0
 40
87.5
  0
SOLID
  5
D6
  8
STELTXT
  6
CONTINUOUS
 10
-100.90306
 20
1447.716256
 30
0.0
 11
-75.606119
 21
1446.158735
 31
0.0
 12
-99.030516
 22
1455.836479
 32
0.0
 13
-99.030516
 23
1455.836479
 33
0.0
210
0.0
220
0.0
230
-1.0
  0
CIRCLE
  5
D7
  8
DETAIL
 10
0.0
 20
2318.0
 30
0.0
 40
50.0
  0
SOLID
  5
D8
  8
STELTXT
  6
CONTINUOUS
 10
-65.708131
 20
2342.411483
 30
0.0
 11
-40.41119
 21
2340.853962
 31
0.0
 12
-63.835587
 22
2350.531706
 32
0.0
 13
-63.835587
 23
2350.531706
 33
0.0
210
0.0
220
0.0
230
-1.0
  0
SOLID
  5
D9
  8
STELTXT
  6
CONTINUOUS
 10
-253.286937
 20
3163.555626
 30
0.0
 11
-227.942535
 21
3163.705256
 31
0.0
 12
-251.965498
 22
3171.78352
 32
0.0
 13
-251.965498
 23
3171.78352
 33
0.0
210
0.0
220
0.0
230
-1.0
  0
LINE
  5
DA
  8
DETAIL
 10
225.0
 20
3166.0
 30
0.0
 11
225.0
 21
3116.0
 31
0.0
  0
TEXT
  5
DB
  8
STELTXT
 10
932.083811
 20
3265.224425
 30
0.0
 40
25.0
  1
450mm FLUE OUTLET
  0
TEXT
  5
DC
  8
STELTXT
 10
930.933331
 20
1495.041037
 30
0.0
 40
25.0
  1
CONNECTION
  0
TEXT
  5
DD
  8
STELTXT
 10
930.933331
 20
1537.89818
 30
0.0
 40
25.0
  1
175mm FLOW
  0
TEXT
  5
DE
  8
STELTXT
 10
931.170287
 20
2395.343541
 30
0.0
 40
25.0
  1
& EXPANSION CONNECTION
  0
TEXT
  5
DF
  8
STELTXT
 10
931.170287
 20
2438.200684
 30
0.0
 40
25.0
  1
100mm SAFETY VALVE
  0
LINE
  5
E0
  8
DETAIL
 10
621.315
 20
3116.0
 30
0.0
 11
621.315
 21
2879.0
 31
0.0
  0
ENDSEC
  0
EOF
