  0
SECTION
  2
HEADER
  9
$ACADVER
  1
AC1009
  9
$INSBASE
 10
0.0
 20
0.0
 30
0.0
  9
$EXTMIN
 10
-1225.878574
 20
-401.093529
 30
0.0
  9
$EXTMAX
 10
1204.636962
 20
2045.834593
 30
0.0
  9
$LIMMIN
 10
0.0
 20
0.0
  9
$LIMMAX
 10
420.0
 20
297.0
  9
$ORTHOMODE
 70
     1
  9
$REGENMODE
 70
     1
  9
$FILLMODE
 70
     1
  9
$QTEXTMODE
 70
     0
  9
$MIRRTEXT
 70
     1
  9
$DRAGMODE
 70
     2
  9
$LTSCALE
 40
1.0
  9
$OSMODE
 70
     0
  9
$ATTMODE
 70
     2
  9
$TEXTSIZE
 40
25.0
  9
$TRACEWID
 40
1.0
  9
$TEXTSTYLE
  7
STANDARD
  9
$CLAYER
  8
0
  9
$CELTYPE
  6
BYLAYER
  9
$CECOLOR
 62
   256
  9
$DIMSCALE
 40
1.0
  9
$DIMASZ
 40
25.0
  9
$DIMEXO
 40
0.625
  9
$DIMDLI
 40
3.75
  9
$DIMRND
 40
0.0
  9
$DIMDLE
 40
0.0
  9
$DIMEXE
 40
1.25
  9
$DIMTP
 40
0.0
  9
$DIMTM
 40
0.0
  9
$DIMTXT
 40
25.0
  9
$DIMCEN
 40
2.5
  9
$DIMTSZ
 40
0.0
  9
$DIMTOL
 70
     0
  9
$DIMLIM
 70
     0
  9
$DIMTIH
 70
     0
  9
$DIMTOH
 70
     0
  9
$DIMSE1
 70
     0
  9
$DIMSE2
 70
     0
  9
$DIMTAD
 70
     1
  9
$DIMZIN
 70
     8
  9
$DIMBLK
  1

  9
$DIMASO
 70
     1
  9
$DIMSHO
 70
     1
  9
$DIMPOST
  1

  9
$DIMAPOST
  1

  9
$DIMALT
 70
     0
  9
$DIMALTD
 70
     3
  9
$DIMALTF
 40
0.03937
  9
$DIMLFAC
 40
1.0
  9
$DIMTOFL
 70
     1
  9
$DIMTVP
 40
0.0
  9
$DIMTIX
 70
     0
  9
$DIMSOXD
 70
     0
  9
$DIMSAH
 70
     0
  9
$DIMBLK1
  1

  9
$DIMBLK2
  1

  9
$DIMSTYLE
  2
ISO-25
  9
$DIMCLRD
 70
     0
  9
$DIMCLRE
 70
     0
  9
$DIMCLRT
 70
     0
  9
$DIMTFAC
 40
1.0
  9
$DIMGAP
 40
13.0
  9
$LUNITS
 70
     2
  9
$LUPREC
 70
     4
  9
$SKETCHINC
 40
1.0
  9
$FILLETRAD
 40
10.0
  9
$AUNITS
 70
     0
  9
$AUPREC
 70
     0
  9
$MENU
  1
.
  9
$ELEVATION
 40
0.0
  9
$PELEVATION
 40
0.0
  9
$THICKNESS
 40
0.0
  9
$LIMCHECK
 70
     0
  9
$BLIPMODE
 70
     0
  9
$CHAMFERA
 40
10.0
  9
$CHAMFERB
 40
10.0
  9
$SKPOLY
 70
     0
  9
$TDCREATE
 40
2452706.626866
  9
$TDUPDATE
 40
2453073.534394
  9
$TDINDWG
 40
0.346363
  9
$TDUSRTIMER
 40
0.346363
  9
$USRTIMER
 70
     1
  9
$ANGBASE
 50
0.0
  9
$ANGDIR
 70
     0
  9
$PDMODE
 70
     0
  9
$PDSIZE
 40
0.0
  9
$PLINEWID
 40
0.0
  9
$COORDS
 70
     1
  9
$SPLFRAME
 70
     0
  9
$SPLINETYPE
 70
     6
  9
$SPLINESEGS
 70
     8
  9
$ATTDIA
 70
     0
  9
$ATTREQ
 70
     1
  9
$HANDLING
 70
 22529
  9
$HANDSEED
  5
1D87
  9
$SURFTAB1
 70
     6
  9
$SURFTAB2
 70
     6
  9
$SURFTYPE
 70
     6
  9
$SURFU
 70
     6
  9
$SURFV
 70
     6
  9
$UCSNAME
  2

  9
$UCSORG
 10
0.0
 20
0.0
 30
0.0
  9
$UCSXDIR
 10
1.0
 20
0.0
 30
0.0
  9
$UCSYDIR
 10
0.0
 20
1.0
 30
0.0
  9
$PUCSNAME
  2

  9
$PUCSORG
 10
0.0
 20
0.0
 30
0.0
  9
$PUCSXDIR
 10
1.0
 20
0.0
 30
0.0
  9
$PUCSYDIR
 10
0.0
 20
1.0
 30
0.0
  9
$USERI1
 70
     0
  9
$USERI2
 70
     0
  9
$USERI3
 70
     0
  9
$USERI4
 70
     0
  9
$USERI5
 70
     0
  9
$USERR1
 40
0.0
  9
$USERR2
 40
0.0
  9
$USERR3
 40
0.0
  9
$USERR4
 40
0.0
  9
$USERR5
 40
0.0
  9
$WORLDVIEW
 70
     1
  9
$SHADEDGE
 70
     3
  9
$SHADEDIF
 70
    70
  9
$TILEMODE
 70
     1
  9
$MAXACTVP
 70
    48
  9
$PLIMCHECK
 70
     0
  9
$PEXTMIN
 10
1.000000E+020
 20
1.000000E+020
 30
1.000000E+020
  9
$PEXTMAX
 10
-1.000000E+020
 20
-1.000000E+020
 30
-1.000000E+020
  9
$PLIMMIN
 10
0.0
 20
0.0
  9
$PLIMMAX
 10
420.0
 20
297.0
  9
$UNITMODE
 70
     0
  9
$VISRETAIN
 70
     1
  9
$PLINEGEN
 70
     0
  9
$PSLTSCALE
 70
     1
  0
ENDSEC
  0
SECTION
  2
TABLES
  0
TABLE
  2
VPORT
 70
     2
  0
VPORT
  2
*ACTIVE
 70
     0
 10
0.0
 20
0.0
 11
1.0
 21
1.0
 12
-10.620806
 22
822.370532
 13
0.0
 23
0.0
 14
10.0
 24
10.0
 15
10.0
 25
10.0
 16
0.0
 26
0.0
 36
1.0
 17
0.0
 27
0.0
 37
0.0
 40
2475.107716
 41
1.825
 42
50.0
 43
0.0
 44
0.0
 50
0.0
 51
0.0
 71
     0
 72
   100
 73
     1
 74
     3
 75
     0
 76
     0
 77
     0
 78
     0
  0
ENDTAB
  0
TABLE
  2
LTYPE
 70
     3
  0
LTYPE
  2
CONTINUOUS
 70
     0
  3
Solid line
 72
    65
 73
     0
 40
0.0
  0
LTYPE
  2
CENTER
 70
     0
  3
____ _ ____ _ ____ _ ____ _ ____ _ ____ _ ____
 72
    65
 73
     4
 40
2.0
 49
1.25
 49
-0.25
 49
0.25
 49
-0.25
  0
LTYPE
  2
DASHED
 70
     0
  3
__ __ __ __ __ __ __ __ __ __ __ __ __ __ __
 72
    65
 73
     2
 40
0.75
 49
0.5
 49
-0.25
  0
ENDTAB
  0
TABLE
  2
LAYER
 70
     9
  0
LAYER
  2
0
 70
     0
 62
     7
  6
CONTINUOUS
  0
LAYER
  2
ORIGIN
 70
     0
 62
     6
  6
CONTINUOUS
  0
LAYER
  2
DETAIL
 70
     0
 62
     2
  6
CONTINUOUS
  0
LAYER
  2
DIMENSION
 70
     0
 62
     7
  6
CONTINUOUS
  0
LAYER
  2
PLANNING
 70
     0
 62
     1
  6
DASHED
  0
LAYER
  2
STELTXT
 70
     0
 62
     4
  6
CONTINUOUS
  0
LAYER
  2
STELATT
 70
     0
 62
     7
  6
CONTINUOUS
  0
LAYER
  2
CENTER
 70
     0
 62
     4
  6
CENTER
  0
LAYER
  2
DEFPOINTS
 70
     0
 62
     7
  6
CONTINUOUS
  0
ENDTAB
  0
TABLE
  2
STYLE
 70
     1
  0
STYLE
  2
STANDARD
 70
     0
 40
0.0
 41
1.0
 50
0.0
 71
     0
 42
25.0
  3
simplex.shx
  4

  0
ENDTAB
  0
TABLE
  2
VIEW
 70
     0
  0
ENDTAB
  0
TABLE
  2
UCS
 70
     0
  0
ENDTAB
  0
TABLE
  2
APPID
 70
     1
  0
APPID
  2
ACAD
 70
     0
  0
ENDTAB
  0
TABLE
  2
DIMSTYLE
 70
     1
  0
DIMSTYLE
  2
ISO-25
 70
     0
  3

  4

  5

  6

  7

 40
1.0
 41
25.0
 42
0.625
 43
3.75
 44
1.25
 45
0.0
 46
0.0
 47
0.0
 48
0.0
140
25.0
141
2.5
142
0.0
143
0.03937
144
1.0
145
0.0
146
1.0
147
13.0
 71
     0
 72
     0
 73
     0
 74
     0
 75
     0
 76
     0
 77
     1
 78
     8
170
     0
171
     3
172
     1
173
     0
174
     0
175
     0
176
     0
177
     0
178
     0
  0
ENDTAB
  0
ENDSEC
  0
SECTION
  2
BLOCKS
  0
BLOCK
  8
0
  2
$MODEL_SPACE
 70
     2
 10
0.0
 20
0.0
 30
0.0
  3
$MODEL_SPACE
  1

  0
ENDBLK
  5
A
  8
0
  0
BLOCK
 67
     1
  8
0
  2
$PAPER_SPACE
 70
     0
 10
0.0
 20
0.0
 30
0.0
  3
$PAPER_SPACE
  1

  0
ENDBLK
  5
10
 67
     1
  8
0
  0
BLOCK
  8
0
  2
*D0
 70
     1
 10
0.0
 20
0.0
 30
0.0
  3
*D0
  1

  0
LINE
  5
1B42
  8
DIMENSION
 62
     0
 10
761.25
 20
0.0
 30
0.0
 11
1053.559331
 21
0.0
 31
0.0
  0
LINE
  5
1B43
  8
DIMENSION
 62
     0
 10
260.625
 20
950.0
 30
0.0
 11
1053.559331
 21
950.0
 31
0.0
  0
LINE
  5
1B44
  8
DIMENSION
 62
     0
 10
1052.309331
 20
25.0
 30
0.0
 11
1052.309331
 21
925.0
 31
0.0
  0
SOLID
  5
1B45
  8
DIMENSION
 62
     0
 10
1048.142664
 20
25.0
 30
0.0
 11
1056.475997
 21
25.0
 31
0.0
 12
1052.309331
 22
0.0
 32
0.0
 13
1052.309331
 23
0.0
 33
0.0
  0
SOLID
  5
1B46
  8
DIMENSION
 62
     0
 10
1048.142664
 20
925.0
 30
0.0
 11
1056.475997
 21
925.0
 31
0.0
 12
1052.309331
 22
950.0
 32
0.0
 13
1052.309331
 23
950.0
 33
0.0
  0
TEXT
  5
1B47
  8
0
 62
     0
 10
1039.309331
 20
442.857143
 30
0.0
 40
25.0
  1
950
 50
90.0
  0
POINT
  5
1B48
  8
DEFPOINTS
 62
     0
 10
760.625
 20
0.0
 30
0.0
  0
POINT
  5
1B49
  8
DEFPOINTS
 62
     0
 10
260.0
 20
950.0
 30
0.0
  0
POINT
  5
1B4A
  8
DEFPOINTS
 62
     0
 10
1052.309331
 20
950.0
 30
0.0
  0
ENDBLK
  5
ED
  8
0
  0
BLOCK
  8
0
  2
*D1
 70
     1
 10
0.0
 20
0.0
 30
0.0
  3
*D1
  1

  0
LINE
  5
1ABD
  8
DIMENSION
 62
     0
 10
-760.0
 20
-0.625
 30
0.0
 11
-760.0
 21
-104.392602
 31
0.0
  0
LINE
  5
1ABE
  8
DIMENSION
 62
     0
 10
760.0
 20
-0.625
 30
0.0
 11
760.0
 21
-104.392602
 31
0.0
  0
LINE
  5
1ABF
  8
DIMENSION
 62
     0
 10
-735.0
 20
-103.142602
 30
0.0
 11
735.0
 21
-103.142602
 31
0.0
  0
SOLID
  5
1AC0
  8
DIMENSION
 62
     0
 10
-735.0
 20
-98.975935
 30
0.0
 11
-735.0
 21
-107.309269
 31
0.0
 12
-760.0
 22
-103.142602
 32
0.0
 13
-760.0
 23
-103.142602
 33
0.0
  0
SOLID
  5
1AC1
  8
DIMENSION
 62
     0
 10
735.0
 20
-98.975935
 30
0.0
 11
735.0
 21
-107.309269
 31
0.0
 12
760.0
 22
-103.142602
 32
0.0
 13
760.0
 23
-103.142602
 33
0.0
  0
TEXT
  5
1AC2
  8
0
 62
     0
 10
-41.666667
 20
-90.142602
 30
0.0
 40
25.0
  1
1520
  0
POINT
  5
1AC3
  8
DEFPOINTS
 62
     0
 10
-760.0
 20
0.0
 30
0.0
  0
POINT
  5
1AC4
  8
DEFPOINTS
 62
     0
 10
760.0
 20
0.0
 30
0.0
  0
POINT
  5
1AC5
  8
DEFPOINTS
 62
     0
 10
760.0
 20
-103.142602
 30
0.0
  0
ENDBLK
  5
4A5
  8
0
  0
BLOCK
  8
0
  2
*D2
 70
     1
 10
0.0
 20
0.0
 30
0.0
  3
*D2
  1

  0
LINE
  5
1ACF
  8
DIMENSION
 62
     0
 10
-811.0
 20
1702.625
 30
0.0
 11
-811.0
 21
2008.994227
 31
0.0
  0
LINE
  5
1AD0
  8
DIMENSION
 62
     0
 10
811.0
 20
1702.625
 30
0.0
 11
811.0
 21
2008.994227
 31
0.0
  0
LINE
  5
1AD1
  8
DIMENSION
 62
     0
 10
-786.0
 20
2007.744227
 30
0.0
 11
786.0
 21
2007.744227
 31
0.0
  0
SOLID
  5
1AD2
  8
DIMENSION
 62
     0
 10
-786.0
 20
2011.910893
 30
0.0
 11
-786.0
 21
2003.57756
 31
0.0
 12
-811.0
 22
2007.744227
 32
0.0
 13
-811.0
 23
2007.744227
 33
0.0
  0
SOLID
  5
1AD3
  8
DIMENSION
 62
     0
 10
786.0
 20
2011.910893
 30
0.0
 11
786.0
 21
2003.57756
 31
0.0
 12
811.0
 22
2007.744227
 32
0.0
 13
811.0
 23
2007.744227
 33
0.0
  0
TEXT
  5
1AD4
  8
0
 62
     0
 10
-41.354167
 20
2020.744227
 30
0.0
 40
25.0
  1
1622
  0
POINT
  5
1AD5
  8
DEFPOINTS
 62
     0
 10
-811.0
 20
1702.0
 30
0.0
  0
POINT
  5
1AD6
  8
DEFPOINTS
 62
     0
 10
811.0
 20
1702.0
 30
0.0
  0
POINT
  5
1AD7
  8
DEFPOINTS
 62
     0
 10
811.0
 20
2007.744227
 30
0.0
  0
ENDBLK
  5
4B1
  8
0
  0
BLOCK
  8
0
  2
*D3
 70
     1
 10
0.0
 20
0.0
 30
0.0
  3
*D3
  1

  0
LINE
  5
1AEA
  8
DIMENSION
 62
     0
 10
760.625
 20
0.0
 30
0.0
 11
1201.592242
 21
0.0
 31
0.0
  0
LINE
  5
1AEB
  8
DIMENSION
 62
     0
 10
811.625
 20
1702.0
 30
0.0
 11
1201.592242
 21
1702.0
 31
0.0
  0
LINE
  5
1AEC
  8
DIMENSION
 62
     0
 10
1200.342242
 20
25.0
 30
0.0
 11
1200.342242
 21
1677.0
 31
0.0
  0
SOLID
  5
1AED
  8
DIMENSION
 62
     0
 10
1196.175576
 20
25.0
 30
0.0
 11
1204.508909
 21
25.0
 31
0.0
 12
1200.342242
 22
0.0
 32
0.0
 13
1200.342242
 23
0.0
 33
0.0
  0
SOLID
  5
1AEE
  8
DIMENSION
 62
     0
 10
1196.175576
 20
1677.0
 30
0.0
 11
1204.508909
 21
1677.0
 31
0.0
 12
1200.342242
 22
1702.0
 32
0.0
 13
1200.342242
 23
1702.0
 33
0.0
  0
TEXT
  5
1AEF
  8
0
 62
     0
 10
1187.342242
 20
944.333333
 30
0.0
 40
25.0
  1
1702
 50
90.0
  0
POINT
  5
1AF0
  8
DEFPOINTS
 62
     0
 10
760.0
 20
0.0
 30
0.0
  0
POINT
  5
1AF1
  8
DEFPOINTS
 62
     0
 10
811.0
 20
1702.0
 30
0.0
  0
POINT
  5
1AF2
  8
DEFPOINTS
 62
     0
 10
1200.342242
 20
1702.0
 30
0.0
  0
ENDBLK
  5
4C6
  8
0
  0
BLOCK
  8
0
  2
*D4
 70
     1
 10
0.0
 20
0.0
 30
0.0
  3
*D4
  1

  0
LINE
  5
1B4B
  8
DIMENSION
 62
     0
 10
760.625
 20
0.0
 30
0.0
 11
974.646118
 21
0.0
 31
0.0
  0
LINE
  5
1B4C
  8
DIMENSION
 62
     0
 10
188.125
 20
690.0
 30
0.0
 11
974.646118
 21
690.0
 31
0.0
  0
LINE
  5
1B4D
  8
DIMENSION
 62
     0
 10
973.396118
 20
25.0
 30
0.0
 11
973.396118
 21
665.0
 31
0.0
  0
SOLID
  5
1B4E
  8
DIMENSION
 62
     0
 10
969.229451
 20
25.0
 30
0.0
 11
977.562784
 21
25.0
 31
0.0
 12
973.396118
 22
0.0
 32
0.0
 13
973.396118
 23
0.0
 33
0.0
  0
SOLID
  5
1B4F
  8
DIMENSION
 62
     0
 10
969.229451
 20
665.0
 30
0.0
 11
977.562784
 21
665.0
 31
0.0
 12
973.396118
 22
690.0
 32
0.0
 13
973.396118
 23
690.0
 33
0.0
  0
TEXT
  5
1B50
  8
0
 62
     0
 10
960.396118
 20
265.357143
 30
0.0
 40
25.0
  1
690
 50
90.0
  0
POINT
  5
1B51
  8
DEFPOINTS
 62
     0
 10
760.0
 20
0.0
 30
0.0
  0
POINT
  5
1B52
  8
DEFPOINTS
 62
     0
 10
187.5
 20
690.0
 30
0.0
  0
POINT
  5
1B53
  8
DEFPOINTS
 62
     0
 10
973.396118
 20
690.0
 30
0.0
  0
ENDBLK
  5
4D2
  8
0
  0
BLOCK
  8
0
  2
*D5
 70
     1
 10
0.0
 20
0.0
 30
0.0
  3
*D5
  1

  0
LINE
  5
1AD8
  8
DIMENSION
 62
     0
 10
811.625
 20
1702.0
 30
0.0
 11
1201.592242
 21
1702.0
 31
0.0
  0
LINE
  5
1AD9
  8
DIMENSION
 62
     0
 10
-80.969187
 20
1892.0
 30
0.0
 11
1201.592242
 21
1892.0
 31
0.0
  0
LINE
  5
1ADA
  8
DIMENSION
 62
     0
 10
1200.342242
 20
1727.0
 30
0.0
 11
1200.342242
 21
1867.0
 31
0.0
  0
SOLID
  5
1ADB
  8
DIMENSION
 62
     0
 10
1196.175576
 20
1727.0
 30
0.0
 11
1204.508909
 21
1727.0
 31
0.0
 12
1200.342242
 22
1702.0
 32
0.0
 13
1200.342242
 23
1702.0
 33
0.0
  0
SOLID
  5
1ADC
  8
DIMENSION
 62
     0
 10
1196.175576
 20
1867.0
 30
0.0
 11
1204.508909
 21
1867.0
 31
0.0
 12
1200.342242
 22
1892.0
 32
0.0
 13
1200.342242
 23
1892.0
 33
0.0
  0
TEXT
  5
1ADD
  8
0
 62
     0
 10
1187.342242
 20
1767.238095
 30
0.0
 40
25.0
  1
190
 50
90.0
  0
POINT
  5
1ADE
  8
DEFPOINTS
 62
     0
 10
811.0
 20
1702.0
 30
0.0
  0
POINT
  5
1ADF
  8
DEFPOINTS
 62
     0
 10
-81.594187
 20
1892.0
 30
0.0
  0
POINT
  5
1AE0
  8
DEFPOINTS
 62
     0
 10
1200.342242
 20
1892.0
 30
0.0
  0
ENDBLK
  5
4DE
  8
0
  0
BLOCK
  8
0
  2
*D6
 70
     1
 10
0.0
 20
0.0
 30
0.0
  3
*D6
  1

  0
LINE
  5
1AA9
  8
DIMENSION
 62
     0
 10
761.875
 20
0.0
 30
0.0
 11
870.162493
 21
0.0
 31
0.0
  0
LINE
  5
1AAA
  8
DIMENSION
 62
     0
 10
16.625
 20
75.0
 30
0.0
 11
870.162493
 21
75.0
 31
0.0
  0
LINE
  5
1AAB
  8
DIMENSION
 62
     0
 10
868.912493
 20
-25.0
 30
0.0
 11
868.912493
 21
-50.0
 31
0.0
  0
LINE
  5
1AAC
  8
DIMENSION
 62
     0
 10
868.912493
 20
100.0
 30
0.0
 11
868.912493
 21
125.0
 31
0.0
  0
LINE
  5
1AAD
  8
DIMENSION
 62
     0
 10
868.912493
 20
0.0
 30
0.0
 11
868.912493
 21
75.0
 31
0.0
  0
SOLID
  5
1AAE
  8
DIMENSION
 62
     0
 10
864.745826
 20
-25.0
 30
0.0
 11
873.079159
 21
-25.0
 31
0.0
 12
868.912493
 22
0.0
 32
0.0
 13
868.912493
 23
0.0
 33
0.0
  0
SOLID
  5
1AAF
  8
DIMENSION
 62
     0
 10
864.745826
 20
100.0
 30
0.0
 11
873.079159
 21
100.0
 31
0.0
 12
868.912493
 22
75.0
 32
0.0
 13
868.912493
 23
75.0
 33
0.0
  0
TEXT
  5
1AB0
  8
0
 62
     0
 10
855.912493
 20
17.261905
 30
0.0
 40
25.0
  1
75
 50
90.0
  0
POINT
  5
1AB1
  8
DEFPOINTS
 62
     0
 10
761.25
 20
0.0
 30
0.0
  0
POINT
  5
1AB2
  8
DEFPOINTS
 62
     0
 10
16.0
 20
75.0
 30
0.0
  0
POINT
  5
1AB3
  8
DEFPOINTS
 62
     0
 10
868.912493
 20
75.0
 30
0.0
  0
ENDBLK
  5
BB4
  8
0
  0
BLOCK
  8
0
  2
*D7
 70
     1
 10
0.0
 20
0.0
 30
0.0
  3
*D7
  1

  0
LINE
  5
1B8E
  8
0
 62
     0
 10
130.625
 20
1810.0
 30
0.0
 11
1128.764497
 21
1810.0
 31
0.0
  0
LINE
  5
1B8F
  8
0
 62
     0
 10
760.625
 20
0.0
 30
0.0
 11
1128.764497
 21
0.0
 31
0.0
  0
LINE
  5
1B90
  8
0
 62
     0
 10
1127.514497
 20
1785.0
 30
0.0
 11
1127.514497
 21
25.0
 31
0.0
  0
SOLID
  5
1B91
  8
0
 62
     0
 10
1123.347831
 20
1785.0
 30
0.0
 11
1131.681164
 21
1785.0
 31
0.0
 12
1127.514497
 22
1810.0
 32
0.0
 13
1127.514497
 23
1810.0
 33
0.0
  0
SOLID
  5
1B92
  8
0
 62
     0
 10
1123.347831
 20
25.0
 30
0.0
 11
1131.681164
 21
25.0
 31
0.0
 12
1127.514497
 22
0.0
 32
0.0
 13
1127.514497
 23
0.0
 33
0.0
  0
TEXT
  5
1B93
  8
0
 62
     0
 10
1114.514497
 20
865.714286
 30
0.0
 40
25.0
  1
1810
 50
90.0
  0
POINT
  5
1B94
  8
DEFPOINTS
 62
     0
 10
130.0
 20
1810.0
 30
0.0
  0
POINT
  5
1B95
  8
DEFPOINTS
 62
     0
 10
760.0
 20
0.0
 30
0.0
  0
POINT
  5
1B96
  8
DEFPOINTS
 62
     0
 10
1127.514497
 20
0.0
 30
0.0
  0
ENDBLK
  5
160F
  8
0
  0
ENDSEC
  0
SECTION
  2
ENTITIES
  0
POLYLINE
  5
26
  8
DETAIL
 66
     1
 10
0.0
 20
0.0
 30
0.0
 70
     1
  0
VERTEX
  5
1D46
  8
DETAIL
 10
-216.467297
 20
1799.770543
 30
0.0
  0
VERTEX
  5
1D47
  8
DETAIL
 10
-77.880362
 20
1799.770543
 30
0.0
  0
VERTEX
  5
1D48
  8
DETAIL
 10
-77.880362
 20
1733.409549
 30
0.0
  0
VERTEX
  5
1D49
  8
DETAIL
 10
-216.467297
 20
1733.409549
 30
0.0
  0
SEQEND
  5
1D4A
  8
DETAIL
  0
LINE
  5
28
  8
CENTER
  6
CENTER
 10
260.0
 20
950.0
 30
0.0
 11
-260.0
 21
950.0
 31
0.0
  0
CIRCLE
  5
2C
  8
DETAIL
  6
DASHED
 10
0.0
 20
950.0
 30
0.0
 40
260.0
  0
ATTDEF
  5
2F
  8
STELATT
 10
-93.333333
 20
-400.986484
 30
0.0
 40
40.0
  1
2200
 72
     4
 11
0.0
 21
-380.986484
 31
0.0
  3

  2
MODEL
 70
     2
  0
ATTDEF
  5
33
  8
STELATT
 10
-233.333333
 20
-270.986484
 30
0.0
 40
40.0
  1
IDEAL
 72
     4
 11
0.0
 21
-250.986484
 31
0.0
  3

  2
MANUFACTURER
 70
     2
  0
POLYLINE
  5
34
  8
DETAIL
 66
     1
 10
0.0
 20
0.0
 30
0.0
 70
     1
  0
VERTEX
  5
1D4B
  8
DETAIL
 10
-463.898486
 20
1723.426302
 30
0.0
 42
-0.434513
  0
VERTEX
  5
1D4C
  8
DETAIL
 10
-471.879558
 20
1731.976304
 30
0.0
 42
-0.093472
  0
VERTEX
  5
1D4D
  8
DETAIL
 10
-471.879558
 20
1876.449998
 30
0.0
 42
-0.434513
  0
VERTEX
  5
1D4E
  8
DETAIL
 10
-463.898486
 20
1885.0
 30
0.0
  0
VERTEX
  5
1D4F
  8
DETAIL
 10
-72.363181
 20
1885.0
 30
0.0
 42
-0.434513
  0
VERTEX
  5
1D50
  8
DETAIL
 10
-64.38211
 20
1876.449998
 30
0.0
 42
-0.093472
  0
VERTEX
  5
1D51
  8
DETAIL
 10
-64.38211
 20
1731.976304
 30
0.0
 42
-0.434513
  0
VERTEX
  5
1D52
  8
DETAIL
 10
-72.363181
 20
1723.426302
 30
0.0
  0
SEQEND
  5
1D53
  8
DETAIL
  0
POLYLINE
  5
35
  8
DETAIL
 66
     1
 10
0.0
 20
0.0
 30
0.0
 70
     1
  0
VERTEX
  5
1D54
  8
DETAIL
 10
-463.898486
 20
1716.426302
 30
0.0
 42
-0.414214
  0
VERTEX
  5
1D55
  8
DETAIL
 10
-478.898486
 20
1731.426302
 30
0.0
 42
-0.092505
  0
VERTEX
  5
1D56
  8
DETAIL
 10
-478.898486
 20
1877.0
 30
0.0
 42
-0.414214
  0
VERTEX
  5
1D57
  8
DETAIL
 10
-463.898486
 20
1892.0
 30
0.0
  0
VERTEX
  5
1D58
  8
DETAIL
 10
-72.363181
 20
1892.0
 30
0.0
 42
-0.414214
  0
VERTEX
  5
1D59
  8
DETAIL
 10
-57.363181
 20
1877.0
 30
0.0
 42
-0.092505
  0
VERTEX
  5
1D5A
  8
DETAIL
 10
-57.363181
 20
1731.426302
 30
0.0
 42
-0.414214
  0
VERTEX
  5
1D5B
  8
DETAIL
 10
-72.363181
 20
1716.426302
 30
0.0
  0
SEQEND
  5
1D5C
  8
DETAIL
  0
DIMENSION
  5
36
  8
DIMENSION
  2
*D2
 10
811.0
 20
2007.744227
 30
0.0
 11
0.3125
 21
2007.744227
 31
0.0
 70
   128
 13
-811.0
 23
1702.0
 33
0.0
 14
811.0
 24
1702.0
 34
0.0
  0
LINE
  5
47
  8
DETAIL
 10
-811.0
 20
1702.0
 30
0.0
 11
811.0
 21
1702.0
 31
0.0
  0
LINE
  5
48
  8
DETAIL
 10
-760.0
 20
1627.0
 30
0.0
 11
760.0
 21
1627.0
 31
0.0
  0
LINE
  5
49
  8
PLANNING
 10
911.0
 20
1892.0
 30
0.0
 11
-1011.0
 21
1892.0
 31
0.0
  0
LINE
  5
4C
  8
DETAIL
 10
760.0
 20
0.0
 30
0.0
 11
-760.0
 21
0.0
 31
0.0
  0
DIMENSION
  5
4D
  8
DIMENSION
  2
*D1
 10
760.0
 20
-103.142602
 30
0.0
 11
0.0
 21
-103.142602
 31
0.0
 70
   128
 13
-760.0
 23
0.0
 33
0.0
 14
760.0
 24
0.0
 34
0.0
  0
LINE
  5
5C
  8
DETAIL
 10
760.0
 20
100.0
 30
0.0
 11
-760.0
 21
100.0
 31
0.0
  0
LINE
  5
5D
  8
PLANNING
 10
-1011.0
 20
0.0
 30
0.0
 11
911.0
 21
0.0
 31
0.0
  0
LINE
  5
5E
  8
CENTER
  6
CENTER
 10
0.0
 20
0.0
 30
0.0
 11
0.0
 21
1810.0
 31
0.0
  0
LINE
  5
5F
  8
DETAIL
 10
-811.0
 20
1702.0
 30
0.0
 11
-811.0
 21
100.0
 31
0.0
  0
LINE
  5
60
  8
DETAIL
 10
-760.0
 20
1652.0
 30
0.0
 11
-760.0
 21
100.0
 31
0.0
  0
LINE
  5
62
  8
PLANNING
 10
-1011.0
 20
1892.0
 30
0.0
 11
-1011.0
 21
0.0
 31
0.0
  0
TEXT
  5
63
  8
STELTXT
 10
-1225.750622
 20
578.996306
 30
0.0
 40
25.0
  1
WITH GASKET
  0
TEXT
  5
65
  8
STELTXT
 10
-1225.750622
 20
620.662972
 30
0.0
 40
25.0
  1
BURNER DOOR
  0
TEXT
  5
66
  8
STELTXT
 10
-1220.229397
 20
874.32626
 30
0.0
 40
25.0
  1
WINDOW
  0
TEXT
  5
67
  8
STELTXT
 10
-1220.229397
 20
917.147445
 30
0.0
 40
25.0
  1
FLAME INSPECTION
  0
POLYLINE
  5
68
  8
STELTXT
 66
     1
 10
0.0
 20
0.0
 30
0.0
1001
ACAD
1000
DSTYLE
1002
{
1070
     5
1000

1070
    77
1070
     0
1070
   147
1040
13.0
1002
}
  0
VERTEX
  5
1D5D
  8
STELTXT
 10
-49.151621
 20
77.217306
 30
0.0
  0
VERTEX
  5
1D5E
  8
STELTXT
 10
-1103.455617
 20
77.217306
 30
0.0
  0
SEQEND
  5
1D5F
  8
STELTXT
  0
TEXT
  5
69
  8
STELTXT
 10
-1220.229397
 20
64.717306
 30
0.0
 40
25.0
  1
DRAIN
  0
ATTDEF
  5
6A
  8
STELATT
 10
-68.571429
 20
-335.986484
 30
0.0
 40
40.0
  1
VANGUARD L
 72
     4
 11
0.0
 21
-315.986484
 31
0.0
  3

  2
TYPE
 70
     2
  0
POLYLINE
  5
6B
  8
STELTXT
 66
     1
 10
0.0
 20
0.0
 30
0.0
1001
ACAD
1000
DSTYLE
1002
{
1070
     5
1000

1070
    77
1070
     0
1070
   147
1040
13.0
1002
}
  0
VERTEX
  5
1D60
  8
STELTXT
 10
-326.131004
 20
929.647445
 30
0.0
  0
VERTEX
  5
1D61
  8
STELTXT
 10
-858.637735
 20
929.647445
 30
0.0
  0
SEQEND
  5
1D62
  8
STELTXT
  0
POLYLINE
  5
6C
  8
STELTXT
 66
     1
 10
0.0
 20
0.0
 30
0.0
1001
ACAD
1000
DSTYLE
1002
{
1070
   147
1040
13.0
1070
    77
1070
     0
1002
}
  0
VERTEX
  5
1D63
  8
STELTXT
 10
-115.970281
 20
612.14636
 30
0.0
  0
VERTEX
  5
1D64
  8
STELTXT
 10
-939.049793
 20
611.975493
 30
0.0
  0
SEQEND
  5
1D65
  8
STELTXT
  0
LINE
  5
6D
  8
DETAIL
 10
-811.0
 20
100.0
 30
0.0
 11
-760.0
 21
100.0
 31
0.0
  0
LINE
  5
6E
  8
DETAIL
 10
-760.0
 20
100.0
 30
0.0
 11
-760.0
 21
0.0
 31
0.0
  0
POLYLINE
  5
6F
  8
ORIGIN
 66
     1
 10
0.0
 20
0.0
 30
0.0
 70
     1
  0
VERTEX
  5
1D66
  8
ORIGIN
 10
37.5
 20
-37.5
 30
0.0
  0
VERTEX
  5
1D67
  8
ORIGIN
 10
-37.5
 20
37.5
 30
0.0
  0
VERTEX
  5
1D68
  8
ORIGIN
 10
-37.5
 20
-37.5
 30
0.0
  0
VERTEX
  5
1D69
  8
ORIGIN
 10
37.5
 20
37.5
 30
0.0
  0
SEQEND
  5
1D6A
  8
ORIGIN
  0
SOLID
  5
71
  8
STELTXT
 10
-49.151621
 20
81.383973
 30
0.0
 11
-24.151621
 21
77.217306
 31
0.0
 12
-49.151621
 22
73.050639
 32
0.0
 13
-49.151621
 23
73.050639
 33
0.0
1001
ACAD
1000
DSTYLE
1002
{
1070
     5
1000

1070
    77
1070
     0
1070
   147
1040
13.0
1002
}
  0
CIRCLE
  5
72
  8
DETAIL
  6
DASHED
 10
0.0
 20
75.0
 30
0.0
 40
16.0
  0
SOLID
  5
74
  8
STELTXT
 10
-326.131004
 20
933.814111
 30
0.0
 11
-301.131004
 21
929.647445
 31
0.0
 12
-326.131004
 22
925.480778
 32
0.0
 13
-326.131004
 23
925.480778
 33
0.0
1001
ACAD
1000
DSTYLE
1002
{
1070
     5
1000

1070
    77
1070
     0
1070
   147
1040
13.0
1002
}
  0
SOLID
  5
7B
  8
STELTXT
 10
-115.970281
 20
607.979693
 30
0.0
 11
-90.970281
 21
612.14636
 31
0.0
 12
-115.970281
 22
616.313027
 32
0.0
 13
-115.970281
 23
616.313027
 33
0.0
1001
ACAD
1000
DSTYLE
1002
{
1070
     5
1000

1070
    77
1070
     0
1070
   147
1040
13.0
1002
}
  0
LINE
  5
7E
  8
DETAIL
 10
-760.0
 20
1652.0
 30
0.0
 11
-811.0
 21
1652.0
 31
0.0
  0
LINE
  5
7F
  8
DETAIL
 10
-463.355802
 20
1716.426302
 30
0.0
 11
-463.355802
 21
1702.0
 31
0.0
  0
TEXT
  5
80
  8
STELTXT
 10
39.871112
 20
1246.814057
 30
0.0
 40
25.0
  1
CENTRE LINE
 50
90.0
  0
TEXT
  5
81
  8
STELTXT
 10
-12.559787
 20
1253.589802
 30
0.0
 40
25.0
  1
FLUE
 50
90.0
  0
POLYLINE
  5
82
  8
DETAIL
 66
     1
 10
0.0
 20
0.0
 30
0.0
 70
     1
  0
VERTEX
  5
1D6B
  8
DETAIL
 10
-396.665877
 20
1782.364203
 30
0.0
  0
VERTEX
  5
1D6C
  8
DETAIL
 10
-366.323857
 20
1782.364203
 30
0.0
  0
VERTEX
  5
1D6D
  8
DETAIL
 10
-366.323857
 20
1759.664904
 30
0.0
  0
VERTEX
  5
1D6E
  8
DETAIL
 10
-396.665877
 20
1759.664904
 30
0.0
  0
SEQEND
  5
1D6F
  8
DETAIL
  0
POLYLINE
  5
83
  8
DETAIL
 66
     1
 10
0.0
 20
0.0
 30
0.0
 70
     1
  0
VERTEX
  5
1D70
  8
DETAIL
 10
-396.665877
 20
1752.859113
 30
0.0
  0
VERTEX
  5
1D71
  8
DETAIL
 10
-366.323857
 20
1752.859113
 30
0.0
  0
VERTEX
  5
1D72
  8
DETAIL
 10
-366.323857
 20
1730.1598
 30
0.0
  0
VERTEX
  5
1D73
  8
DETAIL
 10
-396.665877
 20
1730.1598
 30
0.0
  0
SEQEND
  5
1D74
  8
DETAIL
  0
POLYLINE
  5
84
  8
DETAIL
 66
     1
 10
0.0
 20
0.0
 30
0.0
 70
     1
  0
VERTEX
  5
1D75
  8
DETAIL
 10
-396.665877
 20
1814.581742
 30
0.0
  0
VERTEX
  5
1D76
  8
DETAIL
 10
-366.323857
 20
1814.581742
 30
0.0
  0
VERTEX
  5
1D77
  8
DETAIL
 10
-366.323857
 20
1791.02611
 30
0.0
  0
VERTEX
  5
1D78
  8
DETAIL
 10
-396.665877
 20
1791.02611
 30
0.0
  0
SEQEND
  5
1D79
  8
DETAIL
  0
POLYLINE
  5
85
  8
DETAIL
 66
     1
 10
0.0
 20
0.0
 30
0.0
 70
     1
  0
VERTEX
  5
1D7A
  8
DETAIL
 10
-398.339732
 20
1849.605834
 30
0.0
  0
VERTEX
  5
1D7B
  8
DETAIL
 10
-367.997712
 20
1849.605834
 30
0.0
  0
VERTEX
  5
1D7C
  8
DETAIL
 10
-367.997712
 20
1822.624952
 30
0.0
  0
VERTEX
  5
1D7D
  8
DETAIL
 10
-398.339732
 20
1822.624952
 30
0.0
  0
SEQEND
  5
1D7E
  8
DETAIL
  0
LINE
  5
86
  8
DETAIL
 10
-496.261668
 20
1815.169187
 30
0.0
 11
-496.261668
 21
1792.087099
 31
0.0
  0
LINE
  5
87
  8
DETAIL
 10
-496.261668
 20
1815.169187
 30
0.0
 11
-485.480376
 21
1815.169187
 31
0.0
  0
LINE
  5
88
  8
DETAIL
 10
-496.261668
 20
1792.087099
 30
0.0
 11
-485.44633
 21
1792.087099
 31
0.0
  0
LINE
  5
89
  8
DETAIL
 10
-409.911578
 20
1885.0
 30
0.0
 11
-409.911578
 21
1723.426302
 31
0.0
  0
LINE
  5
8A
  8
DETAIL
 10
-294.42243
 20
1885.0
 30
0.0
 11
-294.42243
 21
1723.426302
 31
0.0
  0
LINE
  5
8B
  8
DETAIL
 10
-352.167025
 20
1885.0
 30
0.0
 11
-352.167025
 21
1723.426302
 31
0.0
  0
CIRCLE
  5
8C
  8
DETAIL
 10
-326.565471
 20
1837.196242
 30
0.0
 40
19.193013
  0
POLYLINE
  5
8D
  8
DETAIL
 66
     1
 10
0.0
 20
0.0
 30
0.0
 70
     1
  0
VERTEX
  5
1D7F
  8
DETAIL
 10
-347.180266
 20
1751.195858
 30
0.0
  0
VERTEX
  5
1D80
  8
DETAIL
 10
-298.888164
 20
1751.195858
 30
0.0
  0
VERTEX
  5
1D81
  8
DETAIL
 10
-298.888164
 20
1730.1598
 30
0.0
  0
VERTEX
  5
1D82
  8
DETAIL
 10
-347.180266
 20
1730.1598
 30
0.0
  0
SEQEND
  5
1D83
  8
DETAIL
  0
CIRCLE
  5
8E
  8
DETAIL
 10
-324.891615
 20
1793.267986
 30
0.0
 40
12.99286
  0
LINE
  5
8F
  8
DETAIL
 10
-230.90342
 20
1885.0
 30
0.0
 11
-230.90342
 21
1723.426302
 31
0.0
  0
CIRCLE
  5
90
  8
DETAIL
 10
-262.662956
 20
1808.224173
 30
0.0
 40
21.547581
  0
CIRCLE
  5
91
  8
DETAIL
 10
-262.662956
 20
1755.63401
 30
0.0
 40
21.761966
  0
LINE
  5
92
  8
PLANNING
 10
911.0
 20
1892.0
 30
0.0
 11
911.0
 21
0.0
 31
0.0
  0
LINE
  5
93
  8
DETAIL
 10
811.0
 20
1702.0
 30
0.0
 11
811.0
 21
100.0
 31
0.0
  0
LINE
  5
94
  8
DETAIL
 10
760.0
 20
1652.0
 30
0.0
 11
760.0
 21
100.0
 31
0.0
  0
DIMENSION
  5
96
  8
DIMENSION
  2
*D3
 10
1200.342242
 20
1702.0
 30
0.0
 11
1200.342242
 21
986.0
 31
0.0
 70
   128
 13
760.0
 23
0.0
 33
0.0
 14
811.0
 24
1702.0
 34
0.0
 50
90.0
  0
DIMENSION
  5
A3
  8
DIMENSION
  2
*D0
 10
1052.309331
 20
950.0
 30
0.0
 11
1026.809331
 21
475.0
 31
0.0
 70
     0
 13
760.625
 23
0.0
 33
0.0
 14
260.0
 24
950.0
 34
0.0
 50
90.0
  0
DIMENSION
  5
B0
  8
DIMENSION
  2
*D4
 10
973.396118
 20
690.0
 30
0.0
 11
973.396118
 21
297.5
 31
0.0
 70
   128
 13
760.0
 23
0.0
 33
0.0
 14
187.5
 24
690.0
 34
0.0
 50
90.0
  0
LINE
  5
BF
  8
DETAIL
 10
760.0
 20
100.0
 30
0.0
 11
811.0
 21
100.0
 31
0.0
  0
LINE
  5
C0
  8
DETAIL
 10
760.0
 20
0.0
 30
0.0
 11
760.0
 21
100.0
 31
0.0
  0
POLYLINE
  5
C6
  8
STELTXT
 66
     1
 10
0.0
 20
0.0
 30
0.0
1001
ACAD
1000
DSTYLE
1002
{
1070
   147
1040
13.0
1070
    77
1070
     0
1002
}
  0
VERTEX
  5
1D84
  8
STELTXT
 10
-99.526308
 20
1859.695918
 30
0.0
  0
VERTEX
  5
1D85
  8
STELTXT
 10
920.805688
 20
2005.204651
 30
0.0
  0
SEQEND
  5
1D86
  8
STELTXT
  0
DIMENSION
  5
C7
  8
DIMENSION
  2
*D5
 10
1200.342242
 20
1892.0
 30
0.0
 11
1174.842242
 21
1797.0
 31
0.0
 70
     0
 13
811.0
 23
1702.0
 33
0.0
 14
-81.594187
 24
1892.0
 34
0.0
 50
90.0
  0
LINE
  5
D4
  8
DETAIL
 10
-72.905866
 20
1716.426302
 30
0.0
 11
-72.905866
 21
1702.0
 31
0.0
  0
LINE
  5
D5
  8
DETAIL
 10
760.0
 20
1652.0
 30
0.0
 11
811.0
 21
1652.0
 31
0.0
  0
SOLID
  5
D6
  8
STELTXT
 10
-98.655057
 20
1855.621359
 30
0.0
 11
-144.749639
 21
1846.1753
 31
0.0
 12
-100.397558
 22
1863.770478
 32
0.0
 13
-100.397558
 23
1863.770478
 33
0.0
1001
ACAD
1000
DSTYLE
1002
{
1070
   147
1040
13.0
1070
    77
1070
     0
1002
}
  0
LINE
  5
D7
  8
DETAIL
 10
-40.0
 20
1815.169187
 30
0.0
 11
-50.781292
 21
1815.169187
 31
0.0
  0
LINE
  5
D8
  8
DETAIL
 10
-40.0
 20
1792.087099
 30
0.0
 11
-50.815337
 21
1792.087099
 31
0.0
  0
LINE
  5
D9
  8
DETAIL
 10
-40.0
 20
1815.169187
 30
0.0
 11
-40.0
 21
1792.087099
 31
0.0
  0
TEXT
  5
DA
  8
STELTXT
 10
933.805688
 20
1972.316287
 30
0.0
 40
25.0
  1
PANEL
  0
TEXT
  5
DB
  8
STELTXT
 10
933.805688
 20
2013.982954
 30
0.0
 40
25.0
  1
CONTROL
  0
DIMENSION
  5
BA8
  8
DIMENSION
  2
*D6
 10
868.912493
 20
75.0
 30
0.0
 11
843.412493
 21
37.5
 31
0.0
 70
     0
 13
761.25
 23
0.0
 33
0.0
 14
16.0
 24
75.0
 34
0.0
 50
90.0
  0
DIMENSION
  5
1603
  8
0
  2
*D7
 10
1127.514497
 20
0.0
 30
0.0
 11
1102.014497
 21
905.0
 31
0.0
 70
     0
 13
130.0
 23
1810.0
 33
0.0
 14
760.0
 24
0.0
 34
0.0
 50
90.0
  0
LINE
  5
161B
  8
DETAIL
 10
-40.0
 20
1810.0
 30
0.0
 11
130.0
 21
1810.0
 31
0.0
  0
LINE
  5
161C
  8
DETAIL
 10
100.0
 20
1702.0
 30
0.0
 11
100.0
 21
1800.0
 31
0.0
  0
LINE
  5
162F
  8
DETAIL
 10
130.0
 20
1800.0
 30
0.0
 11
130.0
 21
1810.0
 31
0.0
  0
LINE
  5
1639
  8
DETAIL
 10
-40.0
 20
1800.0
 30
0.0
 11
130.0
 21
1800.0
 31
0.0
  0
LINE
  5
18DF
  8
DETAIL
 10
187.5
 20
502.5
 30
0.0
 11
-187.5
 21
502.5
 31
0.0
  0
LINE
  5
18E0
  8
DETAIL
 10
187.5
 20
877.5
 30
0.0
 11
-187.5
 21
877.5
 31
0.0
  0
LINE
  5
18E1
  8
DETAIL
 10
-187.5
 20
502.5
 30
0.0
 11
-187.5
 21
877.5
 31
0.0
  0
CIRCLE
  5
18E2
  8
DETAIL
 10
-165.0
 20
525.0
 30
0.0
 40
12.0
  0
CIRCLE
  5
18E3
  8
DETAIL
 10
-165.0
 20
525.0
 30
0.0
 40
9.0
  0
CIRCLE
  5
18E4
  8
DETAIL
 10
-261.400833
 20
929.478676
 30
0.0
 40
40.0
  0
CIRCLE
  5
18E5
  8
DETAIL
 10
-261.400833
 20
929.478676
 30
0.0
 40
36.0
  0
CIRCLE
  5
18E6
  8
DETAIL
 10
-165.0
 20
855.0
 30
0.0
 40
12.0
  0
CIRCLE
  5
18E7
  8
DETAIL
 10
-165.0
 20
855.0
 30
0.0
 40
9.0
  0
CIRCLE
  5
18E8
  8
DETAIL
 10
0.0
 20
690.0
 30
0.0
 40
150.0
  0
LINE
  5
18E9
  8
CENTER
  6
CENTER
 10
150.0
 20
690.0
 30
0.0
 11
-150.0
 21
690.0
 31
0.0
  0
CIRCLE
  5
18EA
  8
DETAIL
 10
165.0
 20
525.0
 30
0.0
 40
12.0
  0
CIRCLE
  5
18EB
  8
DETAIL
 10
165.0
 20
525.0
 30
0.0
 40
9.0
  0
CIRCLE
  5
18EC
  8
DETAIL
 10
165.0
 20
855.0
 30
0.0
 40
12.0
  0
CIRCLE
  5
18ED
  8
DETAIL
 10
165.0
 20
855.0
 30
0.0
 40
9.0
  0
LINE
  5
18EE
  8
DETAIL
 10
187.5
 20
502.5
 30
0.0
 11
187.5
 21
877.5
 31
0.0
  0
ENDSEC
  0
EOF
