  0
SECTION
  2
HEADER
  9
$ACADVER
  1
AC1009
  9
$INSBASE
 10
0.0
 20
0.0
 30
0.0
  9
$EXTMIN
 10
-1237.299303
 20
-3641.373395
 30
0.0
  9
$EXTMAX
 10
1522.070622
 20
3740.387245
 30
0.0
  9
$LIMMIN
 10
0.0
 20
0.0
  9
$LIMMAX
 10
420.0
 20
297.0
  9
$ORTHOMODE
 70
     1
  9
$REGENMODE
 70
     1
  9
$FILLMODE
 70
     1
  9
$QTEXTMODE
 70
     0
  9
$MIRRTEXT
 70
     1
  9
$DRAGMODE
 70
     2
  9
$LTSCALE
 40
1.0
  9
$OSMODE
 70
     0
  9
$ATTMODE
 70
     2
  9
$TEXTSIZE
 40
25.0
  9
$TRACEWID
 40
1.0
  9
$TEXTSTYLE
  7
STANDARD
  9
$CLAYER
  8
0
  9
$CELTYPE
  6
BYLAYER
  9
$CECOLOR
 62
   256
  9
$DIMSCALE
 40
1.0
  9
$DIMASZ
 40
25.0
  9
$DIMEXO
 40
0.625
  9
$DIMDLI
 40
3.75
  9
$DIMRND
 40
0.0
  9
$DIMDLE
 40
0.0
  9
$DIMEXE
 40
1.25
  9
$DIMTP
 40
0.0
  9
$DIMTM
 40
0.0
  9
$DIMTXT
 40
25.0
  9
$DIMCEN
 40
2.5
  9
$DIMTSZ
 40
0.0
  9
$DIMTOL
 70
     0
  9
$DIMLIM
 70
     0
  9
$DIMTIH
 70
     0
  9
$DIMTOH
 70
     0
  9
$DIMSE1
 70
     0
  9
$DIMSE2
 70
     0
  9
$DIMTAD
 70
     1
  9
$DIMZIN
 70
     8
  9
$DIMBLK
  1

  9
$DIMASO
 70
     1
  9
$DIMSHO
 70
     1
  9
$DIMPOST
  1

  9
$DIMAPOST
  1

  9
$DIMALT
 70
     0
  9
$DIMALTD
 70
     3
  9
$DIMALTF
 40
0.03937
  9
$DIMLFAC
 40
1.0
  9
$DIMTOFL
 70
     1
  9
$DIMTVP
 40
0.0
  9
$DIMTIX
 70
     0
  9
$DIMSOXD
 70
     0
  9
$DIMSAH
 70
     0
  9
$DIMBLK1
  1

  9
$DIMBLK2
  1

  9
$DIMSTYLE
  2
ISO-25
  9
$DIMCLRD
 70
     0
  9
$DIMCLRE
 70
     0
  9
$DIMCLRT
 70
     0
  9
$DIMTFAC
 40
1.0
  9
$DIMGAP
 40
13.0
  9
$LUNITS
 70
     2
  9
$LUPREC
 70
     4
  9
$SKETCHINC
 40
1.0
  9
$FILLETRAD
 40
10.0
  9
$AUNITS
 70
     0
  9
$AUPREC
 70
     0
  9
$MENU
  1
.
  9
$ELEVATION
 40
0.0
  9
$PELEVATION
 40
0.0
  9
$THICKNESS
 40
0.0
  9
$LIMCHECK
 70
     0
  9
$BLIPMODE
 70
     0
  9
$CHAMFERA
 40
10.0
  9
$CHAMFERB
 40
10.0
  9
$SKPOLY
 70
     0
  9
$TDCREATE
 40
2452706.626866
  9
$TDUPDATE
 40
2453073.534407
  9
$TDINDWG
 40
0.354998
  9
$TDUSRTIMER
 40
0.354998
  9
$USRTIMER
 70
     1
  9
$ANGBASE
 50
0.0
  9
$ANGDIR
 70
     0
  9
$PDMODE
 70
     0
  9
$PDSIZE
 40
0.0
  9
$PLINEWID
 40
0.0
  9
$COORDS
 70
     1
  9
$SPLFRAME
 70
     0
  9
$SPLINETYPE
 70
     6
  9
$SPLINESEGS
 70
     8
  9
$ATTDIA
 70
     0
  9
$ATTREQ
 70
     1
  9
$HANDLING
 70
 22529
  9
$HANDSEED
  5
CF9
  9
$SURFTAB1
 70
     6
  9
$SURFTAB2
 70
     6
  9
$SURFTYPE
 70
     6
  9
$SURFU
 70
     6
  9
$SURFV
 70
     6
  9
$UCSNAME
  2

  9
$UCSORG
 10
0.0
 20
0.0
 30
0.0
  9
$UCSXDIR
 10
1.0
 20
0.0
 30
0.0
  9
$UCSYDIR
 10
0.0
 20
1.0
 30
0.0
  9
$PUCSNAME
  2

  9
$PUCSORG
 10
0.0
 20
0.0
 30
0.0
  9
$PUCSXDIR
 10
1.0
 20
0.0
 30
0.0
  9
$PUCSYDIR
 10
0.0
 20
1.0
 30
0.0
  9
$USERI1
 70
     0
  9
$USERI2
 70
     0
  9
$USERI3
 70
     0
  9
$USERI4
 70
     0
  9
$USERI5
 70
     0
  9
$USERR1
 40
0.0
  9
$USERR2
 40
0.0
  9
$USERR3
 40
0.0
  9
$USERR4
 40
0.0
  9
$USERR5
 40
0.0
  9
$WORLDVIEW
 70
     1
  9
$SHADEDGE
 70
     3
  9
$SHADEDIF
 70
    70
  9
$TILEMODE
 70
     1
  9
$MAXACTVP
 70
    48
  9
$PLIMCHECK
 70
     0
  9
$PEXTMIN
 10
1.000000E+020
 20
1.000000E+020
 30
1.000000E+020
  9
$PEXTMAX
 10
-1.000000E+020
 20
-1.000000E+020
 30
-1.000000E+020
  9
$PLIMMIN
 10
0.0
 20
0.0
  9
$PLIMMAX
 10
420.0
 20
297.0
  9
$UNITMODE
 70
     0
  9
$VISRETAIN
 70
     1
  9
$PLINEGEN
 70
     0
  9
$PSLTSCALE
 70
     1
  0
ENDSEC
  0
SECTION
  2
TABLES
  0
TABLE
  2
VPORT
 70
     2
  0
VPORT
  2
*ACTIVE
 70
     0
 10
0.0
 20
0.0
 11
1.0
 21
1.0
 12
142.38566
 22
49.506925
 13
0.0
 23
0.0
 14
10.0
 24
10.0
 15
10.0
 25
10.0
 16
0.0
 26
0.0
 36
1.0
 17
0.0
 27
0.0
 37
0.0
 40
7466.771319
 41
1.825
 42
50.0
 43
0.0
 44
0.0
 50
0.0
 51
0.0
 71
     0
 72
   100
 73
     1
 74
     3
 75
     0
 76
     0
 77
     0
 78
     0
  0
ENDTAB
  0
TABLE
  2
LTYPE
 70
     3
  0
LTYPE
  2
CONTINUOUS
 70
     0
  3
Solid line
 72
    65
 73
     0
 40
0.0
  0
LTYPE
  2
CENTER
 70
     0
  3
____ _ ____ _ ____ _ ____ _ ____ _ ____ _ ____
 72
    65
 73
     4
 40
2.0
 49
1.25
 49
-0.25
 49
0.25
 49
-0.25
  0
LTYPE
  2
DASHED
 70
     0
  3
__ __ __ __ __ __ __ __ __ __ __ __ __ __ __
 72
    65
 73
     2
 40
0.75
 49
0.5
 49
-0.25
  0
ENDTAB
  0
TABLE
  2
LAYER
 70
     9
  0
LAYER
  2
0
 70
     0
 62
     7
  6
CONTINUOUS
  0
LAYER
  2
ORIGIN
 70
     0
 62
     6
  6
CONTINUOUS
  0
LAYER
  2
DETAIL
 70
     0
 62
     2
  6
CONTINUOUS
  0
LAYER
  2
DIMENSION
 70
     0
 62
     7
  6
CONTINUOUS
  0
LAYER
  2
PLANNING
 70
     0
 62
     1
  6
DASHED
  0
LAYER
  2
STELTXT
 70
     0
 62
     4
  6
CONTINUOUS
  0
LAYER
  2
STELATT
 70
     0
 62
     7
  6
CONTINUOUS
  0
LAYER
  2
CENTER
 70
     0
 62
     4
  6
CENTER
  0
LAYER
  2
DEFPOINTS
 70
     0
 62
     7
  6
CONTINUOUS
  0
ENDTAB
  0
TABLE
  2
STYLE
 70
     1
  0
STYLE
  2
STANDARD
 70
     0
 40
0.0
 41
1.0
 50
0.0
 71
     0
 42
25.0
  3
simplex.shx
  4

  0
ENDTAB
  0
TABLE
  2
VIEW
 70
     0
  0
ENDTAB
  0
TABLE
  2
UCS
 70
     0
  0
ENDTAB
  0
TABLE
  2
APPID
 70
     1
  0
APPID
  2
ACAD
 70
     0
  0
ENDTAB
  0
TABLE
  2
DIMSTYLE
 70
     1
  0
DIMSTYLE
  2
ISO-25
 70
     0
  3

  4

  5

  6

  7

 40
1.0
 41
25.0
 42
0.625
 43
3.75
 44
1.25
 45
0.0
 46
0.0
 47
0.0
 48
0.0
140
25.0
141
2.5
142
0.0
143
0.03937
144
1.0
145
0.0
146
1.0
147
13.0
 71
     0
 72
     0
 73
     0
 74
     0
 75
     0
 76
     0
 77
     1
 78
     8
170
     0
171
     3
172
     1
173
     0
174
     0
175
     0
176
     0
177
     0
178
     0
  0
ENDTAB
  0
ENDSEC
  0
SECTION
  2
BLOCKS
  0
BLOCK
  8
0
  2
$MODEL_SPACE
 70
     2
 10
0.0
 20
0.0
 30
0.0
  3
$MODEL_SPACE
  1

  0
ENDBLK
  5
A
  8
0
  0
BLOCK
 67
     1
  8
0
  2
$PAPER_SPACE
 70
     0
 10
0.0
 20
0.0
 30
0.0
  3
$PAPER_SPACE
  1

  0
ENDBLK
  5
10
 67
     1
  8
0
  0
BLOCK
  8
0
  2
*D0
 70
     1
 10
0.0
 20
0.0
 30
0.0
  3
*D0
  1

  0
LINE
  5
A65
  8
DIMENSION
 62
     0
 10
-811.0
 20
2951.625
 30
0.0
 11
-811.0
 21
3417.939525
 31
0.0
  0
LINE
  5
A66
  8
DIMENSION
 62
     0
 10
811.0
 20
2951.625
 30
0.0
 11
811.0
 21
3417.939525
 31
0.0
  0
LINE
  5
A67
  8
DIMENSION
 62
     0
 10
-786.0
 20
3416.689525
 30
0.0
 11
786.0
 21
3416.689525
 31
0.0
  0
SOLID
  5
A68
  8
DIMENSION
 62
     0
 10
-786.0
 20
3420.856192
 30
0.0
 11
-786.0
 21
3412.522859
 31
0.0
 12
-811.0
 22
3416.689525
 32
0.0
 13
-811.0
 23
3416.689525
 33
0.0
  0
SOLID
  5
A69
  8
DIMENSION
 62
     0
 10
786.0
 20
3420.856192
 30
0.0
 11
786.0
 21
3412.522859
 31
0.0
 12
811.0
 22
3416.689525
 32
0.0
 13
811.0
 23
3416.689525
 33
0.0
  0
TEXT
  5
A6A
  8
0
 62
     0
 10
-41.979167
 20
3429.689525
 30
0.0
 40
25.0
  1
1622
  0
POINT
  5
A6B
  8
DEFPOINTS
 62
     0
 10
-811.0
 20
2951.0
 30
0.0
  0
POINT
  5
A6C
  8
DEFPOINTS
 62
     0
 10
811.0
 20
2951.0
 30
0.0
  0
POINT
  5
A6D
  8
DEFPOINTS
 62
     0
 10
811.0
 20
3416.689525
 30
0.0
  0
ENDBLK
  5
F2
  8
0
  0
BLOCK
  8
0
  2
*D1
 70
     1
 10
0.0
 20
0.0
 30
0.0
  3
*D1
  1

  0
LINE
  5
A9B
  8
DIMENSION
 62
     0
 10
-811.625
 20
2951.0
 30
0.0
 11
-1089.725879
 21
2951.0
 31
0.0
  0
LINE
  5
A9C
  8
DIMENSION
 62
     0
 10
-63.125
 20
2290.0
 30
0.0
 11
-1089.725879
 21
2290.0
 31
0.0
  0
LINE
  5
A9D
  8
DIMENSION
 62
     0
 10
-1088.475879
 20
2926.0
 30
0.0
 11
-1088.475879
 21
2315.0
 31
0.0
  0
SOLID
  5
A9E
  8
DIMENSION
 62
     0
 10
-1092.642546
 20
2926.0
 30
0.0
 11
-1084.309213
 21
2926.0
 31
0.0
 12
-1088.475879
 22
2951.0
 32
0.0
 13
-1088.475879
 23
2951.0
 33
0.0
  0
SOLID
  5
A9F
  8
DIMENSION
 62
     0
 10
-1092.642546
 20
2315.0
 30
0.0
 11
-1084.309213
 21
2315.0
 31
0.0
 12
-1088.475879
 22
2290.0
 32
0.0
 13
-1088.475879
 23
2290.0
 33
0.0
  0
TEXT
  5
AA0
  8
0
 62
     0
 10
-1101.475879
 20
2593.714286
 30
0.0
 40
25.0
  1
661
 50
90.0
  0
POINT
  5
AA1
  8
DEFPOINTS
 62
     0
 10
-811.0
 20
2951.0
 30
0.0
  0
POINT
  5
AA2
  8
DEFPOINTS
 62
     0
 10
-62.5
 20
2290.0
 30
0.0
  0
POINT
  5
AA3
  8
DEFPOINTS
 62
     0
 10
-1088.475879
 20
2290.0
 30
0.0
  0
ENDBLK
  5
FE
  8
0
  0
BLOCK
  8
0
  2
*D2
 70
     1
 10
0.0
 20
0.0
 30
0.0
  3
*D2
  1

  0
LINE
  5
B1A
  8
DIMENSION
 62
     0
 10
-63.125
 20
2290.0
 30
0.0
 11
-1089.725879
 21
2290.0
 31
0.0
  0
LINE
  5
B1B
  8
DIMENSION
 62
     0
 10
-100.625
 20
1620.0
 30
0.0
 11
-1089.725879
 21
1620.0
 31
0.0
  0
LINE
  5
B1C
  8
DIMENSION
 62
     0
 10
-1088.475879
 20
2265.0
 30
0.0
 11
-1088.475879
 21
1645.0
 31
0.0
  0
SOLID
  5
B1D
  8
DIMENSION
 62
     0
 10
-1092.642546
 20
2265.0
 30
0.0
 11
-1084.309213
 21
2265.0
 31
0.0
 12
-1088.475879
 22
2290.0
 32
0.0
 13
-1088.475879
 23
2290.0
 33
0.0
  0
SOLID
  5
B1E
  8
DIMENSION
 62
     0
 10
-1092.642546
 20
1645.0
 30
0.0
 11
-1084.309213
 21
1645.0
 31
0.0
 12
-1088.475879
 22
1620.0
 32
0.0
 13
-1088.475879
 23
1620.0
 33
0.0
  0
TEXT
  5
B1F
  8
0
 62
     0
 10
-1101.475879
 20
1922.857143
 30
0.0
 40
25.0
  1
670
 50
90.0
  0
POINT
  5
B20
  8
DEFPOINTS
 62
     0
 10
-62.5
 20
2290.0
 30
0.0
  0
POINT
  5
B21
  8
DEFPOINTS
 62
     0
 10
-100.0
 20
1620.0
 30
0.0
  0
POINT
  5
B22
  8
DEFPOINTS
 62
     0
 10
-1088.475879
 20
1620.0
 30
0.0
  0
ENDBLK
  5
10A
  8
0
  0
BLOCK
  8
0
  2
*D3
 70
     1
 10
0.0
 20
0.0
 30
0.0
  3
*D3
  1

  0
LINE
  5
A92
  8
DIMENSION
 62
     0
 10
-261.25
 20
3240.0
 30
0.0
 11
-1089.725879
 21
3240.0
 31
0.0
  0
LINE
  5
A93
  8
DIMENSION
 62
     0
 10
-811.625
 20
2951.0
 30
0.0
 11
-1089.725879
 21
2951.0
 31
0.0
  0
LINE
  5
A94
  8
DIMENSION
 62
     0
 10
-1088.475879
 20
3215.0
 30
0.0
 11
-1088.475879
 21
2976.0
 31
0.0
  0
SOLID
  5
A95
  8
DIMENSION
 62
     0
 10
-1092.642546
 20
3215.0
 30
0.0
 11
-1084.309213
 21
3215.0
 31
0.0
 12
-1088.475879
 22
3240.0
 32
0.0
 13
-1088.475879
 23
3240.0
 33
0.0
  0
SOLID
  5
A96
  8
DIMENSION
 62
     0
 10
-1092.642546
 20
2976.0
 30
0.0
 11
-1084.309213
 21
2976.0
 31
0.0
 12
-1088.475879
 22
2951.0
 32
0.0
 13
-1088.475879
 23
2951.0
 33
0.0
  0
TEXT
  5
A97
  8
0
 62
     0
 10
-1101.475879
 20
3063.952381
 30
0.0
 40
25.0
  1
289
 50
90.0
  0
POINT
  5
A98
  8
DEFPOINTS
 62
     0
 10
-260.625
 20
3240.0
 30
0.0
  0
POINT
  5
A99
  8
DEFPOINTS
 62
     0
 10
-811.0
 20
2951.0
 30
0.0
  0
POINT
  5
A9A
  8
DEFPOINTS
 62
     0
 10
-1088.475879
 20
2951.0
 30
0.0
  0
ENDBLK
  5
116
  8
0
  0
BLOCK
  8
0
  2
*D4
 70
     1
 10
0.0
 20
0.0
 30
0.0
  3
*D4
  1

  0
LINE
  5
9D5
  8
0
 62
     0
 10
-760.0
 20
-0.625
 30
0.0
 11
-760.0
 21
-105.707394
 31
0.0
  0
LINE
  5
9D6
  8
0
 62
     0
 10
760.0
 20
-0.625
 30
0.0
 11
760.0
 21
-105.707394
 31
0.0
  0
LINE
  5
9D7
  8
0
 62
     0
 10
-735.0
 20
-104.457394
 30
0.0
 11
735.0
 21
-104.457394
 31
0.0
  0
SOLID
  5
9D8
  8
0
 62
     0
 10
-735.0
 20
-100.290728
 30
0.0
 11
-735.0
 21
-108.624061
 31
0.0
 12
-760.0
 22
-104.457394
 32
0.0
 13
-760.0
 23
-104.457394
 33
0.0
  0
SOLID
  5
9D9
  8
0
 62
     0
 10
735.0
 20
-100.290728
 30
0.0
 11
735.0
 21
-108.624061
 31
0.0
 12
760.0
 22
-104.457394
 32
0.0
 13
760.0
 23
-104.457394
 33
0.0
  0
TEXT
  5
9DA
  8
0
 62
     0
 10
-41.666667
 20
-91.457394
 30
0.0
 40
25.0
  1
1520
  0
POINT
  5
9DB
  8
DEFPOINTS
 62
     0
 10
-760.0
 20
0.0
 30
0.0
  0
POINT
  5
9DC
  8
DEFPOINTS
 62
     0
 10
760.0
 20
0.0
 30
0.0
  0
POINT
  5
9DD
  8
DEFPOINTS
 62
     0
 10
760.0
 20
-104.457394
 30
0.0
  0
ENDBLK
  5
122
  8
0
  0
BLOCK
  8
0
  2
*D5
 70
     1
 10
0.0
 20
0.0
 30
0.0
  3
*D5
  1

  0
LINE
  5
AEC
  8
DIMENSION
 62
     0
 10
-811.625
 20
259.0
 30
0.0
 11
-1093.660145
 21
259.0
 31
0.0
  0
LINE
  5
AED
  8
DIMENSION
 62
     0
 10
-760.625
 20
0.0
 30
0.0
 11
-1093.660145
 21
0.0
 31
0.0
  0
LINE
  5
AEE
  8
DIMENSION
 62
     0
 10
-1092.410145
 20
234.0
 30
0.0
 11
-1092.410145
 21
25.0
 31
0.0
  0
SOLID
  5
AEF
  8
DIMENSION
 62
     0
 10
-1096.576811
 20
234.0
 30
0.0
 11
-1088.243478
 21
234.0
 31
0.0
 12
-1092.410145
 22
259.0
 32
0.0
 13
-1092.410145
 23
259.0
 33
0.0
  0
SOLID
  5
AF0
  8
DIMENSION
 62
     0
 10
-1096.576811
 20
25.0
 30
0.0
 11
-1088.243478
 21
25.0
 31
0.0
 12
-1092.410145
 22
0.0
 32
0.0
 13
-1092.410145
 23
0.0
 33
0.0
  0
TEXT
  5
AF1
  8
0
 62
     0
 10
-1105.410145
 20
97.952381
 30
0.0
 40
25.0
  1
259
 50
90.0
  0
POINT
  5
AF2
  8
DEFPOINTS
 62
     0
 10
-811.0
 20
259.0
 30
0.0
  0
POINT
  5
AF3
  8
DEFPOINTS
 62
     0
 10
-760.0
 20
0.0
 30
0.0
  0
POINT
  5
AF4
  8
DEFPOINTS
 62
     0
 10
-1092.410145
 20
0.0
 30
0.0
  0
ENDBLK
  5
12E
  8
0
  0
BLOCK
  8
0
  2
*D6
 70
     1
 10
0.0
 20
0.0
 30
0.0
  3
*D6
  1

  0
LINE
  5
B23
  8
DIMENSION
 62
     0
 10
-100.625
 20
1620.0
 30
0.0
 11
-1089.725879
 21
1620.0
 31
0.0
  0
LINE
  5
B24
  8
DIMENSION
 62
     0
 10
-100.625
 20
920.0
 30
0.0
 11
-1089.725879
 21
920.0
 31
0.0
  0
LINE
  5
B25
  8
DIMENSION
 62
     0
 10
-1088.475879
 20
1595.0
 30
0.0
 11
-1088.475879
 21
945.0
 31
0.0
  0
SOLID
  5
B26
  8
DIMENSION
 62
     0
 10
-1092.642546
 20
1595.0
 30
0.0
 11
-1084.309213
 21
1595.0
 31
0.0
 12
-1088.475879
 22
1620.0
 32
0.0
 13
-1088.475879
 23
1620.0
 33
0.0
  0
SOLID
  5
B27
  8
DIMENSION
 62
     0
 10
-1092.642546
 20
945.0
 30
0.0
 11
-1084.309213
 21
945.0
 31
0.0
 12
-1088.475879
 22
920.0
 32
0.0
 13
-1088.475879
 23
920.0
 33
0.0
  0
TEXT
  5
B28
  8
0
 62
     0
 10
-1101.475879
 20
1237.857143
 30
0.0
 40
25.0
  1
700
 50
90.0
  0
POINT
  5
B29
  8
DEFPOINTS
 62
     0
 10
-100.0
 20
1620.0
 30
0.0
  0
POINT
  5
B2A
  8
DEFPOINTS
 62
     0
 10
-100.0
 20
920.0
 30
0.0
  0
POINT
  5
B2B
  8
DEFPOINTS
 62
     0
 10
-1088.475879
 20
920.0
 30
0.0
  0
ENDBLK
  5
13A
  8
0
  0
BLOCK
  8
0
  2
*D7
 70
     1
 10
0.0
 20
0.0
 30
0.0
  3
*D7
  1

  0
LINE
  5
AC8
  8
DIMENSION
 62
     0
 10
-260.625
 20
3240.0
 30
0.0
 11
-1200.36338
 21
3240.0
 31
0.0
  0
LINE
  5
AC9
  8
DIMENSION
 62
     0
 10
-760.625
 20
0.0
 30
0.0
 11
-1200.36338
 21
0.0
 31
0.0
  0
LINE
  5
ACA
  8
DIMENSION
 62
     0
 10
-1199.11338
 20
3215.0
 30
0.0
 11
-1199.11338
 21
25.0
 31
0.0
  0
SOLID
  5
ACB
  8
DIMENSION
 62
     0
 10
-1203.280046
 20
3215.0
 30
0.0
 11
-1194.946713
 21
3215.0
 31
0.0
 12
-1199.11338
 22
3240.0
 32
0.0
 13
-1199.11338
 23
3240.0
 33
0.0
  0
SOLID
  5
ACC
  8
DIMENSION
 62
     0
 10
-1203.280046
 20
25.0
 30
0.0
 11
-1194.946713
 21
25.0
 31
0.0
 12
-1199.11338
 22
0.0
 32
0.0
 13
-1199.11338
 23
0.0
 33
0.0
  0
TEXT
  5
ACD
  8
0
 62
     0
 10
-1212.11338
 20
1720.952381
 30
0.0
 40
25.0
  1
3240
 50
90.0
  0
POINT
  5
ACE
  8
DEFPOINTS
 62
     0
 10
-260.0
 20
3240.0
 30
0.0
  0
POINT
  5
ACF
  8
DEFPOINTS
 62
     0
 10
-760.0
 20
0.0
 30
0.0
  0
POINT
  5
AD0
  8
DEFPOINTS
 62
     0
 10
-1199.11338
 20
0.0
 30
0.0
  0
ENDBLK
  5
146
  8
0
  0
ENDSEC
  0
SECTION
  2
ENTITIES
  0
LINE
  5
26
  8
PLANNING
 10
911.0
 20
3740.0
 30
0.0
 11
911.0
 21
-3240.0
 31
0.0
  0
LINE
  5
29
  8
PLANNING
 10
-1011.0
 20
3740.0
 30
0.0
 11
-1011.0
 21
-3240.0
 31
0.0
  0
DIMENSION
  5
2A
  8
DIMENSION
  2
*D7
 10
-1199.11338
 20
0.0
 30
0.0
 11
-1199.11338
 21
1765.0
 31
0.0
 70
   128
 13
-260.0
 23
3240.0
 33
0.0
 14
-760.0
 24
0.0
 34
0.0
 50
90.0
  0
DIMENSION
  5
3B
  8
DIMENSION
  2
*D6
 10
-1088.475879
 20
920.0
 30
0.0
 11
-1113.975879
 21
1270.0
 31
0.0
 70
     0
 13
-100.0
 23
1620.0
 33
0.0
 14
-100.0
 24
920.0
 34
0.0
 50
90.0
  0
LINE
  5
4A
  8
DETAIL
 10
-811.0
 20
2951.0
 30
0.0
 11
-811.0
 21
259.0
 31
0.0
  0
LINE
  5
4C
  8
DETAIL
 10
811.0
 20
2951.0
 30
0.0
 11
811.0
 21
259.0
 31
0.0
  0
LINE
  5
4D
  8
CENTER
  6
CENTER
 10
0.0
 20
3240.0
 30
0.0
 11
0.0
 21
0.0
 31
0.0
  0
LINE
  5
50
  8
STELTXT
 10
159.76462
 20
-4.982537
 30
0.0
 11
999.444267
 21
-4.982537
 31
0.0
1001
ACAD
1000
R13OBJECT
1002
{
1005
0
1002
}
  0
SOLID
  5
52
  8
STELTXT
  6
CONTINUOUS
 10
-159.76462
 20
-9.14919
 30
0.0
 11
-134.76462
 21
-4.982523
 31
0.0
 12
-159.76462
 22
-0.815857
 32
0.0
 13
-159.76462
 23
-0.815857
 33
0.0
210
-0.0
220
0.0
230
-1.0
  0
LINE
  5
53
  8
PLANNING
 10
911.0
 20
-3240.0
 30
0.0
 11
-1011.0
 21
-3240.0
 31
0.0
  0
DIMENSION
  5
54
  8
DIMENSION
  2
*D5
 10
-1092.410145
 20
0.0
 30
0.0
 11
-1117.910145
 21
129.5
 31
0.0
 70
     0
 13
-811.0
 23
259.0
 33
0.0
 14
-760.0
 24
0.0
 34
0.0
 50
90.0
  0
ATTDEF
  5
61
  8
STELATT
 10
-233.333333
 20
-3510.986484
 30
0.0
 40
40.0
  1
IDEAL
 72
     4
 11
0.0
 21
-3490.986484
 31
0.0
  3

  2
MANUFACTURER
 70
     2
  0
ATTDEF
  5
63
  8
STELATT
 10
-68.571429
 20
-3575.986484
 30
0.0
 40
40.0
  1
VANGUARD L
 72
     4
 11
0.0
 21
-3555.986484
 31
0.0
  3

  2
TYPE
 70
     2
  0
ATTDEF
  5
64
  8
STELATT
 10
-93.333333
 20
-3640.986484
 30
0.0
 40
40.0
  1
2200
 72
     4
 11
0.0
 21
-3620.986484
 31
0.0
  3

  2
MODEL
 70
     2
  0
DIMENSION
  5
65
  8
0
  2
*D4
 10
760.0
 20
-104.457394
 30
0.0
 11
0.0
 21
-78.957394
 31
0.0
 70
     0
 13
-760.0
 23
0.0
 33
0.0
 14
760.0
 24
0.0
 34
0.0
  0
LINE
  5
74
  8
DETAIL
 10
760.0
 20
0.0
 30
0.0
 11
-760.0
 21
0.0
 31
0.0
  0
LINE
  5
75
  8
DETAIL
 10
760.0
 20
184.0
 30
0.0
 11
-760.0
 21
184.0
 31
0.0
  0
LINE
  5
76
  8
DETAIL
 10
-811.0
 20
259.0
 30
0.0
 11
811.0
 21
259.0
 31
0.0
  0
POLYLINE
  5
77
  8
STELTXT
 66
     1
 10
0.0
 20
0.0
 30
0.0
 70
   128
1001
ACAD
1000
R13OBJECT
1002
{
1005
0
1002
}
  0
VERTEX
  5
CDB
  8
STELTXT
 10
129.091693
 20
932.5929
 30
0.0
  0
VERTEX
  5
CDC
  8
STELTXT
 10
858.179598
 20
1030.457045
 30
0.0
  0
VERTEX
  5
CDD
  8
STELTXT
 10
1002.004667
 20
1030.457045
 30
0.0
  0
SEQEND
  5
CDE
  8
STELTXT
  0
LINE
  5
78
  8
DETAIL
 10
-463.268482
 20
479.570778
 30
0.0
 11
-71.733178
 21
479.570778
 31
0.0
  0
POLYLINE
  5
79
  8
DETAIL
 66
     1
 10
0.0
 20
0.0
 30
0.0
 70
     1
  0
VERTEX
  5
CDF
  8
DETAIL
 10
-463.268482
 20
293.99708
 30
0.0
 42
-0.414214
  0
VERTEX
  5
CE0
  8
DETAIL
 10
-478.268482
 20
308.99708
 30
0.0
 42
-0.092505
  0
VERTEX
  5
CE1
  8
DETAIL
 10
-478.268482
 20
454.570778
 30
0.0
 42
-0.414214
  0
VERTEX
  5
CE2
  8
DETAIL
 10
-463.268482
 20
469.570778
 30
0.0
  0
VERTEX
  5
CE3
  8
DETAIL
 10
-71.733178
 20
469.570778
 30
0.0
 42
-0.414214
  0
VERTEX
  5
CE4
  8
DETAIL
 10
-56.733178
 20
454.570778
 30
0.0
 42
-0.092505
  0
VERTEX
  5
CE5
  8
DETAIL
 10
-56.733178
 20
308.99708
 30
0.0
 42
-0.414214
  0
VERTEX
  5
CE6
  8
DETAIL
 10
-71.733178
 20
293.99708
 30
0.0
  0
SEQEND
  5
CE7
  8
DETAIL
  0
ARC
  5
7A
  8
DETAIL
 10
-88.215668
 20
381.783929
 30
0.0
 40
406.785992
 50
169.544172
 51
190.455828
  0
LINE
  5
7B
  8
DETAIL
 10
-760.0
 20
184.0
 30
0.0
 11
-760.0
 21
0.0
 31
0.0
  0
LINE
  5
7C
  8
DETAIL
 10
-760.0
 20
184.0
 30
0.0
 11
-760.0
 21
259.0
 31
0.0
  0
LINE
  5
7D
  8
DETAIL
 10
-463.268482
 20
293.99708
 30
0.0
 11
-483.268482
 21
293.99708
 31
0.0
  0
ARC
  5
7E
  8
DETAIL
 10
-463.268482
 20
308.99708
 30
0.0
 40
25.0
 50
182.374172
 51
216.869898
  0
ARC
  5
7F
  8
DETAIL
 10
-463.268482
 20
454.570778
 30
0.0
 40
25.0
 50
90.0
 51
177.625828
  0
ARC
  5
80
  8
DETAIL
 10
-446.785992
 20
381.783929
 30
0.0
 40
406.785992
 50
349.544172
 51
10.455828
  0
LINE
  5
81
  8
DETAIL
 10
125.0
 20
-5.0
 30
0.0
 11
-125.0
 21
-5.0
 31
0.0
  0
POLYLINE
  5
82
  8
ORIGIN
 66
     1
 10
0.0
 20
0.0
 30
0.0
 70
     1
  0
VERTEX
  5
CE8
  8
ORIGIN
 10
37.5
 20
-37.5
 30
0.0
  0
VERTEX
  5
CE9
  8
ORIGIN
 10
-37.5
 20
37.5
 30
0.0
  0
VERTEX
  5
CEA
  8
ORIGIN
 10
-37.5
 20
-37.5
 30
0.0
  0
VERTEX
  5
CEB
  8
ORIGIN
 10
37.5
 20
37.5
 30
0.0
  0
SEQEND
  5
CEC
  8
ORIGIN
  0
LINE
  5
84
  8
DETAIL
 10
-125.0
 20
-5.0
 30
0.0
 11
-125.0
 21
0.0
 31
0.0
  0
LINE
  5
85
  8
DETAIL
 10
125.0
 20
-5.0
 30
0.0
 11
125.0
 21
0.0
 31
0.0
  0
LINE
  5
86
  8
DETAIL
 10
-71.733178
 20
293.99708
 30
0.0
 11
-51.733178
 21
293.99708
 31
0.0
  0
ARC
  5
87
  8
DETAIL
 10
-71.733178
 20
308.99708
 30
0.0
 40
25.0
 50
323.130102
 51
357.625828
  0
CIRCLE
  5
88
  8
DETAIL
 10
0.0
 20
920.0
 30
0.0
 40
100.0
  0
SOLID
  5
89
  8
STELTXT
  6
CONTINUOUS
 10
-130.027965
 20
928.532788
 30
0.0
 11
-104.731024
 21
926.975267
 31
0.0
 12
-128.155421
 22
936.653011
 32
0.0
 13
-128.155421
 23
936.653011
 33
0.0
210
0.0
220
0.0
230
-1.0
  0
ARC
  5
8A
  8
DETAIL
 10
-71.733178
 20
454.570778
 30
0.0
 40
25.0
 50
2.374172
 51
90.0
  0
TEXT
  5
8B
  8
STELTXT
 10
1012.392268
 20
977.026403
 30
0.0
 40
25.0
  1
CONNECTION
  0
TEXT
  5
8C
  8
STELTXT
 10
1019.622128
 20
-18.02139
 30
0.0
 40
25.0
  1
BURNER CONNECTION
  0
TEXT
  5
8D
  8
STELTXT
 10
1012.392268
 20
1019.883546
 30
0.0
 40
25.0
  1
200mm RETURN
  0
LINE
  5
8E
  8
DETAIL
 10
760.0
 20
184.0
 30
0.0
 11
760.0
 21
0.0
 31
0.0
  0
LINE
  5
8F
  8
DETAIL
 10
760.0
 20
184.0
 30
0.0
 11
760.0
 21
259.0
 31
0.0
  0
DIMENSION
  5
90
  8
DIMENSION
  2
*D3
 10
-1088.475879
 20
2951.0
 30
0.0
 11
-1113.975879
 21
3095.5
 31
0.0
 70
     0
 13
-260.625
 23
3240.0
 33
0.0
 14
-811.0
 24
2951.0
 34
0.0
 50
90.0
  0
DIMENSION
  5
9F
  8
DIMENSION
  2
*D2
 10
-1088.475879
 20
1620.0
 30
0.0
 11
-1113.975879
 21
1955.0
 31
0.0
 70
     0
 13
-62.5
 23
2290.0
 33
0.0
 14
-100.0
 24
1620.0
 34
0.0
 50
90.0
  0
DIMENSION
  5
AE
  8
DIMENSION
  2
*D1
 10
-1088.475879
 20
2290.0
 30
0.0
 11
-1113.975879
 21
2620.5
 31
0.0
 70
     0
 13
-811.0
 23
2951.0
 33
0.0
 14
-62.5
 24
2290.0
 34
0.0
 50
90.0
  0
LINE
  5
BD
  8
PLANNING
 10
-1011.0
 20
3740.0
 30
0.0
 11
911.0
 21
3740.0
 31
0.0
  0
POLYLINE
  5
BE
  8
STELTXT
 66
     1
 10
0.0
 20
0.0
 30
0.0
 70
   128
1001
ACAD
1000
R13OBJECT
1002
{
1005
0
1002
}
  0
VERTEX
  5
CED
  8
STELTXT
 10
287.626217
 20
3241.669573
 30
0.0
  0
VERTEX
  5
CEE
  8
STELTXT
 10
951.228586
 20
3351.817984
 30
0.0
  0
VERTEX
  5
CEF
  8
STELTXT
 10
999.444267
 20
3351.817984
 30
0.0
  0
SEQEND
  5
CF0
  8
STELTXT
  0
DIMENSION
  5
BF
  8
DIMENSION
  2
*D0
 10
811.0
 20
3416.689525
 30
0.0
 11
-0.3125
 21
3416.689525
 31
0.0
 70
   128
 13
-811.0
 23
2951.0
 33
0.0
 14
811.0
 24
2951.0
 34
0.0
  0
LINE
  5
CE
  8
DETAIL
 10
-811.0
 20
2951.0
 30
0.0
 11
811.0
 21
2951.0
 31
0.0
  0
LINE
  5
CF
  8
DETAIL
 10
-701.315
 20
3190.0
 30
0.0
 11
701.315
 21
3190.0
 31
0.0
  0
POLYLINE
  5
D0
  8
STELTXT
 66
     1
 10
0.0
 20
0.0
 30
0.0
 70
   128
1001
ACAD
1000
R13OBJECT
1002
{
1005
0
1002
}
  0
VERTEX
  5
CF1
  8
STELTXT
 10
129.116617
 20
1633.776367
 30
0.0
  0
VERTEX
  5
CF2
  8
STELTXT
 10
856.720661
 20
1730.471679
 30
0.0
  0
VERTEX
  5
CF3
  8
STELTXT
 10
1000.54573
 20
1730.471679
 30
0.0
  0
SEQEND
  5
CF4
  8
STELTXT
  0
POLYLINE
  5
D1
  8
STELTXT
 66
     1
 10
0.0
 20
0.0
 30
0.0
 70
   128
1001
ACAD
1000
R13OBJECT
1002
{
1005
0
1002
}
  0
VERTEX
  5
CF5
  8
STELTXT
 10
80.170702
 20
2318.471594
 30
0.0
  0
VERTEX
  5
CF6
  8
STELTXT
 10
858.179598
 20
2421.826409
 30
0.0
  0
VERTEX
  5
CF7
  8
STELTXT
 10
1002.004667
 20
2421.826409
 30
0.0
  0
SEQEND
  5
CF8
  8
STELTXT
  0
LINE
  5
D2
  8
DETAIL
 10
-260.0
 20
3240.0
 30
0.0
 11
260.0
 21
3240.0
 31
0.0
  0
LINE
  5
D3
  8
DETAIL
 10
-701.315
 20
3190.0
 30
0.0
 11
-701.315
 21
2951.0
 31
0.0
  0
LINE
  5
D4
  8
DETAIL
 10
-260.0
 20
3240.0
 30
0.0
 11
-260.0
 21
3190.0
 31
0.0
  0
CIRCLE
  5
D5
  8
DETAIL
 10
0.0
 20
1620.0
 30
0.0
 40
100.0
  0
SOLID
  5
D6
  8
STELTXT
  6
CONTINUOUS
 10
-130.052889
 20
1629.716256
 30
0.0
 11
-104.755948
 21
1628.158735
 31
0.0
 12
-128.180345
 22
1637.836479
 32
0.0
 13
-128.180345
 23
1637.836479
 33
0.0
210
0.0
220
0.0
230
-1.0
  0
CIRCLE
  5
D7
  8
DETAIL
 10
0.0
 20
2290.0
 30
0.0
 40
62.5
  0
SOLID
  5
D8
  8
STELTXT
  6
CONTINUOUS
 10
-81.106974
 20
2314.411483
 30
0.0
 11
-55.810033
 21
2312.853962
 31
0.0
 12
-79.23443
 22
2322.531706
 32
0.0
 13
-79.23443
 23
2322.531706
 33
0.0
210
0.0
220
0.0
230
-1.0
  0
SOLID
  5
D9
  8
STELTXT
  6
CONTINUOUS
 10
-288.286937
 20
3237.555626
 30
0.0
 11
-262.942535
 21
3237.705256
 31
0.0
 12
-286.965498
 22
3245.78352
 32
0.0
 13
-286.965498
 23
3245.78352
 33
0.0
210
0.0
220
0.0
230
-1.0
  0
LINE
  5
DA
  8
DETAIL
 10
260.0
 20
3240.0
 30
0.0
 11
260.0
 21
3190.0
 31
0.0
  0
TEXT
  5
DB
  8
STELTXT
 10
1012.083811
 20
3339.224425
 30
0.0
 40
25.0
  1
520mm FLUE OUTLET
  0
TEXT
  5
DC
  8
STELTXT
 10
1010.933331
 20
1677.041037
 30
0.0
 40
25.0
  1
CONNECTION
  0
TEXT
  5
DD
  8
STELTXT
 10
1010.933331
 20
1719.89818
 30
0.0
 40
25.0
  1
200mm FLOW
  0
TEXT
  5
DE
  8
STELTXT
 10
1011.170287
 20
2367.343541
 30
0.0
 40
25.0
  1
& EXPANSION CONNECTION
  0
TEXT
  5
DF
  8
STELTXT
 10
1011.170287
 20
2410.200684
 30
0.0
 40
25.0
  1
125mm SAFETY VALVE
  0
LINE
  5
E0
  8
DETAIL
 10
701.315
 20
3190.0
 30
0.0
 11
701.315
 21
2951.0
 31
0.0
  0
ENDSEC
  0
EOF
