  0
SECTION
  2
HEADER
  9
$ACADVER
  1
AC1009
  9
$INSBASE
 10
0.0
 20
0.0
 30
0.0
  9
$EXTMIN
 10
-1287.299927
 20
-4251.511423
 30
0.0
  9
$EXTMAX
 10
1769.612212
 20
4350.525019
 30
0.0
  9
$LIMMIN
 10
0.0
 20
0.0
  9
$LIMMAX
 10
420.0
 20
297.0
  9
$ORTHOMODE
 70
     1
  9
$REGENMODE
 70
     1
  9
$FILLMODE
 70
     1
  9
$QTEXTMODE
 70
     0
  9
$MIRRTEXT
 70
     1
  9
$DRAGMODE
 70
     2
  9
$LTSCALE
 40
1.0
  9
$OSMODE
 70
     0
  9
$ATTMODE
 70
     2
  9
$TEXTSIZE
 40
25.0
  9
$TRACEWID
 40
1.0
  9
$TEXTSTYLE
  7
STANDARD
  9
$CLAYER
  8
0
  9
$CELTYPE
  6
BYLAYER
  9
$CECOLOR
 62
   256
  9
$DIMSCALE
 40
1.0
  9
$DIMASZ
 40
25.0
  9
$DIMEXO
 40
0.625
  9
$DIMDLI
 40
3.75
  9
$DIMRND
 40
0.0
  9
$DIMDLE
 40
0.0
  9
$DIMEXE
 40
1.25
  9
$DIMTP
 40
0.0
  9
$DIMTM
 40
0.0
  9
$DIMTXT
 40
25.0
  9
$DIMCEN
 40
2.5
  9
$DIMTSZ
 40
0.0
  9
$DIMTOL
 70
     0
  9
$DIMLIM
 70
     0
  9
$DIMTIH
 70
     0
  9
$DIMTOH
 70
     0
  9
$DIMSE1
 70
     0
  9
$DIMSE2
 70
     0
  9
$DIMTAD
 70
     1
  9
$DIMZIN
 70
     8
  9
$DIMBLK
  1

  9
$DIMASO
 70
     1
  9
$DIMSHO
 70
     1
  9
$DIMPOST
  1

  9
$DIMAPOST
  1

  9
$DIMALT
 70
     0
  9
$DIMALTD
 70
     3
  9
$DIMALTF
 40
0.03937
  9
$DIMLFAC
 40
1.0
  9
$DIMTOFL
 70
     1
  9
$DIMTVP
 40
0.0
  9
$DIMTIX
 70
     0
  9
$DIMSOXD
 70
     0
  9
$DIMSAH
 70
     0
  9
$DIMBLK1
  1

  9
$DIMBLK2
  1

  9
$DIMSTYLE
  2
ISO-25
  9
$DIMCLRD
 70
     0
  9
$DIMCLRE
 70
     0
  9
$DIMCLRT
 70
     0
  9
$DIMTFAC
 40
1.0
  9
$DIMGAP
 40
13.0
  9
$LUNITS
 70
     2
  9
$LUPREC
 70
     4
  9
$SKETCHINC
 40
1.0
  9
$FILLETRAD
 40
10.0
  9
$AUNITS
 70
     0
  9
$AUPREC
 70
     0
  9
$MENU
  1
.
  9
$ELEVATION
 40
0.0
  9
$PELEVATION
 40
0.0
  9
$THICKNESS
 40
0.0
  9
$LIMCHECK
 70
     0
  9
$BLIPMODE
 70
     0
  9
$CHAMFERA
 40
10.0
  9
$CHAMFERB
 40
10.0
  9
$SKPOLY
 70
     0
  9
$TDCREATE
 40
2452706.626866
  9
$TDUPDATE
 40
2453073.534501
  9
$TDINDWG
 40
0.396074
  9
$TDUSRTIMER
 40
0.396074
  9
$USRTIMER
 70
     1
  9
$ANGBASE
 50
0.0
  9
$ANGDIR
 70
     0
  9
$PDMODE
 70
     0
  9
$PDSIZE
 40
0.0
  9
$PLINEWID
 40
0.0
  9
$COORDS
 70
     1
  9
$SPLFRAME
 70
     0
  9
$SPLINETYPE
 70
     6
  9
$SPLINESEGS
 70
     8
  9
$ATTDIA
 70
     0
  9
$ATTREQ
 70
     1
  9
$HANDLING
 70
 22529
  9
$HANDSEED
  5
F90
  9
$SURFTAB1
 70
     6
  9
$SURFTAB2
 70
     6
  9
$SURFTYPE
 70
     6
  9
$SURFU
 70
     6
  9
$SURFV
 70
     6
  9
$UCSNAME
  2

  9
$UCSORG
 10
0.0
 20
0.0
 30
0.0
  9
$UCSXDIR
 10
1.0
 20
0.0
 30
0.0
  9
$UCSYDIR
 10
0.0
 20
1.0
 30
0.0
  9
$PUCSNAME
  2

  9
$PUCSORG
 10
0.0
 20
0.0
 30
0.0
  9
$PUCSXDIR
 10
1.0
 20
0.0
 30
0.0
  9
$PUCSYDIR
 10
0.0
 20
1.0
 30
0.0
  9
$USERI1
 70
     0
  9
$USERI2
 70
     0
  9
$USERI3
 70
     0
  9
$USERI4
 70
     0
  9
$USERI5
 70
     0
  9
$USERR1
 40
0.0
  9
$USERR2
 40
0.0
  9
$USERR3
 40
0.0
  9
$USERR4
 40
0.0
  9
$USERR5
 40
0.0
  9
$WORLDVIEW
 70
     1
  9
$SHADEDGE
 70
     3
  9
$SHADEDIF
 70
    70
  9
$TILEMODE
 70
     1
  9
$MAXACTVP
 70
    48
  9
$PLIMCHECK
 70
     0
  9
$PEXTMIN
 10
1.000000E+020
 20
1.000000E+020
 30
1.000000E+020
  9
$PEXTMAX
 10
-1.000000E+020
 20
-1.000000E+020
 30
-1.000000E+020
  9
$PLIMMIN
 10
0.0
 20
0.0
  9
$PLIMMAX
 10
420.0
 20
297.0
  9
$UNITMODE
 70
     0
  9
$VISRETAIN
 70
     1
  9
$PLINEGEN
 70
     0
  9
$PSLTSCALE
 70
     1
  0
ENDSEC
  0
SECTION
  2
TABLES
  0
TABLE
  2
VPORT
 70
     2
  0
VPORT
  2
*ACTIVE
 70
     0
 10
0.0
 20
0.0
 11
1.0
 21
1.0
 12
241.156142
 22
49.506798
 13
0.0
 23
0.0
 14
10.0
 24
10.0
 15
10.0
 25
10.0
 16
0.0
 26
0.0
 36
1.0
 17
0.0
 27
0.0
 37
0.0
 40
8701.100201
 41
1.825
 42
50.0
 43
0.0
 44
0.0
 50
0.0
 51
0.0
 71
     0
 72
   100
 73
     1
 74
     3
 75
     0
 76
     0
 77
     0
 78
     0
  0
ENDTAB
  0
TABLE
  2
LTYPE
 70
     3
  0
LTYPE
  2
CONTINUOUS
 70
     0
  3
Solid line
 72
    65
 73
     0
 40
0.0
  0
LTYPE
  2
CENTER
 70
     0
  3
____ _ ____ _ ____ _ ____ _ ____ _ ____ _ ____
 72
    65
 73
     4
 40
2.0
 49
1.25
 49
-0.25
 49
0.25
 49
-0.25
  0
LTYPE
  2
DASHED
 70
     0
  3
__ __ __ __ __ __ __ __ __ __ __ __ __ __ __
 72
    65
 73
     2
 40
0.75
 49
0.5
 49
-0.25
  0
ENDTAB
  0
TABLE
  2
LAYER
 70
     9
  0
LAYER
  2
0
 70
     0
 62
     7
  6
CONTINUOUS
  0
LAYER
  2
ORIGIN
 70
     0
 62
     6
  6
CONTINUOUS
  0
LAYER
  2
DETAIL
 70
     0
 62
     2
  6
CONTINUOUS
  0
LAYER
  2
DIMENSION
 70
     0
 62
     7
  6
CONTINUOUS
  0
LAYER
  2
PLANNING
 70
     0
 62
     1
  6
DASHED
  0
LAYER
  2
STELTXT
 70
     0
 62
     4
  6
CONTINUOUS
  0
LAYER
  2
STELATT
 70
     0
 62
     7
  6
CONTINUOUS
  0
LAYER
  2
CENTER
 70
     0
 62
     4
  6
CENTER
  0
LAYER
  2
DEFPOINTS
 70
     0
 62
     7
  6
CONTINUOUS
  0
ENDTAB
  0
TABLE
  2
STYLE
 70
     1
  0
STYLE
  2
STANDARD
 70
     0
 40
0.0
 41
1.0
 50
0.0
 71
     0
 42
25.0
  3
simplex.shx
  4

  0
ENDTAB
  0
TABLE
  2
VIEW
 70
     0
  0
ENDTAB
  0
TABLE
  2
UCS
 70
     0
  0
ENDTAB
  0
TABLE
  2
APPID
 70
     1
  0
APPID
  2
ACAD
 70
     0
  0
ENDTAB
  0
TABLE
  2
DIMSTYLE
 70
     1
  0
DIMSTYLE
  2
ISO-25
 70
     0
  3

  4

  5

  6

  7

 40
1.0
 41
25.0
 42
0.625
 43
3.75
 44
1.25
 45
0.0
 46
0.0
 47
0.0
 48
0.0
140
25.0
141
2.5
142
0.0
143
0.03937
144
1.0
145
0.0
146
1.0
147
13.0
 71
     0
 72
     0
 73
     0
 74
     0
 75
     0
 76
     0
 77
     1
 78
     8
170
     0
171
     3
172
     1
173
     0
174
     0
175
     0
176
     0
177
     0
178
     0
  0
ENDTAB
  0
ENDSEC
  0
SECTION
  2
BLOCKS
  0
BLOCK
  8
0
  2
$MODEL_SPACE
 70
     2
 10
0.0
 20
0.0
 30
0.0
  3
$MODEL_SPACE
  1

  0
ENDBLK
  5
A
  8
0
  0
BLOCK
 67
     1
  8
0
  2
$PAPER_SPACE
 70
     0
 10
0.0
 20
0.0
 30
0.0
  3
$PAPER_SPACE
  1

  0
ENDBLK
  5
10
 67
     1
  8
0
  0
BLOCK
  8
0
  2
*D0
 70
     1
 10
0.0
 20
0.0
 30
0.0
  3
*D0
  1

  0
LINE
  5
D5E
  8
DIMENSION
 62
     0
 10
-860.0
 20
3525.625
 30
0.0
 11
-860.0
 21
4027.939525
 31
0.0
  0
LINE
  5
D5F
  8
DIMENSION
 62
     0
 10
860.0
 20
3525.625
 30
0.0
 11
860.0
 21
4027.939525
 31
0.0
  0
LINE
  5
D60
  8
DIMENSION
 62
     0
 10
-835.0
 20
4026.689525
 30
0.0
 11
835.0
 21
4026.689525
 31
0.0
  0
SOLID
  5
D61
  8
DIMENSION
 62
     0
 10
-835.0
 20
4030.856192
 30
0.0
 11
-835.0
 21
4022.522859
 31
0.0
 12
-860.0
 22
4026.689525
 32
0.0
 13
-860.0
 23
4026.689525
 33
0.0
  0
SOLID
  5
D62
  8
DIMENSION
 62
     0
 10
835.0
 20
4030.856192
 30
0.0
 11
835.0
 21
4022.522859
 31
0.0
 12
860.0
 22
4026.689525
 32
0.0
 13
860.0
 23
4026.689525
 33
0.0
  0
TEXT
  5
D63
  8
0
 62
     0
 10
-41.979167
 20
4039.689525
 30
0.0
 40
25.0
  1
1720
  0
POINT
  5
D64
  8
DEFPOINTS
 62
     0
 10
-860.0
 20
3525.0
 30
0.0
  0
POINT
  5
D65
  8
DEFPOINTS
 62
     0
 10
860.0
 20
3525.0
 30
0.0
  0
POINT
  5
D66
  8
DEFPOINTS
 62
     0
 10
860.0
 20
4026.689525
 30
0.0
  0
ENDBLK
  5
F2
  8
0
  0
BLOCK
  8
0
  2
*D1
 70
     1
 10
0.0
 20
0.0
 30
0.0
  3
*D1
  1

  0
LINE
  5
E2D
  8
DIMENSION
 62
     0
 10
-860.625
 20
3525.0
 30
0.0
 11
-1138.725879
 21
3525.0
 31
0.0
  0
LINE
  5
E2E
  8
DIMENSION
 62
     0
 10
-101.25
 20
3200.0
 30
0.0
 11
-1138.725879
 21
3200.0
 31
0.0
  0
LINE
  5
E2F
  8
DIMENSION
 62
     0
 10
-1137.475879
 20
3500.0
 30
0.0
 11
-1137.475879
 21
3225.0
 31
0.0
  0
SOLID
  5
E30
  8
DIMENSION
 62
     0
 10
-1141.642546
 20
3500.0
 30
0.0
 11
-1133.309213
 21
3500.0
 31
0.0
 12
-1137.475879
 22
3525.0
 32
0.0
 13
-1137.475879
 23
3525.0
 33
0.0
  0
SOLID
  5
E31
  8
DIMENSION
 62
     0
 10
-1141.642546
 20
3225.0
 30
0.0
 11
-1133.309213
 21
3225.0
 31
0.0
 12
-1137.475879
 22
3200.0
 32
0.0
 13
-1137.475879
 23
3200.0
 33
0.0
  0
TEXT
  5
E32
  8
0
 62
     0
 10
-1150.475879
 20
3330.357143
 30
0.0
 40
25.0
  1
325
 50
90.0
  0
POINT
  5
E33
  8
DEFPOINTS
 62
     0
 10
-860.0
 20
3525.0
 30
0.0
  0
POINT
  5
E34
  8
DEFPOINTS
 62
     0
 10
-100.625
 20
3200.0
 30
0.0
  0
POINT
  5
E35
  8
DEFPOINTS
 62
     0
 10
-1137.475879
 20
3200.0
 30
0.0
  0
ENDBLK
  5
FE
  8
0
  0
BLOCK
  8
0
  2
*D2
 70
     1
 10
0.0
 20
0.0
 30
0.0
  3
*D2
  1

  0
LINE
  5
E24
  8
DIMENSION
 62
     0
 10
-100.625
 20
3200.0
 30
0.0
 11
-1138.725879
 21
3200.0
 31
0.0
  0
LINE
  5
E25
  8
DIMENSION
 62
     0
 10
-63.125
 20
2100.0
 30
0.0
 11
-1138.725879
 21
2100.0
 31
0.0
  0
LINE
  5
E26
  8
DIMENSION
 62
     0
 10
-1137.475879
 20
3175.0
 30
0.0
 11
-1137.475879
 21
2125.0
 31
0.0
  0
SOLID
  5
E27
  8
DIMENSION
 62
     0
 10
-1141.642546
 20
3175.0
 30
0.0
 11
-1133.309213
 21
3175.0
 31
0.0
 12
-1137.475879
 22
3200.0
 32
0.0
 13
-1137.475879
 23
3200.0
 33
0.0
  0
SOLID
  5
E28
  8
DIMENSION
 62
     0
 10
-1141.642546
 20
2125.0
 30
0.0
 11
-1133.309213
 21
2125.0
 31
0.0
 12
-1137.475879
 22
2100.0
 32
0.0
 13
-1137.475879
 23
2100.0
 33
0.0
  0
TEXT
  5
E29
  8
0
 62
     0
 10
-1150.475879
 20
2610.714286
 30
0.0
 40
25.0
  1
1100
 50
90.0
  0
POINT
  5
E2A
  8
DEFPOINTS
 62
     0
 10
-100.0
 20
3200.0
 30
0.0
  0
POINT
  5
E2B
  8
DEFPOINTS
 62
     0
 10
-62.5
 20
2100.0
 30
0.0
  0
POINT
  5
E2C
  8
DEFPOINTS
 62
     0
 10
-1137.475879
 20
2100.0
 30
0.0
  0
ENDBLK
  5
10A
  8
0
  0
BLOCK
  8
0
  2
*D3
 70
     1
 10
0.0
 20
0.0
 30
0.0
  3
*D3
  1

  0
LINE
  5
DFE
  8
DIMENSION
 62
     0
 10
-286.25
 20
3850.0
 30
0.0
 11
-1138.725879
 21
3850.0
 31
0.0
  0
LINE
  5
DFF
  8
DIMENSION
 62
     0
 10
-860.625
 20
3525.0
 30
0.0
 11
-1138.725879
 21
3525.0
 31
0.0
  0
LINE
  5
E00
  8
DIMENSION
 62
     0
 10
-1137.475879
 20
3825.0
 30
0.0
 11
-1137.475879
 21
3550.0
 31
0.0
  0
SOLID
  5
E01
  8
DIMENSION
 62
     0
 10
-1141.642546
 20
3825.0
 30
0.0
 11
-1133.309213
 21
3825.0
 31
0.0
 12
-1137.475879
 22
3850.0
 32
0.0
 13
-1137.475879
 23
3850.0
 33
0.0
  0
SOLID
  5
E02
  8
DIMENSION
 62
     0
 10
-1141.642546
 20
3550.0
 30
0.0
 11
-1133.309213
 21
3550.0
 31
0.0
 12
-1137.475879
 22
3525.0
 32
0.0
 13
-1137.475879
 23
3525.0
 33
0.0
  0
TEXT
  5
E03
  8
0
 62
     0
 10
-1150.475879
 20
3655.357143
 30
0.0
 40
25.0
  1
325
 50
90.0
  0
POINT
  5
E04
  8
DEFPOINTS
 62
     0
 10
-285.625
 20
3850.0
 30
0.0
  0
POINT
  5
E05
  8
DEFPOINTS
 62
     0
 10
-860.0
 20
3525.0
 30
0.0
  0
POINT
  5
E06
  8
DEFPOINTS
 62
     0
 10
-1137.475879
 20
3525.0
 30
0.0
  0
ENDBLK
  5
116
  8
0
  0
BLOCK
  8
0
  2
*D4
 70
     1
 10
0.0
 20
0.0
 30
0.0
  3
*D4
  1

  0
LINE
  5
F1B
  8
DIMENSION
 62
     0
 10
-810.0
 20
-0.625
 30
0.0
 11
-810.0
 21
-105.707394
 31
0.0
  0
LINE
  5
F1C
  8
DIMENSION
 62
     0
 10
810.0
 20
-0.625
 30
0.0
 11
810.0
 21
-105.707394
 31
0.0
  0
LINE
  5
F1D
  8
DIMENSION
 62
     0
 10
-785.0
 20
-104.457394
 30
0.0
 11
785.0
 21
-104.457394
 31
0.0
  0
SOLID
  5
F1E
  8
DIMENSION
 62
     0
 10
-785.0
 20
-100.290728
 30
0.0
 11
-785.0
 21
-108.624061
 31
0.0
 12
-810.0
 22
-104.457394
 32
0.0
 13
-810.0
 23
-104.457394
 33
0.0
  0
SOLID
  5
F1F
  8
DIMENSION
 62
     0
 10
785.0
 20
-100.290728
 30
0.0
 11
785.0
 21
-108.624061
 31
0.0
 12
810.0
 22
-104.457394
 32
0.0
 13
810.0
 23
-104.457394
 33
0.0
  0
TEXT
  5
F20
  8
0
 62
     0
 10
-41.666667
 20
-91.457394
 30
0.0
 40
25.0
  1
1620
  0
POINT
  5
F21
  8
DEFPOINTS
 62
     0
 10
-810.0
 20
0.0
 30
0.0
  0
POINT
  5
F22
  8
DEFPOINTS
 62
     0
 10
810.0
 20
0.0
 30
0.0
  0
POINT
  5
F23
  8
DEFPOINTS
 62
     0
 10
810.0
 20
-104.457394
 30
0.0
  0
ENDBLK
  5
122
  8
0
  0
BLOCK
  8
0
  2
*D5
 70
     1
 10
0.0
 20
0.0
 30
0.0
  3
*D5
  1

  0
LINE
  5
D1F
  8
DIMENSION
 62
     0
 10
-860.625
 20
295.0
 30
0.0
 11
-1142.660145
 21
295.0
 31
0.0
  0
LINE
  5
D20
  8
DIMENSION
 62
     0
 10
-809.625
 20
0.0
 30
0.0
 11
-1142.660145
 21
0.0
 31
0.0
  0
LINE
  5
D21
  8
DIMENSION
 62
     0
 10
-1141.410145
 20
270.0
 30
0.0
 11
-1141.410145
 21
25.0
 31
0.0
  0
SOLID
  5
D22
  8
DIMENSION
 62
     0
 10
-1145.576811
 20
270.0
 30
0.0
 11
-1137.243478
 21
270.0
 31
0.0
 12
-1141.410145
 22
295.0
 32
0.0
 13
-1141.410145
 23
295.0
 33
0.0
  0
SOLID
  5
D23
  8
DIMENSION
 62
     0
 10
-1145.576811
 20
25.0
 30
0.0
 11
-1137.243478
 21
25.0
 31
0.0
 12
-1141.410145
 22
0.0
 32
0.0
 13
-1141.410145
 23
0.0
 33
0.0
  0
TEXT
  5
D24
  8
0
 62
     0
 10
-1154.410145
 20
115.357143
 30
0.0
 40
25.0
  1
295
 50
90.0
  0
POINT
  5
D25
  8
DEFPOINTS
 62
     0
 10
-860.0
 20
295.0
 30
0.0
  0
POINT
  5
D26
  8
DEFPOINTS
 62
     0
 10
-809.0
 20
0.0
 30
0.0
  0
POINT
  5
D27
  8
DEFPOINTS
 62
     0
 10
-1141.410145
 20
0.0
 30
0.0
  0
ENDBLK
  5
12E
  8
0
  0
BLOCK
  8
0
  2
*D6
 70
     1
 10
0.0
 20
0.0
 30
0.0
  3
*D6
  1

  0
LINE
  5
D70
  8
DIMENSION
 62
     0
 10
-100.625
 20
2100.0
 30
0.0
 11
-1138.725879
 21
2100.0
 31
0.0
  0
LINE
  5
D71
  8
DIMENSION
 62
     0
 10
-100.625
 20
770.0
 30
0.0
 11
-1138.725879
 21
770.0
 31
0.0
  0
LINE
  5
D72
  8
DIMENSION
 62
     0
 10
-1137.475879
 20
2075.0
 30
0.0
 11
-1137.475879
 21
795.0
 31
0.0
  0
SOLID
  5
D73
  8
DIMENSION
 62
     0
 10
-1141.642546
 20
2075.0
 30
0.0
 11
-1133.309213
 21
2075.0
 31
0.0
 12
-1137.475879
 22
2100.0
 32
0.0
 13
-1137.475879
 23
2100.0
 33
0.0
  0
SOLID
  5
D74
  8
DIMENSION
 62
     0
 10
-1141.642546
 20
795.0
 30
0.0
 11
-1133.309213
 21
795.0
 31
0.0
 12
-1137.475879
 22
770.0
 32
0.0
 13
-1137.475879
 23
770.0
 33
0.0
  0
TEXT
  5
D75
  8
0
 62
     0
 10
-1150.475879
 20
1393.333333
 30
0.0
 40
25.0
  1
1330
 50
90.0
  0
POINT
  5
D76
  8
DEFPOINTS
 62
     0
 10
-100.0
 20
2100.0
 30
0.0
  0
POINT
  5
D77
  8
DEFPOINTS
 62
     0
 10
-100.0
 20
770.0
 30
0.0
  0
POINT
  5
D78
  8
DEFPOINTS
 62
     0
 10
-1137.475879
 20
770.0
 30
0.0
  0
ENDBLK
  5
13A
  8
0
  0
BLOCK
  8
0
  2
*D7
 70
     1
 10
0.0
 20
0.0
 30
0.0
  3
*D7
  1

  0
LINE
  5
F09
  8
DIMENSION
 62
     0
 10
-285.625
 20
3850.0
 30
0.0
 11
-1250.36338
 21
3850.0
 31
0.0
  0
LINE
  5
F0A
  8
DIMENSION
 62
     0
 10
-810.625
 20
0.0
 30
0.0
 11
-1250.36338
 21
0.0
 31
0.0
  0
LINE
  5
F0B
  8
DIMENSION
 62
     0
 10
-1249.11338
 20
3825.0
 30
0.0
 11
-1249.11338
 21
25.0
 31
0.0
  0
SOLID
  5
F0C
  8
DIMENSION
 62
     0
 10
-1253.280046
 20
3825.0
 30
0.0
 11
-1244.946713
 21
3825.0
 31
0.0
 12
-1249.11338
 22
3850.0
 32
0.0
 13
-1249.11338
 23
3850.0
 33
0.0
  0
SOLID
  5
F0D
  8
DIMENSION
 62
     0
 10
-1253.280046
 20
25.0
 30
0.0
 11
-1244.946713
 21
25.0
 31
0.0
 12
-1249.11338
 22
0.0
 32
0.0
 13
-1249.11338
 23
0.0
 33
0.0
  0
TEXT
  5
F0E
  8
0
 62
     0
 10
-1262.11338
 20
1880.952381
 30
0.0
 40
25.0
  1
3850
 50
90.0
  0
POINT
  5
F0F
  8
DEFPOINTS
 62
     0
 10
-285.0
 20
3850.0
 30
0.0
  0
POINT
  5
F10
  8
DEFPOINTS
 62
     0
 10
-810.0
 20
0.0
 30
0.0
  0
POINT
  5
F11
  8
DEFPOINTS
 62
     0
 10
-1249.11338
 20
0.0
 30
0.0
  0
ENDBLK
  5
146
  8
0
  0
ENDSEC
  0
SECTION
  2
ENTITIES
  0
LINE
  5
26
  8
PLANNING
 10
1145.573698
 20
4350.0
 30
0.0
 11
1145.573698
 21
-3850.0
 31
0.0
  0
LINE
  5
29
  8
PLANNING
 10
-1060.0
 20
4350.0
 30
0.0
 11
-1060.0
 21
-3850.0
 31
0.0
  0
DIMENSION
  5
2A
  8
DIMENSION
  2
*D7
 10
-1249.11338
 20
0.0
 30
0.0
 11
-1249.11338
 21
1925.0
 31
0.0
 70
   128
 13
-285.0
 23
3850.0
 33
0.0
 14
-810.0
 24
0.0
 34
0.0
 50
90.0
  0
DIMENSION
  5
3B
  8
DIMENSION
  2
*D6
 10
-1137.475879
 20
770.0
 30
0.0
 11
-1162.975879
 21
1435.0
 31
0.0
 70
     0
 13
-100.0
 23
2100.0
 33
0.0
 14
-100.0
 24
770.0
 34
0.0
 50
90.0
  0
LINE
  5
4A
  8
DETAIL
 10
-860.0
 20
3525.0
 30
0.0
 11
-860.0
 21
295.0
 31
0.0
  0
LINE
  5
4C
  8
DETAIL
 10
860.0
 20
3525.0
 30
0.0
 11
860.0
 21
295.0
 31
0.0
  0
LINE
  5
4D
  8
CENTER
  6
CENTER
 10
0.0
 20
3850.0
 30
0.0
 11
0.0
 21
0.0
 31
0.0
  0
LINE
  5
50
  8
STELTXT
 10
159.76462
 20
-4.982537
 30
0.0
 11
1248.444267
 21
-4.982537
 31
0.0
1001
ACAD
1000
R13OBJECT
1002
{
1005
0
1002
}
  0
SOLID
  5
52
  8
STELTXT
  6
CONTINUOUS
 10
-159.76462
 20
-9.14919
 30
0.0
 11
-134.76462
 21
-4.982523
 31
0.0
 12
-159.76462
 22
-0.815857
 32
0.0
 13
-159.76462
 23
-0.815857
 33
0.0
210
-0.0
220
0.0
230
-1.0
  0
LINE
  5
53
  8
PLANNING
 10
1145.573698
 20
-3850.0
 30
0.0
 11
-1060.0
 21
-3850.0
 31
0.0
  0
DIMENSION
  5
54
  8
DIMENSION
  2
*D5
 10
-1141.410145
 20
0.0
 30
0.0
 11
-1166.910145
 21
147.5
 31
0.0
 70
     0
 13
-860.0
 23
295.0
 33
0.0
 14
-809.0
 24
0.0
 34
0.0
 50
90.0
  0
ATTDEF
  5
61
  8
STELATT
 10
-233.333333
 20
-4120.986484
 30
0.0
 40
40.0
  1
IDEAL
 72
     4
 11
0.0
 21
-4100.986484
 31
0.0
  3

  2
MANUFACTURER
 70
     2
  0
ATTDEF
  5
63
  8
STELATT
 10
-68.571429
 20
-4185.986484
 30
0.0
 40
40.0
  1
VANGUARD L
 72
     4
 11
0.0
 21
-4165.986484
 31
0.0
  3

  2
TYPE
 70
     2
  0
ATTDEF
  5
64
  8
STELATT
 10
-93.333333
 20
-4250.986484
 30
0.0
 40
40.0
  1
3000
 72
     4
 11
0.0
 21
-4230.986484
 31
0.0
  3

  2
MODEL
 70
     2
  0
DIMENSION
  5
65
  8
DIMENSION
  2
*D4
 10
810.0
 20
-104.457394
 30
0.0
 11
0.0
 21
-78.957394
 31
0.0
 70
     0
 13
-810.0
 23
0.0
 33
0.0
 14
810.0
 24
0.0
 34
0.0
  0
LINE
  5
74
  8
DETAIL
 10
810.0
 20
0.0
 30
0.0
 11
-810.0
 21
0.0
 31
0.0
  0
LINE
  5
75
  8
DETAIL
 10
810.0
 20
220.0
 30
0.0
 11
-810.0
 21
220.0
 31
0.0
  0
LINE
  5
76
  8
DETAIL
 10
-860.0
 20
295.0
 30
0.0
 11
860.0
 21
295.0
 31
0.0
  0
POLYLINE
  5
77
  8
STELTXT
 66
     1
 10
0.0
 20
0.0
 30
0.0
 70
   128
1001
ACAD
1000
R13OBJECT
1002
{
1005
0
1002
}
  0
VERTEX
  5
F72
  8
STELTXT
 10
129.091693
 20
782.5929
 30
0.0
  0
VERTEX
  5
F73
  8
STELTXT
 10
1107.179598
 20
880.457045
 30
0.0
  0
VERTEX
  5
F74
  8
STELTXT
 10
1251.004667
 20
880.457045
 30
0.0
  0
SEQEND
  5
F75
  8
STELTXT
  0
LINE
  5
78
  8
DETAIL
 10
1045.573698
 20
911.513845
 30
0.0
 11
1045.573698
 21
519.97854
 31
0.0
  0
POLYLINE
  5
79
  8
DETAIL
 66
     1
 10
0.0
 20
0.0
 30
0.0
 70
     1
  0
VERTEX
  5
F76
  8
DETAIL
 10
860.0
 20
911.513845
 30
0.0
 42
-0.414214
  0
VERTEX
  5
F77
  8
DETAIL
 10
875.0
 20
926.513845
 30
0.0
 42
-0.092505
  0
VERTEX
  5
F78
  8
DETAIL
 10
1020.573698
 20
926.513845
 30
0.0
 42
-0.414214
  0
VERTEX
  5
F79
  8
DETAIL
 10
1035.573698
 20
911.513845
 30
0.0
  0
VERTEX
  5
F7A
  8
DETAIL
 10
1035.573698
 20
519.97854
 30
0.0
 42
-0.414214
  0
VERTEX
  5
F7B
  8
DETAIL
 10
1020.573698
 20
504.97854
 30
0.0
 42
-0.092505
  0
VERTEX
  5
F7C
  8
DETAIL
 10
875.0
 20
504.97854
 30
0.0
 42
-0.414214
  0
VERTEX
  5
F7D
  8
DETAIL
 10
860.0
 20
519.97854
 30
0.0
  0
SEQEND
  5
F7E
  8
DETAIL
  0
ARC
  5
7A
  8
DETAIL
 10
947.786849
 20
536.46103
 30
0.0
 40
406.785992
 50
79.544172
 51
100.455828
  0
LINE
  5
7B
  8
DETAIL
 10
-810.009748
 20
220.0
 30
0.0
 11
-810.009748
 21
0.0
 31
0.0
  0
LINE
  5
7C
  8
DETAIL
 10
-810.009748
 20
220.0
 30
0.0
 11
-810.009748
 21
295.0
 31
0.0
  0
LINE
  5
7D
  8
DETAIL
 10
860.0
 20
711.513845
 30
0.0
 11
860.0
 21
731.513845
 31
0.0
  0
ARC
  5
7E
  8
DETAIL
 10
875.0
 20
911.513845
 30
0.0
 40
25.0
 50
92.374172
 51
126.869898
  0
ARC
  5
7F
  8
DETAIL
 10
1020.573698
 20
911.513845
 30
0.0
 40
25.0
 50
0.0
 51
87.625828
  0
ARC
  5
80
  8
DETAIL
 10
947.786849
 20
895.031355
 30
0.0
 40
406.785992
 50
259.544172
 51
280.455828
  0
LINE
  5
81
  8
DETAIL
 10
125.0
 20
-5.0
 30
0.0
 11
-125.0
 21
-5.0
 31
0.0
  0
POLYLINE
  5
82
  8
ORIGIN
 66
     1
 10
0.0
 20
0.0
 30
0.0
 70
     1
  0
VERTEX
  5
F7F
  8
ORIGIN
 10
37.5
 20
-37.5
 30
0.0
  0
VERTEX
  5
F80
  8
ORIGIN
 10
-37.5
 20
37.5
 30
0.0
  0
VERTEX
  5
F81
  8
ORIGIN
 10
-37.5
 20
-37.5
 30
0.0
  0
VERTEX
  5
F82
  8
ORIGIN
 10
37.5
 20
37.5
 30
0.0
  0
SEQEND
  5
F83
  8
ORIGIN
  0
LINE
  5
84
  8
DETAIL
 10
-125.0
 20
-5.0
 30
0.0
 11
-125.0
 21
0.0
 31
0.0
  0
LINE
  5
85
  8
DETAIL
 10
125.0
 20
-5.0
 30
0.0
 11
125.0
 21
0.0
 31
0.0
  0
LINE
  5
86
  8
DETAIL
 10
860.0
 20
519.97854
 30
0.0
 11
860.0
 21
499.97854
 31
0.0
  0
ARC
  5
87
  8
DETAIL
 10
875.0
 20
519.97854
 30
0.0
 40
25.0
 50
233.130102
 51
267.625828
  0
CIRCLE
  5
88
  8
DETAIL
 10
0.0
 20
770.0
 30
0.0
 40
100.0
  0
SOLID
  5
89
  8
STELTXT
  6
CONTINUOUS
 10
-130.027965
 20
778.532788
 30
0.0
 11
-104.731024
 21
776.975267
 31
0.0
 12
-128.155421
 22
786.653011
 32
0.0
 13
-128.155421
 23
786.653011
 33
0.0
210
0.0
220
0.0
230
-1.0
  0
ARC
  5
8A
  8
DETAIL
 10
1020.573698
 20
519.97854
 30
0.0
 40
25.0
 50
272.374172
 51
0.0
  0
TEXT
  5
8B
  8
STELTXT
 10
1261.392268
 20
827.026403
 30
0.0
 40
25.0
  1
CONNECTION
  0
TEXT
  5
8C
  8
STELTXT
 10
1268.622128
 20
-18.02139
 30
0.0
 40
25.0
  1
BURNER CONNECTION
  0
TEXT
  5
8D
  8
STELTXT
 10
1261.392268
 20
869.883546
 30
0.0
 40
25.0
  1
200mm RETURN
  0
LINE
  5
8E
  8
DETAIL
 10
810.0
 20
220.0
 30
0.0
 11
810.0
 21
0.0
 31
0.0
  0
LINE
  5
8F
  8
DETAIL
 10
810.0
 20
220.0
 30
0.0
 11
810.0
 21
295.0
 31
0.0
  0
DIMENSION
  5
90
  8
DIMENSION
  2
*D3
 10
-1137.475879
 20
3525.0
 30
0.0
 11
-1162.975879
 21
3687.5
 31
0.0
 70
     0
 13
-285.625
 23
3850.0
 33
0.0
 14
-860.0
 24
3525.0
 34
0.0
 50
90.0
  0
DIMENSION
  5
9F
  8
DIMENSION
  2
*D2
 10
-1137.475879
 20
2100.0
 30
0.0
 11
-1162.975879
 21
2650.0
 31
0.0
 70
     0
 13
-100.0
 23
3200.0
 33
0.0
 14
-62.5
 24
2100.0
 34
0.0
 50
90.0
  0
DIMENSION
  5
AE
  8
DIMENSION
  2
*D1
 10
-1137.475879
 20
3200.0
 30
0.0
 11
-1162.975879
 21
3362.5
 31
0.0
 70
     0
 13
-860.0
 23
3525.0
 33
0.0
 14
-100.625
 24
3200.0
 34
0.0
 50
90.0
  0
LINE
  5
BD
  8
PLANNING
 10
-1060.0
 20
4350.0
 30
0.0
 11
1145.573698
 21
4350.0
 31
0.0
  0
POLYLINE
  5
BE
  8
STELTXT
 66
     1
 10
0.0
 20
0.0
 30
0.0
 70
   128
1001
ACAD
1000
R13OBJECT
1002
{
1005
0
1002
}
  0
VERTEX
  5
F84
  8
STELTXT
 10
312.626217
 20
3851.669573
 30
0.0
  0
VERTEX
  5
F85
  8
STELTXT
 10
1200.228586
 20
3961.817984
 30
0.0
  0
VERTEX
  5
F86
  8
STELTXT
 10
1248.444267
 20
3961.817984
 30
0.0
  0
SEQEND
  5
F87
  8
STELTXT
  0
DIMENSION
  5
BF
  8
DIMENSION
  2
*D0
 10
860.0
 20
4026.689525
 30
0.0
 11
-0.3125
 21
4026.689525
 31
0.0
 70
   128
 13
-860.0
 23
3525.0
 33
0.0
 14
860.0
 24
3525.0
 34
0.0
  0
LINE
  5
CE
  8
DETAIL
 10
-860.0
 20
3525.0
 30
0.0
 11
860.0
 21
3525.0
 31
0.0
  0
LINE
  5
CF
  8
DETAIL
 10
-750.315
 20
3800.0
 30
0.0
 11
750.315
 21
3800.0
 31
0.0
  0
POLYLINE
  5
D0
  8
STELTXT
 66
     1
 10
0.0
 20
0.0
 30
0.0
 70
   128
1001
ACAD
1000
R13OBJECT
1002
{
1005
0
1002
}
  0
VERTEX
  5
F88
  8
STELTXT
 10
89.615767
 20
2110.017114
 30
0.0
  0
VERTEX
  5
F89
  8
STELTXT
 10
1105.720661
 20
2210.471679
 30
0.0
  0
VERTEX
  5
F8A
  8
STELTXT
 10
1249.54573
 20
2210.471679
 30
0.0
  0
SEQEND
  5
F8B
  8
STELTXT
  0
POLYLINE
  5
D1
  8
STELTXT
 66
     1
 10
0.0
 20
0.0
 30
0.0
 70
   128
1001
ACAD
1000
R13OBJECT
1002
{
1005
0
1002
}
  0
VERTEX
  5
F8C
  8
STELTXT
 10
121.927965
 20
3232.609815
 30
0.0
  0
VERTEX
  5
F8D
  8
STELTXT
 10
1107.179598
 20
3331.826409
 30
0.0
  0
VERTEX
  5
F8E
  8
STELTXT
 10
1251.004667
 20
3331.826409
 30
0.0
  0
SEQEND
  5
F8F
  8
STELTXT
  0
LINE
  5
D2
  8
DETAIL
 10
-285.0
 20
3850.0
 30
0.0
 11
285.0
 21
3850.0
 31
0.0
  0
LINE
  5
D3
  8
DETAIL
 10
-750.315
 20
3800.0
 30
0.0
 11
-750.315
 21
3525.0
 31
0.0
  0
LINE
  5
D4
  8
DETAIL
 10
-285.0
 20
3850.0
 30
0.0
 11
-285.0
 21
3800.0
 31
0.0
  0
CIRCLE
  5
D5
  8
DETAIL
 10
0.0
 20
2100.0
 30
0.0
 40
62.5
  0
SOLID
  5
D6
  8
STELTXT
  6
CONTINUOUS
 10
-90.552039
 20
2105.957002
 30
0.0
 11
-65.255098
 21
2104.399481
 31
0.0
 12
-88.679495
 22
2114.077226
 32
0.0
 13
-88.679495
 23
2114.077226
 33
0.0
210
0.0
220
0.0
230
-1.0
  0
CIRCLE
  5
D7
  8
DETAIL
 10
0.0
 20
3200.0
 30
0.0
 40
100.0
  0
SOLID
  5
D8
  8
STELTXT
  6
CONTINUOUS
 10
-122.864237
 20
3228.549703
 30
0.0
 11
-97.567296
 21
3226.992182
 31
0.0
 12
-120.991693
 22
3236.669926
 32
0.0
 13
-120.991693
 23
3236.669926
 33
0.0
210
0.0
220
0.0
230
-1.0
  0
SOLID
  5
D9
  8
STELTXT
  6
CONTINUOUS
 10
-313.286937
 20
3847.555626
 30
0.0
 11
-287.942535
 21
3847.705256
 31
0.0
 12
-311.965498
 22
3855.78352
 32
0.0
 13
-311.965498
 23
3855.78352
 33
0.0
210
0.0
220
0.0
230
-1.0
  0
LINE
  5
DA
  8
DETAIL
 10
285.0
 20
3850.0
 30
0.0
 11
285.0
 21
3800.0
 31
0.0
  0
TEXT
  5
DB
  8
STELTXT
 10
1261.083811
 20
3949.224425
 30
0.0
 40
25.0
  1
570mm FLUE OUTLET
  0
TEXT
  5
DC
  8
STELTXT
 10
1259.933331
 20
3278.395767
 30
0.0
 40
25.0
  1
CONNECTION
  0
TEXT
  5
DD
  8
STELTXT
 10
1259.933331
 20
3321.25291
 30
0.0
 40
25.0
  1
200mm FLOW
  0
TEXT
  5
DE
  8
STELTXT
 10
1258.71135
 20
2155.988811
 30
0.0
 40
25.0
  1
& EXPANSION CONNECTION
  0
TEXT
  5
DF
  8
STELTXT
 10
1258.71135
 20
2198.845954
 30
0.0
 40
25.0
  1
125mm SAFETY VALVE
  0
LINE
  5
E0
  8
DETAIL
 10
750.315
 20
3800.0
 30
0.0
 11
750.315
 21
3525.0
 31
0.0
  0
ENDSEC
  0
EOF
