  0
SECTION
  2
HEADER
  9
$ACADVER
  1
AC1009
  9
$INSBASE
 10
0.0
 20
0.0
 30
0.0
  9
$EXTMIN
 10
-685.048484
 20
-1000.087291
 30
0.0
  9
$EXTMAX
 10
904.685364
 20
1862.087368
 30
0.0
  9
$LIMMIN
 10
0.0
 20
0.0
  9
$LIMMAX
 10
420.0
 20
297.0
  9
$ORTHOMODE
 70
     1
  9
$REGENMODE
 70
     1
  9
$FILLMODE
 70
     1
  9
$QTEXTMODE
 70
     0
  9
$MIRRTEXT
 70
     1
  9
$DRAGMODE
 70
     2
  9
$LTSCALE
 40
1.0
  9
$OSMODE
 70
     0
  9
$ATTMODE
 70
     2
  9
$TEXTSIZE
 40
25.0
  9
$TRACEWID
 40
1.0
  9
$TEXTSTYLE
  7
STANDARD
  9
$CLAYER
  8
0
  9
$CELTYPE
  6
BYLAYER
  9
$CECOLOR
 62
   256
  9
$DIMSCALE
 40
1.0
  9
$DIMASZ
 40
25.0
  9
$DIMEXO
 40
0.625
  9
$DIMDLI
 40
3.75
  9
$DIMRND
 40
0.0
  9
$DIMDLE
 40
0.0
  9
$DIMEXE
 40
1.25
  9
$DIMTP
 40
0.0
  9
$DIMTM
 40
0.0
  9
$DIMTXT
 40
25.0
  9
$DIMCEN
 40
2.5
  9
$DIMTSZ
 40
0.0
  9
$DIMTOL
 70
     0
  9
$DIMLIM
 70
     0
  9
$DIMTIH
 70
     0
  9
$DIMTOH
 70
     0
  9
$DIMSE1
 70
     0
  9
$DIMSE2
 70
     0
  9
$DIMTAD
 70
     1
  9
$DIMZIN
 70
     8
  9
$DIMBLK
  1

  9
$DIMASO
 70
     1
  9
$DIMSHO
 70
     1
  9
$DIMPOST
  1

  9
$DIMAPOST
  1

  9
$DIMALT
 70
     0
  9
$DIMALTD
 70
     3
  9
$DIMALTF
 40
0.03937
  9
$DIMLFAC
 40
1.0
  9
$DIMTOFL
 70
     1
  9
$DIMTVP
 40
0.0
  9
$DIMTIX
 70
     0
  9
$DIMSOXD
 70
     0
  9
$DIMSAH
 70
     0
  9
$DIMBLK1
  1

  9
$DIMBLK2
  1

  9
$DIMSTYLE
  2
ISO-25
  9
$DIMCLRD
 70
     0
  9
$DIMCLRE
 70
     0
  9
$DIMCLRT
 70
     0
  9
$DIMTFAC
 40
1.0
  9
$DIMGAP
 40
13.0
  9
$LUNITS
 70
     2
  9
$LUPREC
 70
     4
  9
$SKETCHINC
 40
1.0
  9
$FILLETRAD
 40
10.0
  9
$AUNITS
 70
     0
  9
$AUPREC
 70
     0
  9
$MENU
  1
.
  9
$ELEVATION
 40
0.0
  9
$PELEVATION
 40
0.0
  9
$THICKNESS
 40
0.0
  9
$LIMCHECK
 70
     0
  9
$BLIPMODE
 70
     0
  9
$CHAMFERA
 40
10.0
  9
$CHAMFERB
 40
10.0
  9
$SKPOLY
 70
     0
  9
$TDCREATE
 40
2452706.626866
  9
$TDUPDATE
 40
2453073.53352
  9
$TDINDWG
 40
0.334463
  9
$TDUSRTIMER
 40
0.334463
  9
$USRTIMER
 70
     1
  9
$ANGBASE
 50
0.0
  9
$ANGDIR
 70
     0
  9
$PDMODE
 70
     0
  9
$PDSIZE
 40
0.0
  9
$PLINEWID
 40
0.0
  9
$COORDS
 70
     1
  9
$SPLFRAME
 70
     0
  9
$SPLINETYPE
 70
     6
  9
$SPLINESEGS
 70
     8
  9
$ATTDIA
 70
     0
  9
$ATTREQ
 70
     1
  9
$HANDLING
 70
 22529
  9
$HANDSEED
  5
160C
  9
$SURFTAB1
 70
     6
  9
$SURFTAB2
 70
     6
  9
$SURFTYPE
 70
     6
  9
$SURFU
 70
     6
  9
$SURFV
 70
     6
  9
$UCSNAME
  2

  9
$UCSORG
 10
0.0
 20
0.0
 30
0.0
  9
$UCSXDIR
 10
1.0
 20
0.0
 30
0.0
  9
$UCSYDIR
 10
0.0
 20
1.0
 30
0.0
  9
$PUCSNAME
  2

  9
$PUCSORG
 10
0.0
 20
0.0
 30
0.0
  9
$PUCSXDIR
 10
1.0
 20
0.0
 30
0.0
  9
$PUCSYDIR
 10
0.0
 20
1.0
 30
0.0
  9
$USERI1
 70
     0
  9
$USERI2
 70
     0
  9
$USERI3
 70
     0
  9
$USERI4
 70
     0
  9
$USERI5
 70
     0
  9
$USERR1
 40
0.0
  9
$USERR2
 40
0.0
  9
$USERR3
 40
0.0
  9
$USERR4
 40
0.0
  9
$USERR5
 40
0.0
  9
$WORLDVIEW
 70
     1
  9
$SHADEDGE
 70
     3
  9
$SHADEDIF
 70
    70
  9
$TILEMODE
 70
     1
  9
$MAXACTVP
 70
    48
  9
$PLIMCHECK
 70
     0
  9
$PEXTMIN
 10
1.000000E+020
 20
1.000000E+020
 30
1.000000E+020
  9
$PEXTMAX
 10
-1.000000E+020
 20
-1.000000E+020
 30
-1.000000E+020
  9
$PLIMMIN
 10
0.0
 20
0.0
  9
$PLIMMAX
 10
420.0
 20
297.0
  9
$UNITMODE
 70
     0
  9
$VISRETAIN
 70
     1
  9
$PLINEGEN
 70
     0
  9
$PSLTSCALE
 70
     1
  0
ENDSEC
  0
SECTION
  2
TABLES
  0
TABLE
  2
VPORT
 70
     2
  0
VPORT
  2
*ACTIVE
 70
     0
 10
0.0
 20
0.0
 11
1.0
 21
1.0
 12
109.81844
 22
431.000038
 13
0.0
 23
0.0
 14
10.0
 24
10.0
 15
10.0
 25
10.0
 16
0.0
 26
0.0
 36
1.0
 17
0.0
 27
0.0
 37
0.0
 40
2895.136364
 41
1.825
 42
50.0
 43
0.0
 44
0.0
 50
0.0
 51
0.0
 71
     0
 72
   100
 73
     1
 74
     3
 75
     0
 76
     0
 77
     0
 78
     0
  0
ENDTAB
  0
TABLE
  2
LTYPE
 70
     3
  0
LTYPE
  2
CONTINUOUS
 70
     0
  3
Solid line
 72
    65
 73
     0
 40
0.0
  0
LTYPE
  2
CENTER
 70
     0
  3
____ _ ____ _ ____ _ ____ _ ____ _ ____ _ ____
 72
    65
 73
     4
 40
2.0
 49
1.25
 49
-0.25
 49
0.25
 49
-0.25
  0
LTYPE
  2
DASHED
 70
     0
  3
__ __ __ __ __ __ __ __ __ __ __ __ __ __ __
 72
    65
 73
     2
 40
0.75
 49
0.5
 49
-0.25
  0
ENDTAB
  0
TABLE
  2
LAYER
 70
     9
  0
LAYER
  2
0
 70
     0
 62
     7
  6
CONTINUOUS
  0
LAYER
  2
ORIGIN
 70
     0
 62
     6
  6
CONTINUOUS
  0
LAYER
  2
DETAIL
 70
     0
 62
     2
  6
CONTINUOUS
  0
LAYER
  2
DIMENSION
 70
     0
 62
     7
  6
CONTINUOUS
  0
LAYER
  2
PLANNING
 70
     0
 62
     1
  6
DASHED
  0
LAYER
  2
STELTXT
 70
     0
 62
     4
  6
CONTINUOUS
  0
LAYER
  2
STELATT
 70
     0
 62
     7
  6
CONTINUOUS
  0
LAYER
  2
CENTER
 70
     0
 62
     4
  6
CENTER
  0
LAYER
  2
DEFPOINTS
 70
     0
 62
     7
  6
CONTINUOUS
  0
ENDTAB
  0
TABLE
  2
STYLE
 70
     1
  0
STYLE
  2
STANDARD
 70
     0
 40
0.0
 41
1.0
 50
0.0
 71
     0
 42
25.0
  3
simplex.shx
  4

  0
ENDTAB
  0
TABLE
  2
VIEW
 70
     0
  0
ENDTAB
  0
TABLE
  2
UCS
 70
     0
  0
ENDTAB
  0
TABLE
  2
APPID
 70
     1
  0
APPID
  2
ACAD
 70
     0
  0
ENDTAB
  0
TABLE
  2
DIMSTYLE
 70
     2
  0
DIMSTYLE
  2
ISO-25
 70
     0
  3

  4

  5

  6

  7

 40
1.0
 41
25.0
 42
0.625
 43
3.75
 44
1.25
 45
0.0
 46
0.0
 47
0.0
 48
0.0
140
25.0
141
2.5
142
0.0
143
0.03937
144
1.0
145
0.0
146
1.0
147
13.0
 71
     0
 72
     0
 73
     0
 74
     0
 75
     0
 76
     0
 77
     1
 78
     8
170
     0
171
     3
172
     1
173
     0
174
     0
175
     0
176
     0
177
     0
178
     0
  0
DIMSTYLE
  2
STANDARD
 70
     0
  3

  4

  5

  6

  7

 40
1.0
 41
0.18
 42
0.0625
 43
0.38
 44
0.18
 45
0.0
 46
0.0
 47
0.0
 48
0.0
140
0.18
141
0.09
142
0.0
143
25.4
144
1.0
145
0.0
146
1.0
147
0.09
 71
     0
 72
     0
 73
     1
 74
     1
 75
     0
 76
     0
 77
     0
 78
     0
170
     0
171
     2
172
     0
173
     0
174
     0
175
     0
176
     0
177
     0
178
     0
  0
ENDTAB
  0
ENDSEC
  0
SECTION
  2
BLOCKS
  0
BLOCK
  8
0
  2
$MODEL_SPACE
 70
     2
 10
0.0
 20
0.0
 30
0.0
  3
$MODEL_SPACE
  1

  0
ENDBLK
  5
A
  8
0
  0
BLOCK
 67
     1
  8
0
  2
$PAPER_SPACE
 70
     0
 10
0.0
 20
0.0
 30
0.0
  3
$PAPER_SPACE
  1

  0
ENDBLK
  5
10
 67
     1
  8
0
  0
BLOCK
  8
0
  2
*D0
 70
     1
 10
0.0
 20
0.0
 30
0.0
  3
*D0
  1

  0
LINE
  5
13BD
  8
DIMENSION
 62
     0
 10
-419.625
 20
0.0
 30
0.0
 11
-621.710687
 21
0.0
 31
0.0
  0
LINE
  5
13BE
  8
DIMENSION
 62
     0
 10
-316.625
 20
1362.0
 30
0.0
 11
-621.710687
 21
1362.0
 31
0.0
  0
LINE
  5
13BF
  8
DIMENSION
 62
     0
 10
-620.460687
 20
25.0
 30
0.0
 11
-620.460687
 21
1337.0
 31
0.0
  0
SOLID
  5
13C0
  8
DIMENSION
 62
     0
 10
-624.627354
 20
25.0
 30
0.0
 11
-616.294021
 21
25.0
 31
0.0
 12
-620.460687
 22
0.0
 32
0.0
 13
-620.460687
 23
0.0
 33
0.0
  0
SOLID
  5
13C1
  8
DIMENSION
 62
     0
 10
-624.627354
 20
1337.0
 30
0.0
 11
-616.294021
 21
1337.0
 31
0.0
 12
-620.460687
 22
1362.0
 32
0.0
 13
-620.460687
 23
1362.0
 33
0.0
  0
TEXT
  5
13C2
  8
0
 62
     0
 10
-633.460687
 20
639.333333
 30
0.0
 40
25.0
  1
1362
 50
90.0
  0
POINT
  5
13C3
  8
DEFPOINTS
 62
     0
 10
-419.0
 20
0.0
 30
0.0
  0
POINT
  5
13C4
  8
DEFPOINTS
 62
     0
 10
-316.0
 20
1362.0
 30
0.0
  0
POINT
  5
13C5
  8
DEFPOINTS
 62
     0
 10
-620.460687
 20
1362.0
 30
0.0
  0
ENDBLK
  5
FFA
  8
0
  0
BLOCK
  8
0
  2
*D1
 70
     1
 10
0.0
 20
0.0
 30
0.0
  3
*D1
  1

  0
LINE
  5
13A0
  8
DIMENSION
 62
     0
 10
-316.0
 20
1362.625
 30
0.0
 11
-316.0
 21
1518.481686
 31
0.0
  0
LINE
  5
13A1
  8
DIMENSION
 62
     0
 10
316.0
 20
1362.625
 30
0.0
 11
316.0
 21
1518.481686
 31
0.0
  0
LINE
  5
13A2
  8
DIMENSION
 62
     0
 10
-291.0
 20
1517.231686
 30
0.0
 11
291.0
 21
1517.231686
 31
0.0
  0
SOLID
  5
13A3
  8
DIMENSION
 62
     0
 10
-291.0
 20
1521.398353
 30
0.0
 11
-291.0
 21
1513.06502
 31
0.0
 12
-316.0
 22
1517.231686
 32
0.0
 13
-316.0
 23
1517.231686
 33
0.0
  0
SOLID
  5
13A4
  8
DIMENSION
 62
     0
 10
291.0
 20
1521.398353
 30
0.0
 11
291.0
 21
1513.06502
 31
0.0
 12
316.0
 22
1517.231686
 32
0.0
 13
316.0
 23
1517.231686
 33
0.0
  0
TEXT
  5
13A5
  8
0
 62
     0
 10
-32.142857
 20
1530.231686
 30
0.0
 40
25.0
  1
632
  0
POINT
  5
13A6
  8
DEFPOINTS
 62
     0
 10
-316.0
 20
1362.0
 30
0.0
  0
POINT
  5
13A7
  8
DEFPOINTS
 62
     0
 10
316.0
 20
1362.0
 30
0.0
  0
POINT
  5
13A8
  8
DEFPOINTS
 62
     0
 10
316.0
 20
1517.231686
 30
0.0
  0
ENDBLK
  5
1069
  8
0
  0
BLOCK
  8
0
  2
*D2
 70
     1
 10
0.0
 20
0.0
 30
0.0
  3
*D2
  1

  0
LINE
  5
1397
  8
DIMENSION
 62
     0
 10
-125.0
 20
1197.625
 30
0.0
 11
-125.0
 21
1450.354907
 31
0.0
  0
LINE
  5
1398
  8
DIMENSION
 62
     0
 10
125.0
 20
1197.625
 30
0.0
 11
125.0
 21
1450.354907
 31
0.0
  0
LINE
  5
1399
  8
DIMENSION
 62
     0
 10
-100.0
 20
1449.104907
 30
0.0
 11
100.0
 21
1449.104907
 31
0.0
  0
SOLID
  5
139A
  8
DIMENSION
 62
     0
 10
-100.0
 20
1453.271574
 30
0.0
 11
-100.0
 21
1444.93824
 31
0.0
 12
-125.0
 22
1449.104907
 32
0.0
 13
-125.0
 23
1449.104907
 33
0.0
  0
SOLID
  5
139B
  8
DIMENSION
 62
     0
 10
100.0
 20
1453.271574
 30
0.0
 11
100.0
 21
1444.93824
 31
0.0
 12
125.0
 22
1449.104907
 32
0.0
 13
125.0
 23
1449.104907
 33
0.0
  0
TEXT
  5
139C
  8
0
 62
     0
 10
-32.142857
 20
1462.104907
 30
0.0
 40
25.0
  1
250
  0
POINT
  5
139D
  8
DEFPOINTS
 62
     0
 10
-125.0
 20
1197.0
 30
0.0
  0
POINT
  5
139E
  8
DEFPOINTS
 62
     0
 10
125.0
 20
1197.0
 30
0.0
  0
POINT
  5
139F
  8
DEFPOINTS
 62
     0
 10
125.0
 20
1449.104907
 30
0.0
  0
ENDBLK
  5
1081
  8
0
  0
BLOCK
  8
0
  2
*D3
 70
     1
 10
0.0
 20
0.0
 30
0.0
  3
*D3
  1

  0
LINE
  5
13B4
  8
DIMENSION
 62
     0
 10
-419.625
 20
0.0
 30
0.0
 11
-561.831275
 21
0.0
 31
0.0
  0
LINE
  5
13B5
  8
DIMENSION
 62
     0
 10
-485.625
 20
1006.0
 30
0.0
 11
-561.831275
 21
1006.0
 31
0.0
  0
LINE
  5
13B6
  8
DIMENSION
 62
     0
 10
-560.581275
 20
25.0
 30
0.0
 11
-560.581275
 21
981.0
 31
0.0
  0
SOLID
  5
13B7
  8
DIMENSION
 62
     0
 10
-564.747942
 20
25.0
 30
0.0
 11
-556.414609
 21
25.0
 31
0.0
 12
-560.581275
 22
0.0
 32
0.0
 13
-560.581275
 23
0.0
 33
0.0
  0
SOLID
  5
13B8
  8
DIMENSION
 62
     0
 10
-564.747942
 20
981.0
 30
0.0
 11
-556.414609
 21
981.0
 31
0.0
 12
-560.581275
 22
1006.0
 32
0.0
 13
-560.581275
 23
1006.0
 33
0.0
  0
TEXT
  5
13B9
  8
0
 62
     0
 10
-573.581275
 20
461.928571
 30
0.0
 40
25.0
  1
1006
 50
90.0
  0
POINT
  5
13BA
  8
DEFPOINTS
 62
     0
 10
-419.0
 20
0.0
 30
0.0
  0
POINT
  5
13BB
  8
DEFPOINTS
 62
     0
 10
-485.0
 20
1006.0
 30
0.0
  0
POINT
  5
13BC
  8
DEFPOINTS
 62
     0
 10
-560.581275
 20
1006.0
 30
0.0
  0
ENDBLK
  5
10B1
  8
0
  0
BLOCK
  8
0
  2
*D4
 70
     1
 10
0.0
 20
0.0
 30
0.0
  3
*D4
  1

  0
LINE
  5
13A9
  8
DIMENSION
 62
     0
 10
485.0
 20
1006.625
 30
0.0
 11
485.0
 21
1581.738496
 31
0.0
  0
LINE
  5
13AA
  8
DIMENSION
 62
     0
 10
421.0
 20
1136.625
 30
0.0
 11
421.0
 21
1581.738496
 31
0.0
  0
LINE
  5
13AB
  8
DIMENSION
 62
     0
 10
510.0
 20
1580.488496
 30
0.0
 11
535.0
 21
1580.488496
 31
0.0
  0
LINE
  5
13AC
  8
DIMENSION
 62
     0
 10
396.0
 20
1580.488496
 30
0.0
 11
303.333333
 21
1580.488496
 31
0.0
  0
LINE
  5
13AD
  8
DIMENSION
 62
     0
 10
485.0
 20
1580.488496
 30
0.0
 11
421.0
 21
1580.488496
 31
0.0
  0
SOLID
  5
13AE
  8
DIMENSION
 62
     0
 10
510.0
 20
1584.655162
 30
0.0
 11
510.0
 21
1576.321829
 31
0.0
 12
485.0
 22
1580.488496
 32
0.0
 13
485.0
 23
1580.488496
 33
0.0
  0
SOLID
  5
13AF
  8
DIMENSION
 62
     0
 10
396.0
 20
1584.655162
 30
0.0
 11
396.0
 21
1576.321829
 31
0.0
 12
421.0
 22
1580.488496
 32
0.0
 13
421.0
 23
1580.488496
 33
0.0
  0
TEXT
  5
13B0
  8
0
 62
     0
 10
316.333333
 20
1593.488496
 30
0.0
 40
25.0
  1
64
  0
POINT
  5
13B1
  8
DEFPOINTS
 62
     0
 10
485.0
 20
1006.0
 30
0.0
  0
POINT
  5
13B2
  8
DEFPOINTS
 62
     0
 10
421.0
 20
1136.0
 30
0.0
  0
POINT
  5
13B3
  8
DEFPOINTS
 62
     0
 10
421.0
 20
1580.488496
 30
0.0
  0
ENDBLK
  5
12B7
  8
0
  0
BLOCK
  8
0
  2
*D5
 70
     1
 10
0.0
 20
0.0
 30
0.0
  3
*D5
  1

  0
LINE
  5
13C6
  8
DIMENSION
 62
     0
 10
-485.0
 20
139.375
 30
0.0
 11
-485.0
 21
-260.714532
 31
0.0
  0
LINE
  5
13C7
  8
DIMENSION
 62
     0
 10
485.0
 20
139.375
 30
0.0
 11
485.0
 21
-260.714532
 31
0.0
  0
LINE
  5
13C8
  8
DIMENSION
 62
     0
 10
-460.0
 20
-259.464532
 30
0.0
 11
460.0
 21
-259.464532
 31
0.0
  0
SOLID
  5
13C9
  8
DIMENSION
 62
     0
 10
-460.0
 20
-255.297865
 30
0.0
 11
-460.0
 21
-263.631198
 31
0.0
 12
-485.0
 22
-259.464532
 32
0.0
 13
-485.0
 23
-259.464532
 33
0.0
  0
SOLID
  5
13CA
  8
DIMENSION
 62
     0
 10
460.0
 20
-255.297865
 30
0.0
 11
460.0
 21
-263.631198
 31
0.0
 12
485.0
 22
-259.464532
 32
0.0
 13
485.0
 23
-259.464532
 33
0.0
  0
TEXT
  5
13CB
  8
0
 62
     0
 10
-32.142857
 20
-246.464532
 30
0.0
 40
25.0
  1
970
  0
POINT
  5
13CC
  8
DEFPOINTS
 62
     0
 10
-485.0
 20
140.0
 30
0.0
  0
POINT
  5
13CD
  8
DEFPOINTS
 62
     0
 10
485.0
 20
140.0
 30
0.0
  0
POINT
  5
13CE
  8
DEFPOINTS
 62
     0
 10
485.0
 20
-259.464532
 30
0.0
  0
ENDBLK
  5
1307
  8
0
  0
BLOCK
  8
0
  2
*D6
 70
     1
 10
0.0
 20
0.0
 30
0.0
  3
*D6
  1

  0
LINE
  5
13CF
  8
DIMENSION
 62
     0
 10
-257.737819
 20
-130.0
 30
0.0
 11
-561.831275
 21
-130.0
 31
0.0
  0
LINE
  5
13D0
  8
DIMENSION
 62
     0
 10
-419.625
 20
0.0
 30
0.0
 11
-561.831275
 21
0.0
 31
0.0
  0
LINE
  5
13D1
  8
DIMENSION
 62
     0
 10
-560.581275
 20
-105.0
 30
0.0
 11
-560.581275
 21
-25.0
 31
0.0
  0
SOLID
  5
13D2
  8
DIMENSION
 62
     0
 10
-564.747942
 20
-105.0
 30
0.0
 11
-556.414609
 21
-105.0
 31
0.0
 12
-560.581275
 22
-130.0
 32
0.0
 13
-560.581275
 23
-130.0
 33
0.0
  0
SOLID
  5
13D3
  8
DIMENSION
 62
     0
 10
-564.747942
 20
-25.0
 30
0.0
 11
-556.414609
 21
-25.0
 31
0.0
 12
-560.581275
 22
0.0
 32
0.0
 13
-560.581275
 23
0.0
 33
0.0
  0
TEXT
  5
13D4
  8
0
 62
     0
 10
-573.581275
 20
-94.761905
 30
0.0
 40
25.0
  1
130
 50
90.0
  0
POINT
  5
13D5
  8
DEFPOINTS
 62
     0
 10
-257.112819
 20
-130.0
 30
0.0
  0
POINT
  5
13D6
  8
DEFPOINTS
 62
     0
 10
-419.0
 20
0.0
 30
0.0
  0
POINT
  5
13D7
  8
DEFPOINTS
 62
     0
 10
-560.581275
 20
0.0
 30
0.0
  0
ENDBLK
  5
1342
  8
0
  0
ENDSEC
  0
SECTION
  2
ENTITIES
  0
ATTDEF
  5
2F
  8
STELATT
 10
-93.333333
 20
-831.325354
 30
0.0
 40
40.0
  1
ES140H
 72
     4
 11
0.0
 21
-811.325354
 31
0.0
  3

  2
MODEL
 70
     2
  0
ATTDEF
  5
33
  8
STELATT
 10
-233.333333
 20
-701.325354
 30
0.0
 40
40.0
  1
IDEAL
 72
     4
 11
0.0
 21
-681.325354
 31
0.0
  3

  2
MANUFACTURER
 70
     2
  0
LINE
  5
49
  8
PLANNING
 10
885.0
 20
1862.0
 30
0.0
 11
-685.0
 21
1862.0
 31
0.0
  0
LINE
  5
5D
  8
PLANNING
 10
-685.0
 20
-1000.0
 30
0.0
 11
885.0
 21
-1000.0
 31
0.0
  0
LINE
  5
62
  8
PLANNING
 10
-685.0
 20
1862.0
 30
0.0
 11
-685.0
 21
-1000.0
 31
0.0
  0
ATTDEF
  5
6A
  8
STELATT
 10
-68.571429
 20
-766.325354
 30
0.0
 40
40.0
  1
CONCORD ES
 72
     4
 11
0.0
 21
-746.325354
 31
0.0
  3

  2
TYPE
 70
     2
  0
POLYLINE
  5
6F
  8
ORIGIN
 66
     1
 10
0.0
 20
0.0
 30
0.0
 70
     1
  0
VERTEX
  5
15B4
  8
ORIGIN
 10
37.5
 20
-37.5
 30
0.0
  0
VERTEX
  5
15B5
  8
ORIGIN
 10
-37.5
 20
37.5
 30
0.0
  0
VERTEX
  5
15B6
  8
ORIGIN
 10
-37.5
 20
-37.5
 30
0.0
  0
VERTEX
  5
15B7
  8
ORIGIN
 10
37.5
 20
37.5
 30
0.0
  0
SEQEND
  5
15B8
  8
ORIGIN
  0
LINE
  5
92
  8
PLANNING
 10
885.0
 20
1862.0
 30
0.0
 11
885.0
 21
-1000.0
 31
0.0
  0
TEXT
  5
4A5
  8
STELTXT
 10
587.97017
 20
1208.496632
 30
0.0
 40
25.0
  1
HEATING FLOW
  0
TEXT
  5
4A6
  8
STELTXT
 10
587.97017
 20
1248.496632
 30
0.0
 40
25.0
  1
%%C2" THREADED
  0
TEXT
  5
4C0
  8
STELTXT
 10
6450.954798
 20
2826.230363
 30
0.0
 40
25.0
  1
 
  0
TEXT
  5
4C1
  8
STELTXT
 10
6459.385829
 20
1987.812349
 30
0.0
 40
25.0
  1
 
  0
POLYLINE
  8
STELTXT
  5
1602
  66
     1
 10
0.000000
 20
0.000000
 30
0.000000
  70
     8
  0
VERTEX
  8
STELTXT
  5
1603
 10
444.579
 20
1122.75
 30
0.000000
  70
    32
  0
VERTEX
  8
STELTXT
  5
1604
 10
546.566
 20
1262.87
 30
0.000000
  70
    32
  0
VERTEX
  8
STELTXT
  5
1605
 10
575.855
 20
1262.87
 30
0.000000
  70
    32
  0
SEQEND
  8
STELTXT
  5
1606
  0
LINE
  5
DE4
  8
CENTER
  6
CENTER
 10
421.0
 20
1006.0
 30
0.0
 11
421.0
 21
1136.0
 31
0.0
  0
POLYLINE
  8
STELTXT
  5
1607
  66
     1
 10
0.000000
 20
0.000000
 30
0.000000
  70
     8
  0
VERTEX
  8
STELTXT
  5
1608
 10
444.579
 20
1113.22
 30
0.000000
  70
    32
  0
VERTEX
  8
STELTXT
  5
1609
 10
546.566
 20
1161.35
 30
0.000000
  70
    32
  0
VERTEX
  8
STELTXT
  5
160A
 10
575.855
 20
1161.35
 30
0.000000
  70
    32
  0
SEQEND
  8
STELTXT
  5
160B
  0
TEXT
  5
F54
  8
STELTXT
 10
587.97017
 20
1106.970681
 30
0.0
 40
25.0
  1
HEATING RETURN
  0
TEXT
  5
F55
  8
STELTXT
 10
587.97017
 20
1146.970681
 30
0.0
 40
25.0
  1
%%C2" THREADED
  0
LINE
  5
FA7
  8
DETAIL
 10
-485.0
 20
140.0
 30
0.0
 11
-485.0
 21
1006.0
 31
0.0
  0
LINE
  5
FA8
  8
DETAIL
 10
38.0
 20
-142.7
 30
0.0
 11
38.0
 21
-117.3
 31
0.0
  0
LINE
  5
FE5
  8
DETAIL
 10
-419.0
 20
0.0
 30
0.0
 11
419.0
 21
0.0
 31
0.0
  0
LINE
  5
FE6
  8
DETAIL
 10
-485.0
 20
1006.0
 30
0.0
 11
485.0
 21
1006.0
 31
0.0
  0
LINE
  5
FE7
  8
DETAIL
 10
-316.0
 20
1362.0
 30
0.0
 11
316.0
 21
1362.0
 31
0.0
  0
LINE
  5
FE8
  8
DETAIL
 10
-316.0
 20
1362.0
 30
0.0
 11
-316.0
 21
1006.0
 31
0.0
  0
LINE
  5
FE9
  8
DETAIL
 10
316.0
 20
1362.0
 30
0.0
 11
316.0
 21
1006.0
 31
0.0
  0
CIRCLE
  5
FEC
  8
DETAIL
 10
0.0
 20
1197.0
 30
0.0
 40
125.0
  0
DIMENSION
  5
FEE
  8
DIMENSION
  2
*D0
 10
-620.460687
 20
1362.0
 30
0.0
 11
-645.960687
 21
681.0
 31
0.0
 70
     0
 13
-419.0
 23
0.0
 33
0.0
 14
-316.0
 24
1362.0
 34
0.0
 50
90.0
  0
DIMENSION
  5
105D
  8
DIMENSION
  2
*D1
 10
316.0
 20
1517.231686
 30
0.0
 11
0.0
 21
1542.731686
 31
0.0
 70
     0
 13
-316.0
 23
1362.0
 33
0.0
 14
316.0
 24
1362.0
 34
0.0
  0
DIMENSION
  5
1075
  8
DIMENSION
  2
*D2
 10
125.0
 20
1449.104907
 30
0.0
 11
0.0
 21
1474.604907
 31
0.0
 70
     0
 13
-125.0
 23
1197.0
 33
0.0
 14
125.0
 24
1197.0
 34
0.0
  0
DIMENSION
  5
10A5
  8
DIMENSION
  2
*D3
 10
-560.581275
 20
1006.0
 30
0.0
 11
-586.081275
 21
503.0
 31
0.0
 70
     0
 13
-419.0
 23
0.0
 33
0.0
 14
-485.0
 24
1006.0
 34
0.0
 50
90.0
  0
LINE
  5
10C7
  8
DETAIL
 10
395.6
 20
1136.0
 30
0.0
 11
446.4
 21
1136.0
 31
0.0
  0
LINE
  5
10D1
  8
DETAIL
 10
395.6
 20
1006.0
 30
0.0
 11
395.6
 21
1136.0
 31
0.0
  0
LINE
  5
10D2
  8
DETAIL
 10
446.4
 20
1006.0
 30
0.0
 11
446.4
 21
1136.0
 31
0.0
  0
LINE
  5
10D3
  8
CENTER
  6
CENTER
 10
-125.0
 20
1197.0
 30
0.0
 11
125.0
 21
1197.0
 31
0.0
  0
LINE
  5
10D4
  8
CENTER
  6
CENTER
 10
0.0
 20
1072.0
 30
0.0
 11
0.0
 21
1322.0
 31
0.0
  0
CIRCLE
  5
11E1
  8
DETAIL
 10
121.769116
 20
84.889384
 30
0.0
 40
15.0
  0
POLYLINE
  5
11E2
  8
DETAIL
 66
     1
 10
0.0
 20
0.0
 30
0.0
 70
     1
  0
VERTEX
  5
15B9
  8
DETAIL
 10
148.974457
 20
75.699075
 30
0.0
  0
VERTEX
  5
15BA
  8
DETAIL
 10
148.974457
 20
94.079693
 30
0.0
  0
VERTEX
  5
15BB
  8
DETAIL
 10
167.43298
 20
94.079693
 30
0.0
  0
VERTEX
  5
15BC
  8
DETAIL
 10
167.43298
 20
75.699075
 30
0.0
  0
SEQEND
  5
15BD
  8
DETAIL
  0
TEXT
  5
11E3
  8
STELTXT
 10
3723.089799
 20
3203.510594
 30
0.0
 40
25.0
  1
 
  0
TEXT
  5
11E4
  8
STELTXT
 10
3731.52083
 20
2365.09258
 30
0.0
 40
25.0
  1
 
  0
POLYLINE
  5
11E9
  8
DETAIL
 66
     1
 10
0.0
 20
0.0
 30
0.0
 70
     1
  0
VERTEX
  5
15BE
  8
DETAIL
 10
72.222902
 20
75.699075
 30
0.0
  0
VERTEX
  5
15BF
  8
DETAIL
 10
72.222902
 20
94.079693
 30
0.0
  0
VERTEX
  5
15C0
  8
DETAIL
 10
93.681425
 20
94.079693
 30
0.0
  0
VERTEX
  5
15C1
  8
DETAIL
 10
93.681425
 20
75.699075
 30
0.0
  0
SEQEND
  5
15C2
  8
DETAIL
  0
POLYLINE
  5
11EA
  8
DETAIL
 66
     1
 10
0.0
 20
0.0
 30
0.0
 70
     1
  0
VERTEX
  5
15C3
  8
DETAIL
 10
34.111792
 20
75.699075
 30
0.0
  0
VERTEX
  5
15C4
  8
DETAIL
 10
34.111792
 20
94.079693
 30
0.0
  0
VERTEX
  5
15C5
  8
DETAIL
 10
55.570314
 20
94.079693
 30
0.0
  0
VERTEX
  5
15C6
  8
DETAIL
 10
55.570314
 20
75.699075
 30
0.0
  0
SEQEND
  5
15C7
  8
DETAIL
  0
POLYLINE
  5
11EB
  8
DETAIL
 66
     1
 10
0.0
 20
0.0
 30
0.0
 70
     1
  0
VERTEX
  5
15C8
  8
DETAIL
 10
-3.999319
 20
75.380406
 30
0.0
  0
VERTEX
  5
15C9
  8
DETAIL
 10
-3.999319
 20
93.761023
 30
0.0
  0
VERTEX
  5
15CA
  8
DETAIL
 10
17.459203
 20
93.761023
 30
0.0
  0
VERTEX
  5
15CB
  8
DETAIL
 10
17.459203
 20
75.380406
 30
0.0
  0
SEQEND
  5
15CC
  8
DETAIL
  0
POLYLINE
  5
11EC
  8
DETAIL
 66
     1
 10
0.0
 20
0.0
 30
0.0
 70
     1
  0
VERTEX
  5
15CD
  8
DETAIL
 10
-345.637323
 20
55.380406
 30
0.0
  0
VERTEX
  5
15CE
  8
DETAIL
 10
-345.637323
 20
123.761023
 30
0.0
  0
VERTEX
  5
15CF
  8
DETAIL
 10
-174.1788
 20
123.761023
 30
0.0
  0
VERTEX
  5
15D0
  8
DETAIL
 10
-174.1788
 20
55.380406
 30
0.0
  0
SEQEND
  5
15D1
  8
DETAIL
  0
LINE
  5
11F4
  8
DETAIL
 10
299.0
 20
140.0
 30
0.0
 11
299.0
 21
0.0
 31
0.0
  0
CIRCLE
  5
11F8
  8
DETAIL
 10
203.604068
 20
84.889384
 30
0.0
 40
8.5
  0
POLYLINE
  5
11F9
  8
DETAIL
 66
     1
 10
0.0
 20
0.0
 30
0.0
 70
     1
  0
VERTEX
  5
15D2
  8
DETAIL
 10
-80.221541
 20
75.380406
 30
0.0
  0
VERTEX
  5
15D3
  8
DETAIL
 10
-80.221541
 20
93.761023
 30
0.0
  0
VERTEX
  5
15D4
  8
DETAIL
 10
-58.763018
 20
93.761023
 30
0.0
  0
VERTEX
  5
15D5
  8
DETAIL
 10
-58.763018
 20
75.380406
 30
0.0
  0
SEQEND
  5
15D6
  8
DETAIL
  0
POLYLINE
  5
11FA
  8
DETAIL
 66
     1
 10
0.0
 20
0.0
 30
0.0
 70
     1
  0
VERTEX
  5
15D7
  8
DETAIL
 10
-42.11043
 20
75.699075
 30
0.0
  0
VERTEX
  5
15D8
  8
DETAIL
 10
-42.11043
 20
94.079693
 30
0.0
  0
VERTEX
  5
15D9
  8
DETAIL
 10
-20.651907
 20
94.079693
 30
0.0
  0
VERTEX
  5
15DA
  8
DETAIL
 10
-20.651907
 20
75.699075
 30
0.0
  0
SEQEND
  5
15DB
  8
DETAIL
  0
POLYLINE
  5
11FB
  8
DETAIL
 66
     1
 10
0.0
 20
0.0
 30
0.0
 70
     1
  0
VERTEX
  5
15DC
  8
DETAIL
 10
-139.791174
 20
75.380406
 30
0.0
  0
VERTEX
  5
15DD
  8
DETAIL
 10
-139.791174
 20
103.761023
 30
0.0
  0
VERTEX
  5
15DE
  8
DETAIL
 10
-96.874129
 20
103.761023
 30
0.0
  0
VERTEX
  5
15DF
  8
DETAIL
 10
-96.874129
 20
75.380406
 30
0.0
  0
SEQEND
  5
15E0
  8
DETAIL
  0
LINE
  5
1207
  8
DETAIL
 10
-137.5
 20
-160.44405
 30
0.0
 11
62.5
 21
-160.44405
 31
0.0
  0
LINE
  5
1208
  8
DETAIL
 10
62.5
 20
-160.44405
 30
0.0
 11
62.5
 21
-99.55595
 31
0.0
  0
LINE
  5
120B
  8
DETAIL
 10
62.5
 20
-99.55595
 30
0.0
 11
-137.5
 21
-99.55595
 31
0.0
  0
LINE
  5
120C
  8
DETAIL
 10
-137.5
 20
-99.55595
 30
0.0
 11
-137.5
 21
-160.44405
 31
0.0
  0
POLYLINE
  5
120D
  8
DETAIL
 66
     1
 10
0.0
 20
0.0
 30
0.0
  0
VERTEX
  5
15E1
  8
DETAIL
 10
-137.5
 20
-107.380236
 30
0.0
  0
VERTEX
  5
15E2
  8
DETAIL
 10
-137.5
 20
-152.619764
 30
0.0
  0
SEQEND
  5
15E3
  8
DETAIL
  0
POLYLINE
  5
120E
  8
DETAIL
 66
     1
 10
0.0
 20
0.0
 30
0.0
 70
     1
  0
VERTEX
  5
15E4
  8
DETAIL
 10
-137.5
 20
-99.55595
 30
0.0
  0
VERTEX
  5
15E5
  8
DETAIL
 10
-169.511569
 20
-99.55595
 30
0.0
  0
VERTEX
  5
15E6
  8
DETAIL
 10
-169.511569
 20
-160.44405
 30
0.0
  0
VERTEX
  5
15E7
  8
DETAIL
 10
-137.5
 20
-160.44405
 30
0.0
  0
SEQEND
  5
15E8
  8
DETAIL
  0
POLYLINE
  5
120F
  8
DETAIL
 66
     1
 10
0.0
 20
0.0
 30
0.0
 70
     1
  0
VERTEX
  5
15E9
  8
DETAIL
 10
-122.65881
 20
-146.254366
 30
0.0
  0
VERTEX
  5
15EA
  8
DETAIL
 10
-85.176607
 20
-146.254366
 30
0.0
  0
VERTEX
  5
15EB
  8
DETAIL
 10
-85.176607
 20
-111.04082
 30
0.0
  0
VERTEX
  5
15EC
  8
DETAIL
 10
-122.65881
 20
-111.04082
 30
0.0
  0
SEQEND
  5
15ED
  8
DETAIL
  0
POLYLINE
  5
1210
  8
DETAIL
 66
     1
 10
0.0
 20
0.0
 30
0.0
 70
     1
  0
VERTEX
  5
15EE
  8
DETAIL
 10
-216.724161
 20
-114.214417
 30
0.0
  0
VERTEX
  5
15EF
  8
DETAIL
 10
-231.303561
 20
-114.214417
 30
0.0
  0
VERTEX
  5
15F0
  8
DETAIL
 10
-231.303561
 20
-145.785583
 30
0.0
  0
VERTEX
  5
15F1
  8
DETAIL
 10
-216.724161
 20
-145.785583
 30
0.0
  0
SEQEND
  5
15F2
  8
DETAIL
  0
POLYLINE
  5
1211
  8
DETAIL
 66
     1
 10
0.0
 20
0.0
 30
0.0
 70
     1
  0
VERTEX
  5
15F3
  8
DETAIL
 10
-257.112819
 20
-136.669963
 30
0.0
  0
VERTEX
  5
15F4
  8
DETAIL
 10
-231.303561
 20
-136.669963
 30
0.0
  0
VERTEX
  5
15F5
  8
DETAIL
 10
-231.303561
 20
-123.330037
 30
0.0
  0
VERTEX
  5
15F6
  8
DETAIL
 10
-257.112819
 20
-123.330037
 30
0.0
  0
SEQEND
  5
15F7
  8
DETAIL
  0
LINE
  5
1292
  8
DETAIL
 10
419.0
 20
1006.0
 30
0.0
 11
419.0
 21
0.0
 31
0.0
  0
LINE
  5
1293
  8
DETAIL
 10
-419.0
 20
1006.0
 30
0.0
 11
-419.0
 21
0.0
 31
0.0
  0
LINE
  5
1294
  8
DETAIL
 10
-485.0
 20
140.0
 30
0.0
 11
485.0
 21
140.0
 31
0.0
  0
LINE
  5
1295
  8
DETAIL
 10
-485.0
 20
140.0
 30
0.0
 11
-419.0
 21
0.0
 31
0.0
  0
LINE
  5
1296
  8
DETAIL
 10
419.0
 20
0.0
 30
0.0
 11
485.0
 21
140.0
 31
0.0
  0
DIMENSION
  5
12A9
  8
DIMENSION
  2
*D4
 10
421.0
 20
1580.488496
 30
0.0
 11
337.166667
 21
1605.988496
 31
0.0
 70
     0
 13
485.0
 23
1006.0
 33
0.0
 14
421.0
 24
1136.0
 34
0.0
  0
DIMENSION
  5
12FB
  8
DIMENSION
  2
*D5
 10
485.0
 20
-259.464532
 30
0.0
 11
0.0
 21
-233.964532
 31
0.0
 70
     0
 13
-485.0
 23
140.0
 33
0.0
 14
485.0
 24
140.0
 34
0.0
  0
POLYLINE
  5
132E
  8
DETAIL
 66
     1
 10
0.0
 20
0.0
 30
0.0
  0
VERTEX
  5
15F8
  8
DETAIL
 10
-169.511569
 20
-152.619764
 30
0.0
  0
VERTEX
  5
15F9
  8
DETAIL
 10
-216.724161
 20
-152.619764
 30
0.0
  0
VERTEX
  5
15FA
  8
DETAIL
 10
-216.724161
 20
-107.380236
 30
0.0
  0
VERTEX
  5
15FB
  8
DETAIL
 10
-169.511569
 20
-107.380236
 30
0.0
  0
SEQEND
  5
15FC
  8
DETAIL
  0
ARC
  5
1331
  8
DETAIL
 10
0.0
 20
-130.0
 30
0.0
 40
27.33434
 50
27.68544
 51
332.31456
  0
ARC
  5
1332
  8
DETAIL
 10
0.0
 20
-130.0
 30
0.0
 40
19.791114
 50
39.918861
 51
320.081139
  0
ARC
  5
1334
  8
DETAIL
 10
0.0
 20
-130.0
 30
0.0
 40
12.7
 50
90.0
 51
270.0
  0
DIMENSION
  5
1336
  8
DIMENSION
  2
*D6
 10
-560.581275
 20
0.0
 30
0.0
 11
-586.081275
 21
-65.0
 31
0.0
 70
     0
 13
-257.112819
 23
-130.0
 33
0.0
 14
-419.0
 24
0.0
 34
0.0
 50
90.0
  0
POLYLINE
  5
134E
  8
DETAIL
 66
     1
 10
0.0
 20
0.0
 30
0.0
 70
     1
  0
VERTEX
  5
15FD
  8
DETAIL
 10
49.379099
 20
-99.55595
 30
0.0
  0
VERTEX
  5
15FE
  8
DETAIL
 10
-63.113597
 20
-99.55595
 30
0.0
  0
VERTEX
  5
15FF
  8
DETAIL
 10
-63.113597
 20
-54.533335
 30
0.0
  0
VERTEX
  5
1600
  8
DETAIL
 10
49.379099
 20
-54.533335
 30
0.0
  0
SEQEND
  5
1601
  8
DETAIL
  0
LINE
  5
134F
  8
DETAIL
 10
-12.7
 20
-54.533335
 30
0.0
 11
-12.7
 21
0.0
 31
0.0
  0
LINE
  5
1350
  8
DETAIL
 10
12.7
 20
-54.533335
 30
0.0
 11
12.7
 21
0.0
 31
0.0
  0
LINE
  5
1351
  8
DETAIL
 10
0.0
 20
-117.3
 30
0.0
 11
38.0
 21
-117.3
 31
0.0
  0
LINE
  5
1352
  8
DETAIL
 10
0.0
 20
-142.7
 30
0.0
 11
38.0
 21
-142.7
 31
0.0
  0
LINE
  5
1353
  8
DETAIL
 10
485.0
 20
1006.0
 30
0.0
 11
485.0
 21
139.375
 31
0.0
  0
LINE
  5
1465
  8
0
 10
-316.625
 20
1362.625
 30
0.0
 11
-467.644765
 21
1362.625
 31
0.0
  0
LINE
  5
1466
  8
0
 10
-125.625
 20
1197.625
 30
0.0
 11
-467.644765
 21
1197.625
 31
0.0
  0
LINE
  5
1467
  8
0
 10
-466.394765
 20
1337.625
 30
0.0
 11
-466.394765
 21
1222.625
 31
0.0
  0
SOLID
  5
1468
  8
0
 10
-470.561431
 20
1337.625
 30
0.0
 11
-462.228098
 21
1337.625
 31
0.0
 12
-466.394765
 22
1362.625
 32
0.0
 13
-466.394765
 23
1362.625
 33
0.0
  0
SOLID
  5
1469
  8
0
 10
-470.561431
 20
1222.625
 30
0.0
 11
-462.228098
 21
1222.625
 31
0.0
 12
-466.394765
 22
1197.625
 32
0.0
 13
-466.394765
 23
1197.625
 33
0.0
  0
TEXT
  5
146B
  8
0
 10
-479.394765
 20
1250.363095
 30
0.0
 40
25.0
  1
165
 50
90.0
  0
ENDSEC
  0
EOF
